  0
SECTION
  2
HEADER
  9
$ACADVER
  1
AC1009
  9
$INSBASE
 10
0.0
 20
0.0
 30
0.0
  9
$EXTMIN
 10
-38.762581
 20
-64.596344
 30
0.0
  9
$EXTMAX
 10
171.237427
 20
232.403656
 30
0.0
  9
$LIMMIN
 10
-38.762581
 20
-64.596344
  9
$LIMMAX
 10
171.237427
 20
232.403656
  9
$ORTHOMODE
 70
     0
  9
$REGENMODE
 70
     1
  9
$FILLMODE
 70
     1
  9
$QTEXTMODE
 70
     0
  9
$MIRRTEXT
 70
     1
  9
$DRAGMODE
 70
     2
  9
$LTSCALE
 40
1.0
  9
$OSMODE
 70
     0
  9
$ATTMODE
 70
     1
  9
$TEXTSIZE
 40
0.2
  9
$TRACEWID
 40
0.05
  9
$TEXTSTYLE
  7
STANDARD
  9
$CLAYER
  8
0
  9
$CELTYPE
  6
CONTINUOUS
  9
$CECOLOR
 62
   256
  9
$DIMSCALE
 40
1.0
  9
$DIMASZ
 40
0.18
  9
$DIMEXO
 40
0.0625
  9
$DIMDLI
 40
0.38
  9
$DIMRND
 40
0.0
  9
$DIMDLE
 40
0.0
  9
$DIMEXE
 40
0.18
  9
$DIMTP
 40
0.0
  9
$DIMTM
 40
0.0
  9
$DIMTXT
 40
3.5
  9
$DIMCEN
 40
0.09
  9
$DIMTSZ
 40
0.0
  9
$DIMTOL
 70
     0
  9
$DIMLIM
 70
     0
  9
$DIMTIH
 70
     1
  9
$DIMTOH
 70
     1
  9
$DIMSE1
 70
     0
  9
$DIMSE2
 70
     0
  9
$DIMTAD
 70
     0
  9
$DIMZIN
 70
     0
  9
$DIMBLK
  1

  9
$DIMASO
 70
     1
  9
$DIMSHO
 70
     1
  9
$DIMPOST
  1

  9
$DIMAPOST
  1

  9
$DIMALT
 70
     0
  9
$DIMALTD
 70
     2
  9
$DIMALTF
 40
25.4
  9
$DIMLFAC
 40
1.0
  9
$DIMTOFL
 70
     0
  9
$DIMTVP
 40
0.0
  9
$DIMTIX
 70
     0
  9
$DIMSOXD
 70
     0
  9
$DIMSAH
 70
     0
  9
$DIMBLK1
  1

  9
$DIMBLK2
  1

  9
$DIMSTYLE
  2
STANDARD
  9
$DIMCLRD
 70
     0
  9
$DIMCLRE
 70
     0
  9
$DIMCLRT
 70
     0
  9
$DIMTFAC
 40
1.0
  9
$DIMGAP
 40
0.09
  9
$LUNITS
 70
     2
  9
$LUPREC
 70
     6
  9
$AXISMODE
 70
     0
  9
$AXISUNIT
 10
0.0
 20
0.0
  9
$SKETCHINC
 40
0.1
  9
$FILLETRAD
 40
0.0
  9
$AUNITS
 70
     0
  9
$AUPREC
 70
     4
  9
$MENU
  1
acad
  9
$ELEVATION
 40
0.0
  9
$PELEVATION
 40
0.0
  9
$THICKNESS
 40
0.0
  9
$LIMCHECK
 70
     0
  9
$BLIPMODE
 70
     1
  9
$CHAMFERA
 40
0.0
  9
$CHAMFERB
 40
0.0
  9
$SKPOLY
 70
     0
  9
$TDCREATE
 40
0.000000000
  9
$TDUPDATE
 40
0.000000000
  9
$TDINDWG
 40
0.0000000000
  9
$TDUSRTIMER
 40
0.0000000000
  9
$USRTIMER
 70
     1
  9
$ANGBASE
 50
0.0
  9
$ANGDIR
 70
     0
  9
$PDMODE
 70
     0
  9
$PDSIZE
 40
0.0
  9
$PLINEWID
 40
0.0
  9
$COORDS
 70
     0
  9
$SPLFRAME
 70
     0
  9
$SPLINETYPE
 70
     6
  9
$SPLINESEGS
 70
     8
  9
$ATTDIA
 70
     0
  9
$ATTREQ
 70
     1
  9
$HANDLING
 70
     0
  9
$HANDSEED
  5
3
  9
$SURFTAB1
 70
     6
  9
$SURFTAB2
 70
     6
  9
$SURFTYPE
 70
     6
  9
$SURFU
 70
     6
  9
$SURFV
 70
     6
  9
$UCSNAME
  2
MO_001_VIEW_PV_P
  9
$UCSORG
 10
0.0
 20
0.0
 30
0.0
  9
$UCSXDIR
 10
1.0
 20
0.0
 30
0.0
  9
$UCSYDIR
 10
0.0
 20
1.0
 30
0.0
  9
$PUCSNAME
  2

  9
$PUCSORG
 10
0.0
 20
0.0
 30
0.0
  9
$PUCSXDIR
 10
1.0
 20
0.0
 30
0.0
  9
$PUCSYDIR
 10
0.0
 20
1.0
 30
0.0
  9
$USERI1
 70
     0
  9
$USERI2
 70
     0
  9
$USERI3
 70
     0
  9
$USERI4
 70
     0
  9
$USERI5
 70
     0
  9
$USERR1
 40
0.0
  9
$USERR2
 40
0.0
  9
$USERR3
 40
0.0
  9
$USERR4
 40
0.0
  9
$USERR5
 40
0.0
  9
$WORLDVIEW
 70
     1
  9
$SHADEDGE
 70
     3
  9
$SHADEDIF
 70
    70
  9
$TILEMODE
 70
     1
  9
$MAXACTVP
 70
    16
  9
$PINSBASE
 10
0.0
 20
0.0
 30
0.0
  9
$PLIMCHECK
 70
     0
  9
$PEXTMIN
 10
-38.762581
 20
-64.596344
 30
1.000000E+20
  9
$PEXTMAX
 10
171.237427
 20
232.403656
 30
-1.000000E+20
  9
$PLIMMIN
 10
0.0
 20
0.0
  9
$PLIMMAX
 10
12.0
 20
9.0
  9
$UNITMODE
 70
     0
  9
$VISRETAIN
 70
     0
  9
$PLINEGEN
 70
     0
  9
$PSLTSCALE
 70
     1
  9
$TREEDEPTH
 70
  3020
  9
$DWGCODEPAGE
  3
iso8859-1
  0
ENDSEC
  0
SECTION
  2
TABLES
  0
TABLE
  2
VPORT
 70
     1
  0
VPORT
  2
*ACTIVE
 70
     0
 10
0.0
 20
0.0
 11
1.0
 21
1.0
 12
0.0
 22
0.0
 13
0.0
 23
0.0
 14
6.35
 24
6.35
 15
6.35
 25
6.35
 16
0.0
 26
0.0
 36
1.0
 17
0.0
 27
0.0
 37
0.0
 40
507.999992
 41
1.604229
 42
50.0
 43
0.0
 44
0.0
 50
0.0
 51
0.0
 71
     0
 72
   100
 73
     1
 74
     1
 75
     0
 76
     0
 77
     0
 78
     0
  0
ENDTAB
  0
TABLE
  2
LTYPE
 70
    37
  0
LTYPE
  2
CONTINUOUS
 70
     0
  3
DXF Default line type
 72
    65
 73
     0
 40
0.0
  0
LTYPE
  2
DASHED
 70
     0
  3
DXF Dashed
 72
    65
 73
     2
 40
0.75
 49
0.5
 49
-0.25
  0
LTYPE
  2
HIDDEN
 70
     0
  3
DXF Hidden
 72
    65
 73
     2
 40
0.375
 49
0.25
 49
-0.125
  0
LTYPE
  2
CENTER
 70
     0
  3
DXF Center
 72
    65
 73
     4
 40
2.0
 49
1.25
 49
-0.25
 49
0.25
 49
-0.25
  0
LTYPE
  2
PHANTOM
 70
     0
  3
DXF Phantom
 72
    65
 73
     6
 40
2.5
 49
1.25
 49
-0.25
 49
0.25
 49
-0.25
 49
0.25
 49
-0.25
  0
LTYPE
  2
DOT
 70
     0
  3
DXF DOT
 72
    65
 73
     2
 40
0.25
 49
0.0
 49
-0.25
  0
LTYPE
  2
DASHDOT
 70
     0
  3
DXF Dash Dot
 72
    65
 73
     4
 40
1.0
 49
0.5
 49
-0.25
 49
0.0
 49
-0.25
  0
LTYPE
  2
BORDER
 70
     0
  3
DXF Border
 72
    65
 73
     6
 40
1.75
 49
0.5
 49
-0.25
 49
0.5
 49
-0.25
 49
0.0
 49
-0.25
  0
LTYPE
  2
DIVIDE
 70
     0
  3
DXF Divide
 72
    65
 73
     6
 40
1.25
 49
0.5
 49
-0.25
 49
0.0
 49
-0.25
 49
0.0
 49
-0.25
  0
LTYPE
  2
C_SOLID_L
 70
     0
  3
CADAM Solid Light
 72
    65
 73
     0
 40
0.0
  0
LTYPE
  2
C_SOLID_M
 70
     0
  3
CADAM Solid Medium
 72
    65
 73
     0
 40
0.0
  0
LTYPE
  2
C_SOLID_H
 70
     0
  3
CADAM Solid Heavy
 72
    65
 73
     0
 40
0.0
  0
LTYPE
  2
C_DASHED_L
 70
     0
  3
CADAM Dashed Light
 72
    65
 73
     2
 40
0.375
 49
0.25
 49
-0.125
  0
LTYPE
  2
C_DASHED_M
 70
     0
  3
CADAM Dashed Medium
 72
    65
 73
     2
 40
0.5
 49
0.375
 49
-0.125
  0
LTYPE
  2
C_CENTER_L
 70
     0
  3
CADAM Center Light
 72
    65
 73
     4
 40
2.0
 49
1.25
 49
-0.25
 49
0.25
 49
-0.25
  0
LTYPE
  2
C_PHANTOM_L
 70
     0
  3
CADAM Phantom Light
 72
    65
 73
     6
 40
2.5
 49
1.25
 49
-0.25
 49
0.25
 49
-0.25
 49
0.25
 49
-0.25
  0
LTYPE
  2
C_BREAK_M
 70
     0
  3
CADAM Break Medium
 72
    65
 73
     4
 40
1.0
 49
0.5
 49
-0.25
 49
0.0
 49
-0.25
  0
LTYPE
  2
C_NC
 70
     0
  3
CADAM NC
 72
    65
 73
     0
 40
0.0
  0
LTYPE
  2
DSH1
 70
     2
  3
CADAM Style2 Type 1 Dashed Line
 72
    65
 73
     2
 40
0.075
 49
0.04
 49
-0.035
  0
LTYPE
  2
DSH2
 70
     2
  3
CADAM Style2 Type 2 Dashed Line
 72
    65
 73
     2
 40
0.15
 49
0.11
 49
-0.04
  0
LTYPE
  2
DSH3
 70
     2
  3
CADAM Style2 Type 3 Dashed Line
 72
    65
 73
     2
 40
0.2
 49
0.15
 49
-0.05
  0
LTYPE
  2
DSH4
 70
     2
  3
CADAM Style2 Type 4 Dashed Line
 72
    65
 73
     2
 40
0.36
 49
0.28
 49
-0.08
  0
LTYPE
  2
DSH5
 70
     2
  3
CADAM Style2 Type 5 Dashed Line
 72
    65
 73
     2
 40
0.47
 49
0.39
 49
-0.08
  0
LTYPE
  2
DSH6
 70
     2
  3
CADAM Style2 Type 6 Dashed Line
 72
    65
 73
     2
 40
0.9
 49
0.81
 49
-0.09
  0
LTYPE
  2
PL1
 70
     2
  3
Style 2 Type 1 Phantom Line
 72
    65
 73
     6
 40
1.0
 49
0.6
 49
-0.08
 49
0.08
 49
-0.08
 49
0.08
 49
-0.08
  0
LTYPE
  2
PL2
 70
     2
  3
Style 2 Type 2 Phantom Line
 72
    65
 73
     6
 40
1.08
 49
0.6
 49
-0.08
 49
0.12
 49
-0.08
 49
0.12
 49
-0.08
  0
LTYPE
  2
PL3
 70
     2
  3
Style 2 Type 3 Phantom Line
 72
    65
 73
     6
 40
2.0
 49
1.44
 49
-0.08
 49
0.16
 49
-0.08
 49
0.16
 49
-0.08
  0
LTYPE
  2
CL1
 70
     2
  3
CADAM Style 2 Type 1 Center Line
 72
    65
 73
     4
 40
0.7
 49
0.45
 49
-0.06
 49
0.13
 49
-0.06
  0
LTYPE
  2
CL2
 70
     2
  3
CADAM Style 2 Type 2 Center Line
 72
    65
 73
     4
 40
1.2
 49
1.01
 49
-0.06
 49
0.11
 49
-0.06
  0
LTYPE
  2
CL3
 70
     2
  3
CADAM Style 2 Type 3 Center Line
 72
    65
 73
     4
 40
1.2
 49
0.98
 49
-0.06
 49
0.1
 49
-0.06
  0
LTYPE
  2
CL4
 70
     2
  3
CADAM Style 2 Type 4 Center Line
 72
    65
 73
     4
 40
2.2
 49
1.93
 49
-0.07
 49
0.13
 49
-0.07
  0
LTYPE
  2
CL5
 70
     2
  3
CADAM Style 2 Type 5 Center Line
 72
    65
 73
     4
 40
2.2
 49
1.88
 49
-0.07
 49
0.18
 49
-0.07
  0
LTYPE
  2
SBK1
 70
     2
  3
CADAM Style 2 Type 1 SetBack Line
 72
    65
 73
     8
 40
2.7
 49
0.1
 49
-0.08
 49
0.1
 49
-0.8
 49
0.0
 49
0.0
 49
0.0
 49
0.0
  0
LTYPE
  2
SBK2
 70
     2
  3
CADAM Style 2 Type 2 SetBack Line
 72
    65
 73
     8
 40
3.71
 49
0.13
 49
-0.08
 49
0.13
 49
-0.8
 49
0.0
 49
0.0
 49
0.0
 49
0.0
  0
LTYPE
  2
STCH
 70
     2
  3
CADAM Style2 Stitch Line
 72
    65
 73
     2
 40
0.25
 49
0.0
 49
-0.25
  0
LTYPE
  2
MTCH
 70
     2
  3
CADAM Style2 Match Line
 72
    65
 73
     6
 40
2.0
 49
1.44
 49
-0.8
 49
0.16
 49
-0.08
 49
0.16
 49
-0.08
  0
LTYPE
  2
SLD
 70
     0
  3
CADAM Solid_EXT2
 72
    65
 73
     0
 40
0.0
  0
ENDTAB
  0
TABLE
  2
LAYER
 70
    11
  0
LAYER
  2
0
 70
     0
 62
     7
  6
CONTINUOUS
  0
LAYER
  2
MO_001_NOSHOW
 70
     1
 62
     7
  6
C_SOLID_M
  0
LAYER
  2
MO_001_VIEW_PV
 70
     0
 62
     7
  6
C_SOLID_M
  0
LAYER
  2
MO_001_VIEW_RA
 70
     0
 62
     7
  6
C_SOLID_M
  0
LAYER
  2
MO_001_VIEW_X1
 70
     0
 62
     7
  6
C_SOLID_M
  0
LAYER
  2
MO_001_VIEW_X2
 70
     0
 62
     7
  6
C_SOLID_M
  0
LAYER
  2
MO_001_VIEW_X3
 70
     0
 62
     7
  6
C_SOLID_M
  0
LAYER
  2
OVERLAY_MAP
 70
     1
 62
     7
  6
C_SOLID_M
  0
LAYER
  2
DITTOS
 70
     0
 62
     7
  6
C_SOLID_M
  0
LAYER
  2
SYMBOLS
 70
     0
 62
     7
  6
C_SOLID_M
  0
LAYER
  2
SETS
 70
     0
 62
     7
  6
C_SOLID_M
  0
ENDTAB
  0
TABLE
  2
STYLE
 70
     1
  0
STYLE
  2
STANDARD
 70
     0
 40
4.1672
 41
1.0
 50
0.0
 71
     0
 42
4.1672
  3
monotxt
  4

  0
ENDTAB
  0
TABLE
  2
VIEW
 70
     0
  0
ENDTAB
  0
TABLE
  2
UCS
 70
     5
  0
UCS
  2
MO_001_VIEW_PV_P
 70
     0
 10
0.0
 20
0.0
 30
0.0
 11
1.0
 21
0.0
 31
0.0
 12
-0.0000000002051034
 22
1.0
 32
0.0
  0
UCS
  2
MO_001_VIEW_RA_P
 70
     0
 10
-38.762580871582031
 20
-64.596343994140625
 30
0.0
 11
1.0
 21
0.0
 31
0.0
 12
-0.0000000002051034
 22
1.0
 32
0.0
  0
UCS
  2
MO_001_VIEW_X1_P
 70
     0
 10
45.711345672607422
 20
118.0
 30
0.0
 11
1.0
 21
0.0
 31
0.0
 12
-0.0000000002051034
 22
1.0
 32
0.0
  0
UCS
  2
MO_001_VIEW_X2_P
 70
     0
 10
96.0413818359375
 20
118.0
 30
0.0
 11
1.0
 21
0.0
 31
0.0
 12
-0.0000000002051034
 22
1.0
 32
0.0
  0
UCS
  2
MO_001_VIEW_X3_P
 70
     0
 10
137.70816040039062
 20
118.0
 30
0.0
 11
1.0
 21
0.0
 31
0.0
 12
-0.0000000002051034
 22
1.0
 32
0.0
  0
ENDTAB
  0
TABLE
  2
APPID
 70
     1
  0
APPID
  2
ACAD
 70
     0
  0
ENDTAB
  0
TABLE
  2
DIMSTYLE
 70
     1
  0
DIMSTYLE
  2
STANDARD
 70
     0
  3

  4

  5

  6

  7

 40
1.0
 41
0.18
 42
0.0625
 43
0.38
 44
0.18
 45
0.0
 46
0.0
 47
0.0
 48
0.0
140
3.5
141
0.09
142
0.0
143
25.4
144
1.0
145
0.0
146
1.0
147
0.09
 71
     0
 72
     0
 73
     0
 74
     0
 75
     0
 76
     0
 77
     0
 78
     0
170
     0
171
     2
172
     0
173
     0
174
     0
175
     0
176
     0
177
     0
178
     0
  0
ENDTAB
  0
ENDSEC
  0
SECTION
  2
BLOCKS
  0
BLOCK
  8
MO_001_VIEW_PV
  6
C_SOLID_M
  2
*D0
 70
     1
 10
0.0
 20
0.0
 30
0.0
  3
*D0
  0
TEXT
  8
MO_001_VIEW_PV
  6
BYBLOCK
 10
8.412547
 20
-5.93527
 30
0.0
 40
3.5
  1
M6
  0
LINE
  8
MO_001_VIEW_PV
  6
BYBLOCK
 10
-3.0
 20
-6.81027
 30
0.0
 11
3.0
 21
-6.81027
 31
0.0
  0
LINE
  8
MO_001_VIEW_PV
  6
BYBLOCK
 10
-3.0
 20
-6.81027
 30
0.0
 11
-9.35
 21
-6.81027
 31
0.0
  0
LINE
  8
MO_001_VIEW_PV
  6
BYBLOCK
 10
3.0
 20
-6.81027
 30
0.0
 11
9.35
 21
-6.81027
 31
0.0
  0
SOLID
  8
MO_001_VIEW_PV
  6
BYBLOCK
 10
-6.31826
 20
-7.393782
 30
0.0
 11
-3.508
 21
-6.81027
 31
0.0
 12
-6.31826
 22
-6.226759
 32
0.0
 13
-6.31826
 23
-6.226759
 33
0.0
  0
SOLID
  8
MO_001_VIEW_PV
  6
BYBLOCK
 10
6.31826
 20
-6.226759
 30
0.0
 11
3.508
 21
-6.81027
 31
0.0
 12
6.31826
 22
-7.393782
 32
0.0
 13
6.31826
 23
-7.393782
 33
0.0
  0
LINE
  8
MO_001_VIEW_PV
  6
BYBLOCK
 10
-3.0
 20
1.5
 30
0.0
 11
-3.0
 21
-7.81027
 31
0.0
  0
LINE
  8
MO_001_VIEW_PV
  6
BYBLOCK
 10
3.0
 20
1.5
 30
0.0
 11
3.0
 21
-7.81027
 31
0.0
  0
LINE
  8
MO_001_VIEW_PV
  6
BYBLOCK
 10
3.0
 20
-6.81027
 30
0.0
 11
16.147547
 21
-6.81027
 31
0.0
  0
ENDBLK
  8
0
  0
BLOCK
  8
MO_001_VIEW_PV
  6
C_SOLID_M
  2
*D1
 70
     1
 10
0.0
 20
0.0
 30
0.0
  3
*D1
  0
TEXT
  8
MO_001_VIEW_PV
  6
BYBLOCK
 10
-11.984252
 20
2.759029
 30
0.0
 40
3.5
  1
8
 50
89.9
  0
LINE
  8
MO_001_VIEW_PV
  6
BYBLOCK
 10
-11.10708
 20
0.0
 30
0.0
 11
-11.10708
 21
8.0
 31
0.0
  0
SOLID
  8
MO_001_VIEW_PV
  6
BYBLOCK
 10
-11.690592
 20
3.31826
 30
0.0
 11
-11.10708
 21
0.508
 31
0.0
 12
-10.523569
 22
3.31826
 32
0.0
 13
-10.523569
 23
3.31826
 33
0.0
  0
SOLID
  8
MO_001_VIEW_PV
  6
BYBLOCK
 10
-10.523569
 20
4.68174
 30
0.0
 11
-11.10708
 21
7.492
 31
0.0
 12
-11.690592
 22
4.68174
 32
0.0
 13
-11.690592
 23
4.68174
 33
0.0
  0
LINE
  8
MO_001_VIEW_PV
  6
BYBLOCK
 10
1.5
 20
0.0
 30
0.0
 11
-12.10708
 21
0.0
 31
0.0
  0
LINE
  8
MO_001_VIEW_PV
  6
BYBLOCK
 10
5.0
 20
8.0
 30
0.0
 11
-12.10708
 21
8.0
 31
0.0
  0
ENDBLK
  8
0
  0
BLOCK
  8
MO_001_VIEW_PV
  6
C_SOLID_M
  2
*D2
 70
     1
 10
0.0
 20
0.0
 30
0.0
  3
*D2
  0
TEXT
  8
MO_001_VIEW_PV
  6
BYBLOCK
 10
13.562942
 20
63.254515
 30
0.0
 40
1.75
  1
-2
 50
89.9
  0
TEXT
  8
MO_001_VIEW_PV
  6
BYBLOCK
 10
13.119774
 20
60.009029
 30
0.0
 40
3.5
  1
a
 50
89.9
  0
LINE
  8
MO_001_VIEW_PV
  6
BYBLOCK
 10
14.0
 20
8.0
 30
0.0
 11
14.0
 21
118.0
 31
0.0
  0
SOLID
  8
MO_001_VIEW_PV
  6
BYBLOCK
 10
13.416488
 20
11.31826
 30
0.0
 11
14.0
 21
8.508
 31
0.0
 12
14.583512
 22
11.31826
 32
0.0
 13
14.583512
 23
11.31826
 33
0.0
  0
SOLID
  8
MO_001_VIEW_PV
  6
BYBLOCK
 10
14.583512
 20
114.68174
 30
0.0
 11
14.0
 21
117.492
 31
0.0
 12
13.416488
 22
114.68174
 32
0.0
 13
13.416488
 23
114.68174
 33
0.0
  0
LINE
  8
MO_001_VIEW_PV
  6
BYBLOCK
 10
5.0
 20
8.0
 30
0.0
 11
15.524
 21
8.0
 31
0.0
  0
LINE
  8
MO_001_VIEW_PV
  6
BYBLOCK
 10
5.0
 20
118.0
 30
0.0
 11
15.524
 21
118.0
 31
0.0
  0
ENDBLK
  8
0
  0
BLOCK
  8
MO_001_VIEW_PV
  6
C_SOLID_M
  2
*D3
 70
     1
 10
0.0
 20
0.0
 30
0.0
  3
*D3
  0
TEXT
  8
MO_001_VIEW_PV
  6
BYBLOCK
 10
-4.7425
 20
128.937744
 30
0.0
 40
3.5
  1
%%C10
  0
LINE
  8
MO_001_VIEW_PV
  6
BYBLOCK
 10
-5.0
 20
128.062744
 30
0.0
 11
5.0
 21
128.062744
 31
0.0
  0
LINE
  8
MO_001_VIEW_PV
  6
BYBLOCK
 10
-5.0
 20
128.062744
 30
0.0
 11
-11.35
 21
128.062744
 31
0.0
  0
LINE
  8
MO_001_VIEW_PV
  6
BYBLOCK
 10
5.0
 20
128.062744
 30
0.0
 11
11.35
 21
128.062744
 31
0.0
  0
SOLID
  8
MO_001_VIEW_PV
  6
BYBLOCK
 10
-8.31826
 20
127.479233
 30
0.0
 11
-5.508
 21
128.062744
 31
0.0
 12
-8.31826
 22
128.646256
 32
0.0
 13
-8.31826
 23
128.646256
 33
0.0
  0
SOLID
  8
MO_001_VIEW_PV
  6
BYBLOCK
 10
8.31826
 20
128.646256
 30
0.0
 11
5.508
 21
128.062744
 31
0.0
 12
8.31826
 22
127.479233
 32
0.0
 13
8.31826
 23
127.479233
 33
0.0
  0
LINE
  8
MO_001_VIEW_PV
  6
BYBLOCK
 10
-5.0
 20
118.0
 30
0.0
 11
-5.0
 21
129.586746
 31
0.0
  0
LINE
  8
MO_001_VIEW_PV
  6
BYBLOCK
 10
5.0
 20
118.0
 30
0.0
 11
5.0
 21
129.586746
 31
0.0
  0
LINE
  8
MO_001_VIEW_PV
  6
BYBLOCK
 10
0.0
 20
0.0
 30
0.0
 11
6.35
 21
0.0
 31
0.0
  0
SOLID
  8
MO_001_VIEW_PV
  6
BYBLOCK
 10
3.31826
 20
0.583512
 30
0.0
 11
0.508
 21
0.0
 31
0.0
 12
3.31826
 22
-0.583512
 32
0.0
 13
3.31826
 23
-0.583512
 33
0.0
  0
LINE
  8
MO_001_VIEW_PV
  6
BYBLOCK
 10
5.0
 20
128.062744
 30
0.0
 11
5.87125
 21
128.062744
 31
0.0
  0
ENDBLK
  8
0
  0
BLOCK
  8
MO_001_VIEW_PV
  6
C_SOLID_M
  2
*D4
 70
     1
 10
0.0
 20
0.0
 30
0.0
  3
*D4
  0
TEXT
  8
MO_001_VIEW_PV
  6
BYBLOCK
 10
-11.987306
 20
17.509029
 30
0.0
 40
3.5
  1
25
 50
89.9
  0
LINE
  8
MO_001_VIEW_PV
  6
BYBLOCK
 10
-11.10708
 20
8.0
 30
0.0
 11
-11.10708
 21
33.0
 31
0.0
  0
SOLID
  8
MO_001_VIEW_PV
  6
BYBLOCK
 10
-11.690592
 20
11.31826
 30
0.0
 11
-11.10708
 21
8.508
 31
0.0
 12
-10.523569
 22
11.31826
 32
0.0
 13
-10.523569
 23
11.31826
 33
0.0
  0
SOLID
  8
MO_001_VIEW_PV
  6
BYBLOCK
 10
-10.523569
 20
29.68174
 30
0.0
 11
-11.10708
 21
32.492
 31
0.0
 12
-11.690592
 22
29.68174
 32
0.0
 13
-11.690592
 23
29.68174
 33
0.0
  0
LINE
  8
MO_001_VIEW_PV
  6
BYBLOCK
 10
-12.10708
 20
8.0
 30
0.0
 11
-10.10708
 21
8.0
 31
0.0
  0
LINE
  8
MO_001_VIEW_PV
  6
BYBLOCK
 10
-5.0
 20
33.0
 30
0.0
 11
-12.10708
 21
33.0
 31
0.0
  0
ENDBLK
  8
0
  0
BLOCK
  8
MO_001_VIEW_PV
  6
C_SOLID_M
  2
*D5
 70
     1
 10
0.0
 20
0.0
 30
0.0
  3
*D5
  0
TEXT
  8
MO_001_VIEW_PV
  6
BYBLOCK
 10
-2.9925
 20
-13.159729
 30
0.0
 40
3.5
  1
%%C9
  0
LINE
  8
MO_001_VIEW_PV
  6
BYBLOCK
 10
4.5
 20
-14.034729
 30
0.0
 11
-4.5
 21
-14.034729
 31
0.0
  0
LINE
  8
MO_001_VIEW_PV
  6
BYBLOCK
 10
4.5
 20
-14.034729
 30
0.0
 11
10.85
 21
-14.034729
 31
0.0
  0
LINE
  8
MO_001_VIEW_PV
  6
BYBLOCK
 10
-4.5
 20
-14.034729
 30
0.0
 11
-10.85
 21
-14.034729
 31
0.0
  0
SOLID
  8
MO_001_VIEW_PV
  6
BYBLOCK
 10
7.81826
 20
-13.451217
 30
0.0
 11
5.008
 21
-14.034729
 31
0.0
 12
7.81826
 22
-14.618241
 32
0.0
 13
7.81826
 23
-14.618241
 33
0.0
  0
SOLID
  8
MO_001_VIEW_PV
  6
BYBLOCK
 10
-7.81826
 20
-14.618241
 30
0.0
 11
-5.008
 21
-14.034729
 31
0.0
 12
-7.81826
 22
-13.451217
 32
0.0
 13
-7.81826
 23
-13.451217
 33
0.0
  0
LINE
  8
MO_001_VIEW_PV
  6
BYBLOCK
 10
4.5
 20
8.0
 30
0.0
 11
4.5
 21
-5.411295
 31
0.0
  0
LINE
  8
MO_001_VIEW_PV
  6
BYBLOCK
 10
-4.5
 20
8.0
 30
0.0
 11
-4.5
 21
-5.411295
 31
0.0
  0
ENDBLK
  8
0
  0
BLOCK
  8
MO_001_VIEW_X1
  6
C_SOLID_M
  2
*D6
 70
     1
 10
0.0
 20
0.0
 30
0.0
  3
*D6
  0
TEXT
  8
MO_001_VIEW_X1
  6
BYBLOCK
 10
59.836342
 20
123.460373
 30
0.0
 40
3.5
  1
4
 50
90.0
  0
LINE
  8
MO_001_VIEW_X1
  6
BYBLOCK
 10
60.711342
 20
118.0
 30
0.0
 11
60.711342
 21
114.0
 31
0.0
  0
LINE
  8
MO_001_VIEW_X1
  6
BYBLOCK
 10
60.711342
 20
118.0
 30
0.0
 11
60.711342
 21
124.35
 31
0.0
  0
LINE
  8
MO_001_VIEW_X1
  6
BYBLOCK
 10
60.711342
 20
114.0
 30
0.0
 11
60.711342
 21
107.65
 31
0.0
  0
SOLID
  8
MO_001_VIEW_X1
  6
BYBLOCK
 10
60.12783
 20
121.31826
 30
0.0
 11
60.711342
 21
118.508
 31
0.0
 12
61.294853
 22
121.31826
 32
0.0
 13
61.294853
 23
121.31826
 33
0.0
  0
SOLID
  8
MO_001_VIEW_X1
  6
BYBLOCK
 10
61.294853
 20
110.68174
 30
0.0
 11
60.711342
 21
113.492
 31
0.0
 12
60.12783
 22
110.68174
 32
0.0
 13
60.12783
 23
110.68174
 33
0.0
  0
LINE
  8
MO_001_VIEW_X1
  6
BYBLOCK
 10
48.979294
 20
118.0
 30
0.0
 11
62.23534
 21
118.0
 31
0.0
  0
LINE
  8
MO_001_VIEW_X1
  6
BYBLOCK
 10
46.411346
 20
114.0
 30
0.0
 11
62.23534
 21
114.0
 31
0.0
  0
LINE
  8
MO_001_VIEW_X1
  6
BYBLOCK
 10
60.711342
 20
118.0
 30
0.0
 11
60.711342
 21
127.695374
 31
0.0
  0
ENDBLK
  8
0
  0
BLOCK
  8
MO_001_VIEW_X1
  6
C_SOLID_M
  2
*D7
 70
     1
 10
0.0
 20
0.0
 30
0.0
  3
*D7
  0
TEXT
  8
MO_001_VIEW_X1
  6
BYBLOCK
 10
32.380912
 20
128.891565
 30
0.0
 40
3.5
  1
1.4
 50
359.8
  0
LINE
  8
MO_001_VIEW_X1
  6
BYBLOCK
 10
45.011341
 20
128.0
 30
0.0
 11
46.411343
 21
128.0
 31
0.0
  0
LINE
  8
MO_001_VIEW_X1
  6
BYBLOCK
 10
45.011341
 20
128.0
 30
0.0
 11
38.661341
 21
128.0
 31
0.0
  0
LINE
  8
MO_001_VIEW_X1
  6
BYBLOCK
 10
46.411343
 20
128.0
 30
0.0
 11
52.761343
 21
128.0
 31
0.0
  0
SOLID
  8
MO_001_VIEW_X1
  6
BYBLOCK
 10
41.693081
 20
127.416488
 30
0.0
 11
44.503341
 21
128.0
 31
0.0
 12
41.693081
 22
128.583512
 32
0.0
 13
41.693081
 23
128.583512
 33
0.0
  0
SOLID
  8
MO_001_VIEW_X1
  6
BYBLOCK
 10
49.729603
 20
128.583512
 30
0.0
 11
46.919343
 21
128.0
 31
0.0
 12
49.729603
 22
127.416488
 32
0.0
 13
49.729603
 23
127.416488
 33
0.0
  0
LINE
  8
MO_001_VIEW_X1
  6
BYBLOCK
 10
45.011344
 20
118.0
 30
0.0
 11
45.01134
 21
129.524002
 31
0.0
  0
LINE
  8
MO_001_VIEW_X1
  6
BYBLOCK
 10
46.411345
 20
118.0
 30
0.0
 11
46.411341
 21
129.387726
 31
0.0
  0
LINE
  8
MO_001_VIEW_X1
  6
BYBLOCK
 10
45.011342
 20
128.000001
 30
0.0
 11
30.62785
 21
127.999993
 31
0.0
  0
ENDBLK
  8
0
  0
BLOCK
  8
MO_001_VIEW_X1
  6
C_SOLID_M
  2
*D8
 70
     1
 10
0.0
 20
0.0
 30
0.0
  3
*D8
  0
TEXT
  8
MO_001_VIEW_X1
  6
BYBLOCK
 10
29.836346
 20
115.2575
 30
0.0
 40
3.5
  1
3
 50
90.0
  0
LINE
  8
MO_001_VIEW_X1
  6
BYBLOCK
 10
30.711346
 20
118.0
 30
0.0
 11
30.711346
 21
115.0
 31
0.0
  0
LINE
  8
MO_001_VIEW_X1
  6
BYBLOCK
 10
30.711346
 20
118.0
 30
0.0
 11
30.711346
 21
124.35
 31
0.0
  0
LINE
  8
MO_001_VIEW_X1
  6
BYBLOCK
 10
30.711346
 20
115.0
 30
0.0
 11
30.711346
 21
108.65
 31
0.0
  0
SOLID
  8
MO_001_VIEW_X1
  6
BYBLOCK
 10
30.127834
 20
121.31826
 30
0.0
 11
30.711346
 21
118.508
 31
0.0
 12
31.294857
 22
121.31826
 32
0.0
 13
31.294857
 23
121.31826
 33
0.0
  0
SOLID
  8
MO_001_VIEW_X1
  6
BYBLOCK
 10
31.294857
 20
111.68174
 30
0.0
 11
30.711346
 21
114.492
 31
0.0
 12
30.127834
 22
111.68174
 32
0.0
 13
30.127834
 23
111.68174
 33
0.0
  0
LINE
  8
MO_001_VIEW_X1
  6
BYBLOCK
 10
42.443398
 20
118.0
 30
0.0
 11
29.187346
 21
118.0
 31
0.0
  0
LINE
  8
MO_001_VIEW_X1
  6
BYBLOCK
 10
40.711346
 20
115.0
 30
0.0
 11
29.187346
 21
115.0
 31
0.0
  0
LINE
  8
MO_001_VIEW_X1
  6
BYBLOCK
 10
0.0
 20
0.0
 30
0.0
 11
6.35
 21
0.0
 31
0.0
  0
SOLID
  8
MO_001_VIEW_X1
  6
BYBLOCK
 10
3.31826
 20
0.583512
 30
0.0
 11
0.508
 21
0.0
 31
0.0
 12
3.31826
 22
-0.583512
 32
0.0
 13
3.31826
 23
-0.583512
 33
0.0
  0
LINE
  8
MO_001_VIEW_X1
  6
BYBLOCK
 10
30.711346
 20
115.0
 30
0.0
 11
30.711346
 21
114.128754
 31
0.0
  0
ENDBLK
  8
0
  0
BLOCK
  8
MO_001_VIEW_X1
  6
C_SOLID_M
  2
*D9
 70
     1
 10
0.0
 20
0.0
 30
0.0
  3
*D9
  0
TEXT
  8
MO_001_VIEW_X1
  6
BYBLOCK
 10
30.358194
 20
92.643898
 30
0.0
 40
3.5
  1
30%%D
 50
346.2
  0
ARC
  8
MO_001_VIEW_X1
  6
C_SOLID_L
 10
40.711346
 20
115.000015
 30
0.0
 40
25.055374
 50
239.999901
 51
270.0
  0
POLYLINE
  8
MO_001_VIEW_X1
  6
C_SOLID_L
 66
     1
 10
0.0
 20
0.0
 30
0.0
  0
VERTEX
  8
MO_001_VIEW_X1
  6
C_SOLID_L
 10
31.349072
 20
92.147647
 30
0.0
  0
VERTEX
  8
MO_001_VIEW_X1
  6
C_SOLID_L
 10
28.623562
 20
93.047446
 30
0.0
  0
VERTEX
  8
MO_001_VIEW_X1
  6
C_SOLID_L
 10
30.765559
 20
91.136976
 30
0.0
  0
SEQEND
  8
MO_001_VIEW_X1
  6
C_SOLID_L
  0
POLYLINE
  8
MO_001_VIEW_X1
  6
C_SOLID_L
 66
     1
 10
0.0
 20
0.0
 30
0.0
  0
VERTEX
  8
MO_001_VIEW_X1
  6
C_SOLID_L
 10
37.393097
 20
89.361128
 30
0.0
  0
VERTEX
  8
MO_001_VIEW_X1
  6
C_SOLID_L
 10
40.203357
 20
89.944641
 30
0.0
  0
VERTEX
  8
MO_001_VIEW_X1
  6
C_SOLID_L
 10
37.393096
 20
90.528151
 30
0.0
  0
SEQEND
  8
MO_001_VIEW_X1
  6
C_SOLID_L
  0
LINE
  8
MO_001_VIEW_X1
  6
BYBLOCK
 10
39.600094
 20
113.075272
 30
0.0
 11
27.421616
 21
91.981622
 31
0.0
  0
LINE
  8
MO_001_NOSHOW
  6
BYBLOCK
 10
40.711353
 20
92.465849
 30
0.0
 11
40.711357
 21
88.420641
 31
0.0
  0
ENDBLK
  8
0
  0
BLOCK
  8
MO_001_VIEW_X2
  6
C_SOLID_M
  2
*D10
 70
     1
 10
0.0
 20
0.0
 30
0.0
  3
*D10
  0
TEXT
  8
MO_001_VIEW_X2
  6
BYBLOCK
 10
80.266968
 20
115.2575
 30
0.0
 40
3.5
  1
3
 50
90.0
  0
LINE
  8
MO_001_VIEW_X2
  6
BYBLOCK
 10
81.141968
 20
118.0
 30
0.0
 11
81.141968
 21
115.0
 31
0.0
  0
LINE
  8
MO_001_VIEW_X2
  6
BYBLOCK
 10
81.141968
 20
118.0
 30
0.0
 11
81.141968
 21
124.35
 31
0.0
  0
LINE
  8
MO_001_VIEW_X2
  6
BYBLOCK
 10
81.141968
 20
115.0
 30
0.0
 11
81.141968
 21
108.65
 31
0.0
  0
SOLID
  8
MO_001_VIEW_X2
  6
BYBLOCK
 10
80.558456
 20
121.31826
 30
0.0
 11
81.141968
 21
118.508
 31
0.0
 12
81.725479
 22
121.31826
 32
0.0
 13
81.725479
 23
121.31826
 33
0.0
  0
SOLID
  8
MO_001_VIEW_X2
  6
BYBLOCK
 10
81.725479
 20
111.68174
 30
0.0
 11
81.141968
 21
114.492
 31
0.0
 12
80.558456
 22
111.68174
 32
0.0
 13
80.558456
 23
111.68174
 33
0.0
  0
LINE
  8
MO_001_VIEW_X2
  6
BYBLOCK
 10
92.773438
 20
118.0
 30
0.0
 11
79.617966
 21
118.0
 31
0.0
  0
LINE
  8
MO_001_VIEW_X2
  6
BYBLOCK
 10
91.041382
 20
115.0
 30
0.0
 11
79.617966
 21
115.0
 31
0.0
  0
LINE
  8
MO_001_VIEW_X2
  6
BYBLOCK
 10
0.0
 20
0.0
 30
0.0
 11
6.35
 21
0.0
 31
0.0
  0
SOLID
  8
MO_001_VIEW_X2
  6
BYBLOCK
 10
3.31826
 20
0.583512
 30
0.0
 11
0.508
 21
0.0
 31
0.0
 12
3.31826
 22
-0.583512
 32
0.0
 13
3.31826
 23
-0.583512
 33
0.0
  0
LINE
  8
MO_001_VIEW_X2
  6
BYBLOCK
 10
81.141968
 20
115.0
 30
0.0
 11
81.141968
 21
114.128754
 31
0.0
  0
ENDBLK
  8
0
  0
BLOCK
  8
MO_001_VIEW_X2
  6
C_SOLID_M
  2
*D11
 70
     1
 10
0.0
 20
0.0
 30
0.0
  3
*D11
  0
TEXT
  8
MO_001_VIEW_X2
  6
BYBLOCK
 10
79.058634
 20
88.603335
 30
0.0
 40
3.5
  1
30%%D
 50
345.0
  0
ARC
  8
MO_001_VIEW_X2
  6
C_SOLID_L
 10
91.041382
 20
114.999992
 30
0.0
 40
29.473576
 50
240.000038
 51
270.0
  0
POLYLINE
  8
MO_001_VIEW_X2
  6
C_SOLID_L
 66
     1
 10
0.0
 20
0.0
 30
0.0
  0
VERTEX
  8
MO_001_VIEW_X2
  6
C_SOLID_L
 10
79.470065
 20
88.321325
 30
0.0
  0
VERTEX
  8
MO_001_VIEW_X2
  6
C_SOLID_L
 10
76.744552
 20
89.221118
 30
0.0
  0
VERTEX
  8
MO_001_VIEW_X2
  6
C_SOLID_L
 10
78.886554
 20
87.310653
 30
0.0
  0
SEQEND
  8
MO_001_VIEW_X2
  6
C_SOLID_L
  0
POLYLINE
  8
MO_001_VIEW_X2
  6
C_SOLID_L
 66
     1
 10
0.0
 20
0.0
 30
0.0
  0
VERTEX
  8
MO_001_VIEW_X2
  6
C_SOLID_L
 10
87.72312
 20
84.942905
 30
0.0
  0
VERTEX
  8
MO_001_VIEW_X2
  6
C_SOLID_L
 10
90.533381
 20
85.526417
 30
0.0
  0
VERTEX
  8
MO_001_VIEW_X2
  6
C_SOLID_L
 10
87.72312
 20
86.109929
 30
0.0
  0
SEQEND
  8
MO_001_VIEW_X2
  6
C_SOLID_L
  0
LINE
  8
MO_001_VIEW_X2
  6
BYBLOCK
 10
89.930137
 20
113.07526
 30
0.0
 11
75.54261
 21
88.155292
 31
0.0
  0
LINE
  8
MO_001_NOSHOW
  6
BYBLOCK
 10
91.041382
 20
80.172909
 30
0.0
 11
91.041382
 21
87.050423
 31
0.0
  0
ENDBLK
  8
0
  0
BLOCK
  8
MO_001_VIEW_X3
  6
C_SOLID_M
  2
*D12
 70
     1
 10
0.0
 20
0.0
 30
0.0
  3
*D12
  0
TEXT
  8
MO_001_VIEW_X3
  6
BYBLOCK
 10
136.46566
 20
128.875
 30
0.0
 40
3.5
  1
3
  0
LINE
  8
MO_001_VIEW_X3
  6
BYBLOCK
 10
136.20816
 20
128.0
 30
0.0
 11
139.20816
 21
128.0
 31
0.0
  0
LINE
  8
MO_001_VIEW_X3
  6
BYBLOCK
 10
136.20816
 20
128.0
 30
0.0
 11
129.85816
 21
128.0
 31
0.0
  0
LINE
  8
MO_001_VIEW_X3
  6
BYBLOCK
 10
139.20816
 20
128.0
 30
0.0
 11
145.55816
 21
128.0
 31
0.0
  0
SOLID
  8
MO_001_VIEW_X3
  6
BYBLOCK
 10
132.8899
 20
127.416488
 30
0.0
 11
135.70016
 21
128.0
 31
0.0
 12
132.8899
 22
128.583512
 32
0.0
 13
132.8899
 23
128.583512
 33
0.0
  0
SOLID
  8
MO_001_VIEW_X3
  6
BYBLOCK
 10
142.526421
 20
128.583512
 30
0.0
 11
139.71616
 21
128.0
 31
0.0
 12
142.526421
 22
127.416488
 32
0.0
 13
142.526421
 23
127.416488
 33
0.0
  0
LINE
  8
MO_001_VIEW_X3
  6
BYBLOCK
 10
136.20816
 20
114.0
 30
0.0
 11
136.20816
 21
129.524002
 31
0.0
  0
LINE
  8
MO_001_VIEW_X3
  6
BYBLOCK
 10
139.20816
 20
114.0
 30
0.0
 11
139.20816
 21
129.524002
 31
0.0
  0
LINE
  8
MO_001_VIEW_X3
  6
BYBLOCK
 10
0.0
 20
0.0
 30
0.0
 11
6.35
 21
0.0
 31
0.0
  0
SOLID
  8
MO_001_VIEW_X3
  6
BYBLOCK
 10
3.31826
 20
0.583512
 30
0.0
 11
0.508
 21
0.0
 31
0.0
 12
3.31826
 22
-0.583512
 32
0.0
 13
3.31826
 23
-0.583512
 33
0.0
  0
LINE
  8
MO_001_VIEW_X3
  6
BYBLOCK
 10
139.20816
 20
128.0
 30
0.0
 11
140.079407
 21
128.0
 31
0.0
  0
ENDBLK
  8
0
  0
BLOCK
  8
MO_001_VIEW_X3
  6
C_SOLID_M
  2
*D13
 70
     1
 10
0.0
 20
0.0
 30
0.0
  3
*D13
  0
TEXT
  8
MO_001_VIEW_X3
  6
BYBLOCK
 10
121.83316
 20
114.7575
 30
0.0
 40
3.5
  1
4
 50
90.0
  0
LINE
  8
MO_001_VIEW_X3
  6
BYBLOCK
 10
122.70816
 20
118.0
 30
0.0
 11
122.70816
 21
114.0
 31
0.0
  0
LINE
  8
MO_001_VIEW_X3
  6
BYBLOCK
 10
122.70816
 20
118.0
 30
0.0
 11
122.70816
 21
124.35
 31
0.0
  0
LINE
  8
MO_001_VIEW_X3
  6
BYBLOCK
 10
122.70816
 20
114.0
 30
0.0
 11
122.70816
 21
107.65
 31
0.0
  0
SOLID
  8
MO_001_VIEW_X3
  6
BYBLOCK
 10
122.124649
 20
121.31826
 30
0.0
 11
122.70816
 21
118.508
 31
0.0
 12
123.291672
 22
121.31826
 32
0.0
 13
123.291672
 23
121.31826
 33
0.0
  0
SOLID
  8
MO_001_VIEW_X3
  6
BYBLOCK
 10
123.291672
 20
110.68174
 30
0.0
 11
122.70816
 21
113.492
 31
0.0
 12
122.124649
 22
110.68174
 32
0.0
 13
122.124649
 23
110.68174
 33
0.0
  0
LINE
  8
MO_001_VIEW_X3
  6
BYBLOCK
 10
134.70816
 20
118.0
 30
0.0
 11
121.184158
 21
118.0
 31
0.0
  0
LINE
  8
MO_001_VIEW_X3
  6
BYBLOCK
 10
134.440216
 20
114.0
 30
0.0
 11
121.184158
 21
114.0
 31
0.0
  0
LINE
  8
MO_001_VIEW_X3
  6
BYBLOCK
 10
0.0
 20
0.0
 30
0.0
 11
6.35
 21
0.0
 31
0.0
  0
SOLID
  8
MO_001_VIEW_X3
  6
BYBLOCK
 10
3.31826
 20
0.583512
 30
0.0
 11
0.508
 21
0.0
 31
0.0
 12
3.31826
 22
-0.583512
 32
0.0
 13
3.31826
 23
-0.583512
 33
0.0
  0
LINE
  8
MO_001_VIEW_X3
  6
BYBLOCK
 10
122.70816
 20
114.0
 30
0.0
 11
122.70816
 21
113.628754
 31
0.0
  0
ENDBLK
  8
0
  0
BLOCK
  8
MO_001_VIEW_X3
  6
C_SOLID_M
  2
*D14
 70
     1
 10
0.0
 20
0.0
 30
0.0
  3
*D14
  0
TEXT
  8
MO_001_VIEW_X3
  6
BYBLOCK
 10
151.83316
 20
98.059647
 30
0.0
 40
3.5
  1
2x45%%D
 50
90.0
  0
LINE
  8
MO_001_VIEW_X3
  6
BYBLOCK
 10
152.70816
 20
118.0
 30
0.0
 11
152.70816
 21
116.0
 31
0.0
  0
LINE
  8
MO_001_VIEW_X3
  6
BYBLOCK
 10
152.70816
 20
118.0
 30
0.0
 11
152.70816
 21
124.35
 31
0.0
  0
LINE
  8
MO_001_VIEW_X3
  6
BYBLOCK
 10
152.70816
 20
116.0
 30
0.0
 11
152.70816
 21
109.65
 31
0.0
  0
SOLID
  8
MO_001_VIEW_X3
  6
BYBLOCK
 10
152.124649
 20
121.31826
 30
0.0
 11
152.70816
 21
118.508
 31
0.0
 12
153.291672
 22
121.31826
 32
0.0
 13
153.291672
 23
121.31826
 33
0.0
  0
SOLID
  8
MO_001_VIEW_X3
  6
BYBLOCK
 10
153.291672
 20
112.68174
 30
0.0
 11
152.70816
 21
115.492
 31
0.0
 12
152.124649
 22
112.68174
 32
0.0
 13
152.124649
 23
112.68174
 33
0.0
  0
LINE
  8
MO_001_VIEW_X3
  6
BYBLOCK
 10
140.70816
 20
118.0
 30
0.0
 11
154.232162
 21
118.0
 31
0.0
  0
LINE
  8
MO_001_VIEW_X3
  6
BYBLOCK
 10
142.70816
 20
116.0
 30
0.0
 11
154.232162
 21
116.0
 31
0.0
  0
LINE
  8
MO_001_VIEW_X3
  6
BYBLOCK
 10
152.70816
 20
116.0
 30
0.0
 11
152.70816
 21
96.309647
 31
0.0
  0
ENDBLK
  8
0
  0
ENDSEC
  0
SECTION
  2
ENTITIES
  0
VIEWPORT
  8
0
  6
CONTINUOUS
 62
     0
 67
     1
 68
     1
 10
0.0
 20
0.0
 30
0.0
 40
1000.0
 41
1000.0
 69
     1
1001
ACAD
1000
MVIEW
1002
{
1070
    16
1010
0.0
1020
0.0
1030
0.0
1010
0.0
1020
0.0
1030
1.0
1040
0.0
1040
1000.0
1040
0.0
1040
0.0
1040
50.0
1040
0.0
1040
0.0
1070
     0
1070
   100
1070
     1
1070
     1
1070
     0
1070
     0
1070
     0
1070
     0
1040
0.0
1040
0.0
1040
0.0
1040
1.0
1040
1.0
1040
0.0
1040
0.0
1070
     0
1002
{
1002
}
1002
}
  0
TEXT
  8
OVERLAY_MAP
  6
C_SOLID_L
 10
0.0
 20
6.35
 30
0.0
 40
4.1672
  1
Model Overlay Name
  0
TEXT
  8
OVERLAY_MAP
  6
C_SOLID_L
 10
126.999998
 20
0.0
 30
0.0
 40
4.1672
  1
Number
  0
TEXT
  8
OVERLAY_MAP
  6
C_SOLID_L
 10
177.799997
 20
0.0
 30
0.0
 40
4.1672
  1
File Text
  0
TEXT
  8
OVERLAY_MAP
  6
C_SOLID_L
 10
0.0
 20
-6.35
 30
0.0
 40
4.1672
  1
Z:\PB-Schloss\PS-Konstruktion\CAD\CCD\BKS-Archiv\Z\Z9xxx\Z 9006XXXX 01 4B SCL 
  0
TEXT
  8
OVERLAY_MAP
  6
C_SOLID_L
 10
126.999998
 20
-6.35
 30
0.0
 40
4.1672
  1
001
  0
TEXT
  8
OVERLAY_MAP
  6
C_SOLID_L
 10
177.799997
 20
-6.35
 30
0.0
 40
4.1672
  1
TREIBRIEGELSTANGE MASSIV                                       162004254
  0
POINT
  8
MO_001_VIEW_PV
  6
C_SOLID_M
 10
0.0
 20
0.0
 30
0.0
  0
POINT
  8
MO_001_VIEW_PV
  6
C_SOLID_M
 10
-4.0
 20
0.0
 30
0.0
  0
POINT
  8
MO_001_VIEW_PV
  6
C_SOLID_M
 10
4.0
 20
0.0
 30
0.0
  0
POINT
  8
MO_001_VIEW_PV
  6
C_SOLID_M
 10
-4.0
 20
-10.0
 30
0.0
  0
POINT
  8
MO_001_VIEW_PV
  6
C_SOLID_M
 10
14.0
 20
0.0
 30
0.0
  0
POINT
  8
MO_001_VIEW_PV
  6
C_SOLID_M
 10
14.0
 20
0.0
 30
0.0
  0
POINT
  8
MO_001_VIEW_PV
  6
C_SOLID_M
 10
4.0
 20
-10.0
 30
0.0
  0
POINT
  8
MO_001_VIEW_PV
  6
C_SOLID_M
 10
-3.0
 20
1.5
 30
0.0
  0
POINT
  8
MO_001_VIEW_PV
  6
C_SOLID_M
 10
3.0
 20
1.5
 30
0.0
  0
POINT
  8
MO_001_VIEW_PV
  6
C_SOLID_M
 10
0.0
 20
8.0
 30
0.0
  0
POINT
  8
MO_001_VIEW_PV
  6
C_SOLID_M
 10
0.0
 20
18.0
 30
0.0
  0
POINT
  8
MO_001_VIEW_PV
  6
C_SOLID_M
 10
0.0
 20
118.0
 30
0.0
  0
POINT
  8
MO_001_VIEW_PV
  6
C_SOLID_M
 10
2.5
 20
7.0
 30
0.0
  0
POINT
  8
MO_001_VIEW_PV
  6
C_SOLID_M
 10
-2.5
 20
7.0
 30
0.0
  0
POINT
  8
MO_001_VIEW_PV
  6
C_SOLID_M
 10
-4.5
 20
8.0
 30
0.0
  0
POINT
  8
MO_001_VIEW_PV
  6
C_SOLID_M
 10
4.5
 20
8.0
 30
0.0
  0
LINE
  8
MO_001_VIEW_PV
  6
C_CENTER_L
 62
     3
 10
0.0
 20
121.098442
 30
0.0
 11
0.0
 21
-1.965977
 31
0.0
  0
LINE
  8
MO_001_VIEW_PV
  6
C_SOLID_H
 62
     4
 10
-1.5
 20
0.0
 30
0.0
 11
1.5
 21
0.0
 31
0.0
  0
LINE
  8
MO_001_VIEW_PV
  6
C_SOLID_H
 62
     4
 10
5.0
 20
118.0
 30
0.0
 11
5.0
 21
95.0
 31
0.0
  0
LINE
  8
MO_001_VIEW_PV
  6
C_SOLID_H
 62
     4
 10
-5.0
 20
118.0
 30
0.0
 11
-5.0
 21
95.0
 31
0.0
  0
LINE
  8
MO_001_VIEW_PV
  6
C_CENTER_L
 62
     3
 10
-6.429916
 20
90.0
 30
0.0
 11
6.338008
 21
90.0
 31
0.0
  0
LINE
  8
MO_001_VIEW_PV
  6
C_SOLID_H
 62
     4
 10
-5.0
 20
90.0
 30
0.0
 11
-5.0
 21
33.0
 31
0.0
  0
LINE
  8
MO_001_VIEW_PV
  6
C_SOLID_H
 62
     4
 10
5.0
 20
90.0
 30
0.0
 11
5.0
 21
33.0
 31
0.0
  0
LINE
  8
MO_001_VIEW_PV
  6
C_CENTER_L
 62
     3
 10
-6.429916
 20
95.0
 30
0.0
 11
6.338008
 21
95.0
 31
0.0
  0
LINE
  8
MO_001_VIEW_PV
  6
C_SOLID_H
 62
     4
 10
-5.0
 20
118.0
 30
0.0
 11
5.0
 21
118.0
 31
0.0
  0
LINE
  8
MO_001_VIEW_PV
  6
C_SOLID_H
 62
     4
 10
-4.5
 20
8.0
 30
0.0
 11
4.5
 21
8.0
 31
0.0
  0
LINE
  8
MO_001_VIEW_PV
  6
C_SOLID_H
 62
     4
 10
-3.0
 20
8.0
 30
0.0
 11
-3.0
 21
1.5
 31
0.0
  0
LINE
  8
MO_001_VIEW_PV
  6
C_SOLID_H
 62
     4
 10
3.0
 20
8.0
 30
0.0
 11
3.0
 21
1.5
 31
0.0
  0
LINE
  8
MO_001_VIEW_PV
  6
C_SOLID_H
 62
     4
 10
-3.0
 20
1.5
 30
0.0
 11
3.0
 21
1.5
 31
0.0
  0
LINE
  8
MO_001_VIEW_PV
  6
C_SOLID_H
 62
     4
 10
1.5
 20
0.0
 30
0.0
 11
3.0
 21
1.5
 31
0.0
  0
LINE
  8
MO_001_VIEW_PV
  6
C_SOLID_H
 62
     4
 10
-3.0
 20
1.5
 30
0.0
 11
-1.5
 21
0.0
 31
0.0
  0
LINE
  8
MO_001_VIEW_PV
  6
C_SOLID_L
 62
     1
 10
-2.5
 20
7.0
 30
0.0
 11
-2.5
 21
1.0
 31
0.0
  0
LINE
  8
MO_001_VIEW_PV
  6
C_SOLID_L
 62
     1
 10
2.5
 20
7.0
 30
0.0
 11
2.5
 21
1.0
 31
0.0
  0
LINE
  8
MO_001_VIEW_PV
  6
C_SOLID_H
 62
     4
 10
-3.0
 20
7.0
 30
0.0
 11
3.0
 21
7.0
 31
0.0
  0
LINE
  8
MO_001_VIEW_PV
  6
C_SOLID_L
 10
2.5
 20
7.0
 30
0.0
 11
3.0
 21
7.5
 31
0.0
  0
LINE
  8
MO_001_VIEW_PV
  6
C_SOLID_L
 10
-3.0
 20
7.5
 30
0.0
 11
-2.5
 21
7.0
 31
0.0
  0
LINE
  8
MO_001_VIEW_PV
  6
C_SOLID_H
 62
     4
 10
-5.0
 20
33.0
 30
0.0
 11
5.0
 21
33.0
 31
0.0
  0
LINE
  8
MO_001_VIEW_PV
  6
C_SOLID_H
 62
     4
 10
-4.5
 20
33.0
 30
0.0
 11
-4.5
 21
8.0
 31
0.0
  0
LINE
  8
MO_001_VIEW_PV
  6
C_SOLID_H
 62
     4
 10
4.5
 20
33.0
 30
0.0
 11
4.5
 21
8.0
 31
0.0
  0
LINE
  8
MO_001_VIEW_PV
  6
BYBLOCK
 10
4.5
 20
-8.160295
 30
0.0
 11
4.5
 21
-15.034729
 31
0.0
  0
LINE
  8
MO_001_VIEW_PV
  6
BYBLOCK
 10
-4.5
 20
-8.09462
 30
0.0
 11
-4.5
 21
-15.034729
 31
0.0
  0
DIMENSION
  8
MO_001_VIEW_PV
  6
C_SOLID_M
  2
*D0
 10
11.405047
 20
-6.81027
 30
0.0
 11
11.405047
 21
-6.81027
 31
0.0
  1
M6
 13
3.0
 23
1.5
 33
0.0
 14
-3.0
 24
1.5
 34
0.0
  3
STANDARD
  0
DIMENSION
  8
MO_001_VIEW_PV
  6
C_SOLID_M
  2
*D1
 10
-11.10708
 20
4.0
 30
0.0
 11
-11.10708
 21
4.0
 31
0.0
  1
8
 13
5.0
 23
8.0
 33
0.0
 14
1.5
 24
0.0
 34
0.0
 50
89.999523
  3
STANDARD
  0
DIMENSION
  8
MO_001_VIEW_PV
  6
C_SOLID_M
  2
*D2
 10
14.0
 20
63.0
 30
0.0
 11
14.0
 21
63.0
 31
0.0
 13
5.0
 23
118.0
 33
0.0
 14
5.0
 24
8.0
 34
0.0
 50
89.999523
  3
STANDARD
  0
DIMENSION
  8
MO_001_VIEW_PV
  6
C_SOLID_M
  2
*D3
 10
0.0
 20
128.062744
 30
0.0
 11
0.0
 21
128.062744
 31
0.0
  1
%%C10
 13
5.0
 23
118.0
 33
0.0
 14
-5.0
 24
118.0
 34
0.0
  3
STANDARD
  0
DIMENSION
  8
MO_001_VIEW_PV
  6
C_SOLID_M
  2
*D4
 10
-11.10708
 20
20.5
 30
0.0
 11
-11.10708
 21
20.5
 31
0.0
  1
25
 13
-5.0
 23
33.0
 33
0.0
 14
-12.10708
 24
8.0
 34
0.0
 50
89.999523
  3
STANDARD
  0
DIMENSION
  8
MO_001_VIEW_PV
  6
C_SOLID_M
  2
*D5
 10
0.0
 20
-14.034729
 30
0.0
 11
0.0
 21
-14.034729
 31
0.0
  1
%%C9
 13
-4.5
 23
8.0
 33
0.0
 14
4.5
 24
8.0
 34
0.0
  3
STANDARD
  0
POINT
  8
MO_001_VIEW_RA
  6
C_SOLID_M
 10
-38.762581
 20
-64.596344
 30
0.0
  0
POINT
  8
MO_001_VIEW_RA
  6
C_SOLID_M
 10
-38.762581
 20
-64.596344
 30
0.0
  0
POINT
  8
MO_001_VIEW_RA
  6
C_SOLID_M
 10
-38.762581
 20
-64.596344
 30
0.0
  0
POINT
  8
MO_001_VIEW_RA
  6
C_SOLID_M
 10
-38.762581
 20
-64.596344
 30
0.0
  0
POINT
  8
MO_001_VIEW_RA
  6
C_SOLID_M
 10
171.237427
 20
232.403656
 30
0.0
  0
POINT
  8
MO_001_VIEW_RA
  6
C_SOLID_M
 10
-38.762581
 20
232.403656
 30
0.0
  0
POINT
  8
MO_001_VIEW_RA
  6
C_SOLID_M
 10
171.237427
 20
-64.596344
 30
0.0
  0
POINT
  8
MO_001_VIEW_RA
  6
C_SOLID_M
 10
-18.762581
 20
227.403656
 30
0.0
  0
POINT
  8
MO_001_VIEW_RA
  6
C_SOLID_M
 10
31.237419
 20
227.403656
 30
0.0
  0
POINT
  8
MO_001_VIEW_RA
  6
C_SOLID_M
 10
31.237419
 20
227.403656
 30
0.0
  0
POINT
  8
MO_001_VIEW_RA
  6
C_SOLID_M
 10
-18.762581
 20
227.403656
 30
0.0
  0
POINT
  8
MO_001_VIEW_RA
  6
C_SOLID_M
 10
31.237419
 20
210.403656
 30
0.0
  0
POINT
  8
MO_001_VIEW_RA
  6
C_SOLID_M
 10
81.237411
 20
210.403656
 30
0.0
  0
POINT
  8
MO_001_VIEW_RA
  6
C_SOLID_M
 10
81.237411
 20
227.403656
 30
0.0
  0
POINT
  8
MO_001_VIEW_RA
  6
C_SOLID_M
 10
131.237396
 20
210.403656
 30
0.0
  0
LINE
  8
MO_001_VIEW_RA
  6
C_SOLID_M
 62
     3
 10
-38.762581
 20
-64.596344
 30
0.0
 11
171.237427
 21
-64.596344
 31
0.0
  0
LINE
  8
MO_001_VIEW_RA
  6
C_SOLID_M
 62
     3
 10
-38.762581
 20
232.403656
 30
0.0
 11
-38.762581
 21
-64.596344
 31
0.0
  0
LINE
  8
MO_001_VIEW_RA
  6
C_SOLID_M
 62
     3
 10
171.237427
 20
232.403656
 30
0.0
 11
171.237427
 21
-64.596344
 31
0.0
  0
LINE
  8
MO_001_VIEW_RA
  6
C_SOLID_M
 62
     3
 10
-38.762581
 20
232.403656
 30
0.0
 11
171.237427
 21
232.403656
 31
0.0
  0
LINE
  8
MO_001_VIEW_RA
  6
C_SOLID_H
 62
     4
 10
-18.762581
 20
-59.596344
 30
0.0
 11
166.237427
 21
-59.596344
 31
0.0
  0
LINE
  8
MO_001_VIEW_RA
  6
C_SOLID_H
 62
     4
 10
166.237427
 20
227.403656
 30
0.0
 11
166.237427
 21
-59.596344
 31
0.0
  0
LINE
  8
MO_001_VIEW_RA
  6
C_SOLID_H
 62
     4
 10
-18.762581
 20
227.403656
 30
0.0
 11
166.237427
 21
227.403656
 31
0.0
  0
LINE
  8
MO_001_VIEW_RA
  6
C_SOLID_H
 62
     4
 10
-18.762581
 20
227.403656
 30
0.0
 11
-18.762581
 21
-59.596344
 31
0.0
  0
LINE
  8
MO_001_VIEW_RA
  6
C_SOLID_H
 62
     4
 10
6.237419
 20
-19.596344
 30
0.0
 11
166.237427
 21
-19.596344
 31
0.0
  0
LINE
  8
MO_001_VIEW_RA
  6
C_SOLID_H
 62
     4
 10
126.237419
 20
-19.596344
 30
0.0
 11
126.237419
 21
-59.596344
 31
0.0
  0
LINE
  8
MO_001_VIEW_RA
  6
C_SOLID_H
 62
     4
 10
6.237419
 20
-19.596344
 30
0.0
 11
6.237419
 21
-59.596344
 31
0.0
  0
LINE
  8
MO_001_VIEW_RA
  6
C_SOLID_H
 62
     4
 10
6.237419
 20
-34.596344
 30
0.0
 11
126.237419
 21
-34.596344
 31
0.0
  0
LINE
  8
MO_001_VIEW_RA
  6
C_SOLID_M
 10
-8.895351
 20
224.329926
 30
0.0
 11
-8.895351
 21
224.371918
 31
0.0
  0
LINE
  8
MO_001_VIEW_RA
  6
C_SOLID_M
 62
     1
 10
-3.762585
 20
227.403656
 30
0.0
 11
-3.762585
 21
140.403656
 31
0.0
  0
LINE
  8
MO_001_VIEW_RA
  6
C_SOLID_M
 62
     1
 10
-18.762585
 20
210.403656
 30
0.0
 11
31.237419
 21
210.403656
 31
0.0
  0
LINE
  8
MO_001_VIEW_RA
  6
C_SOLID_M
 62
     1
 10
-18.762585
 20
203.403656
 30
0.0
 11
31.237419
 21
203.403656
 31
0.0
  0
LINE
  8
MO_001_VIEW_RA
  6
C_SOLID_M
 62
     1
 10
-18.762585
 20
196.403656
 30
0.0
 11
31.237419
 21
196.403656
 31
0.0
  0
LINE
  8
MO_001_VIEW_RA
  6
C_SOLID_M
 62
     1
 10
-18.762585
 20
189.403656
 30
0.0
 11
31.237419
 21
189.403656
 31
0.0
  0
LINE
  8
MO_001_VIEW_RA
  6
C_SOLID_M
 62
     1
 10
-18.762585
 20
182.403656
 30
0.0
 11
31.237419
 21
182.403656
 31
0.0
  0
LINE
  8
MO_001_VIEW_RA
  6
C_SOLID_M
 62
     1
 10
-18.762585
 20
175.403656
 30
0.0
 11
31.237419
 21
175.403656
 31
0.0
  0
LINE
  8
MO_001_VIEW_RA
  6
C_SOLID_M
 62
     1
 10
-18.762585
 20
168.403656
 30
0.0
 11
31.237419
 21
168.403656
 31
0.0
  0
LINE
  8
MO_001_VIEW_RA
  6
C_SOLID_M
 62
     1
 10
-18.762585
 20
161.403656
 30
0.0
 11
31.237419
 21
161.403656
 31
0.0
  0
LINE
  8
MO_001_VIEW_RA
  6
C_SOLID_M
 62
     1
 10
-18.762585
 20
154.403656
 30
0.0
 11
22.237419
 21
154.403656
 31
0.0
  0
LINE
  8
MO_001_VIEW_RA
  6
C_SOLID_M
 62
     1
 10
-18.762585
 20
147.403656
 30
0.0
 11
22.237419
 21
147.403656
 31
0.0
  0
LINE
  8
MO_001_VIEW_RA
  6
C_SOLID_M
 62
     1
 10
-18.762585
 20
140.403656
 30
0.0
 11
22.237419
 21
140.403656
 31
0.0
  0
LINE
  8
MO_001_VIEW_RA
  6
C_SOLID_H
 62
     4
 10
-18.762585
 20
217.403656
 30
0.0
 11
31.237419
 21
217.403656
 31
0.0
  0
LINE
  8
MO_001_VIEW_RA
  6
C_SOLID_M
 10
41.104645
 20
224.329926
 30
0.0
 11
41.104645
 21
224.371918
 31
0.0
  0
LINE
  8
MO_001_VIEW_RA
  6
C_SOLID_M
 62
     1
 10
31.237411
 20
210.403656
 30
0.0
 11
81.237411
 21
210.403656
 31
0.0
  0
LINE
  8
MO_001_VIEW_RA
  6
C_SOLID_M
 62
     1
 10
31.237411
 20
203.403656
 30
0.0
 11
81.237411
 21
203.403656
 31
0.0
  0
LINE
  8
MO_001_VIEW_RA
  6
C_SOLID_M
 62
     1
 10
31.237411
 20
196.403656
 30
0.0
 11
81.237411
 21
196.403656
 31
0.0
  0
LINE
  8
MO_001_VIEW_RA
  6
C_SOLID_M
 62
     1
 10
31.237411
 20
189.403656
 30
0.0
 11
81.237411
 21
189.403656
 31
0.0
  0
LINE
  8
MO_001_VIEW_RA
  6
C_SOLID_M
 62
     1
 10
31.237411
 20
182.403656
 30
0.0
 11
81.237411
 21
182.403656
 31
0.0
  0
LINE
  8
MO_001_VIEW_RA
  6
C_SOLID_M
 62
     1
 10
31.237411
 20
175.403656
 30
0.0
 11
81.237411
 21
175.403656
 31
0.0
  0
LINE
  8
MO_001_VIEW_RA
  6
C_SOLID_M
 62
     1
 10
31.237411
 20
168.403656
 30
0.0
 11
81.237411
 21
168.403656
 31
0.0
  0
LINE
  8
MO_001_VIEW_RA
  6
C_SOLID_M
 62
     1
 10
31.237411
 20
161.403656
 30
0.0
 11
81.237411
 21
161.403656
 31
0.0
  0
LINE
  8
MO_001_VIEW_RA
  6
C_SOLID_H
 62
     4
 10
81.237411
 20
227.403656
 30
0.0
 11
81.237411
 21
161.403656
 31
0.0
  0
LINE
  8
MO_001_VIEW_RA
  6
C_SOLID_H
 62
     4
 10
31.237411
 20
217.403656
 30
0.0
 11
81.237411
 21
217.403656
 31
0.0
  0
LINE
  8
MO_001_VIEW_RA
  6
C_SOLID_M
 10
91.104637
 20
224.329926
 30
0.0
 11
91.104637
 21
224.371918
 31
0.0
  0
LINE
  8
MO_001_VIEW_RA
  6
C_SOLID_M
 62
     1
 10
81.237404
 20
210.403656
 30
0.0
 11
166.237427
 21
210.403656
 31
0.0
  0
LINE
  8
MO_001_VIEW_RA
  6
C_SOLID_M
 62
     1
 10
81.237404
 20
203.403656
 30
0.0
 11
166.237427
 21
203.403656
 31
0.0
  0
LINE
  8
MO_001_VIEW_RA
  6
C_SOLID_M
 62
     1
 10
81.237404
 20
196.403656
 30
0.0
 11
166.237427
 21
196.403656
 31
0.0
  0
LINE
  8
MO_001_VIEW_RA
  6
C_SOLID_M
 62
     1
 10
81.237404
 20
189.403656
 30
0.0
 11
166.237427
 21
189.403656
 31
0.0
  0
LINE
  8
MO_001_VIEW_RA
  6
C_SOLID_M
 62
     1
 10
81.237404
 20
182.403656
 30
0.0
 11
166.237427
 21
182.403656
 31
0.0
  0
LINE
  8
MO_001_VIEW_RA
  6
C_SOLID_M
 62
     1
 10
81.237404
 20
175.403656
 30
0.0
 11
166.237427
 21
175.403656
 31
0.0
  0
LINE
  8
MO_001_VIEW_RA
  6
C_SOLID_M
 62
     1
 10
81.237404
 20
168.403656
 30
0.0
 11
166.237427
 21
168.403656
 31
0.0
  0
LINE
  8
MO_001_VIEW_RA
  6
C_SOLID_M
 62
     1
 10
81.237404
 20
161.403656
 30
0.0
 11
166.237427
 21
161.403656
 31
0.0
  0
LINE
  8
MO_001_VIEW_RA
  6
C_SOLID_H
 62
     4
 10
81.237404
 20
217.403656
 30
0.0
 11
166.237427
 21
217.403656
 31
0.0
  0
LINE
  8
MO_001_VIEW_RA
  6
C_SOLID_H
 62
     4
 10
22.237419
 20
227.403656
 30
0.0
 11
22.237419
 21
140.403656
 31
0.0
  0
LINE
  8
MO_001_VIEW_RA
  6
C_SOLID_H
 62
     4
 10
37.237419
 20
227.403656
 30
0.0
 11
37.237419
 21
161.403656
 31
0.0
  0
LINE
  8
MO_001_VIEW_RA
  6
C_SOLID_H
 62
     4
 10
66.237419
 20
227.403656
 30
0.0
 11
66.237419
 21
161.403656
 31
0.0
  0
LINE
  8
MO_001_VIEW_RA
  6
C_SOLID_M
 62
     1
 10
111.237404
 20
227.403656
 30
0.0
 11
111.237404
 21
161.403656
 31
0.0
  0
LINE
  8
MO_001_VIEW_RA
  6
C_SOLID_M
 62
     1
 10
126.237404
 20
227.403656
 30
0.0
 11
126.237404
 21
161.403656
 31
0.0
  0
TEXT
  8
MO_001_VIEW_RA
  6
C_SOLID_L
 10
-26.358002
 20
-52.686388
 30
0.0
 40
3.0
  1
Z 9006 xxxx 01 4B
 50
90.0
 41
0.714286
  0
TEXT
  8
MO_001_VIEW_RA
  6
C_SOLID_L
 10
9.950758
 20
-52.585144
 30
0.0
 40
3.0
  1
Treibriegelstange "BKS 9006"
 41
0.714286
  0
TEXT
  8
MO_001_VIEW_RA
  6
C_SOLID_L
 10
9.950758
 20
-56.870858
 30
0.0
 40
3.0
  1
(massiv mit M6 Gewinde)
 41
0.714286
  0
TEXT
  8
MO_001_VIEW_RA
  6
C_SOLID_L
 10
-18.128436
 20
-56.343735
 30
0.0
 40
2.0
  1
09.09.97 López
 41
0.665289
  0
TEXT
  8
MO_001_VIEW_RA
  6
C_SOLID_L
 10
-2.47471
 20
222.942963
 30
0.0
 40
3.0
  1
Art-Nr.
 41
0.714286
  0
TEXT
  8
MO_001_VIEW_RA
  6
C_SOLID_L
 10
-2.47471
 20
218.657248
 30
0.0
 40
3.0
  1
ohne Fase
 41
0.714286
  0
TEXT
  8
MO_001_VIEW_RA
  6
C_SOLID_L
 10
-15.664152
 20
212.363556
 30
0.0
 40
3.0
  1
 437  B 9006 0001
 41
0.714286
  0
TEXT
  8
MO_001_VIEW_RA
  6
C_SOLID_L
 10
-15.767553
 20
205.669037
 30
0.0
 40
3.0
  1
 687  B 9006 0002
 41
0.714286
  0
TEXT
  8
MO_001_VIEW_RA
  6
C_SOLID_L
 10
-15.797972
 20
198.71936
 30
0.0
 40
3.0
  1
 800  B 9006 0029
 41
0.714286
  0
TEXT
  8
MO_001_VIEW_RA
  6
C_SOLID_L
 10
-15.664152
 20
191.363556
 30
0.0
 40
3.0
  1
 875  B 9006 0027
 41
0.714286
  0
TEXT
  8
MO_001_VIEW_RA
  6
C_SOLID_L
 10
-15.767553
 20
184.669037
 30
0.0
 40
3.0
  1
 937  B 9006 0003
 41
0.714286
  0
TEXT
  8
MO_001_VIEW_RA
  6
C_SOLID_L
 10
-15.797972
 20
177.71936
 30
0.0
 40
3.0
  1
1096  B 9006 0028
 41
0.714286
  0
TEXT
  8
MO_001_VIEW_RA
  6
C_SOLID_L
 10
-15.426252
 20
163.434357
 30
0.0
 40
3.0
  1
1487  B 9006 0005
 41
0.714286
  0
TEXT
  8
MO_001_VIEW_RA
  6
C_SOLID_L
 10
-15.426252
 20
156.414337
 30
0.0
 40
3.0
  1
1987  B 9006 0006
 41
0.714286
  0
TEXT
  8
MO_001_VIEW_RA
  6
C_SOLID_L
 10
-15.223093
 20
149.40625
 30
0.0
 40
3.0
  1
2487  B 9006 0007
 41
0.714286
  0
TEXT
  8
MO_001_VIEW_RA
  6
C_SOLID_L
 10
-15.223093
 20
142.445923
 30
0.0
 40
3.0
  1
2987  B 9006 0008
 41
0.714286
  0
TEXT
  8
MO_001_VIEW_RA
  6
C_SOLID_L
 10
-15.629415
 20
170.394669
 30
0.0
 40
3.0
  1
1187  B 9006 0004
 41
0.714286
  0
TEXT
  8
MO_001_VIEW_RA
  6
C_SOLID_L
 10
82.38703
 20
223.157867
 30
0.0
 40
3.0
  1
Art-Nr.m.Fase
 41
0.714286
  0
TEXT
  8
MO_001_VIEW_RA
  6
C_SOLID_L
 10
82.38703
 20
218.872153
 30
0.0
 40
3.0
  1
u. Schlitz
 41
0.714286
  0
TEXT
  8
MO_001_VIEW_RA
  6
C_SOLID_L
 10
70.173445
 20
212.424881
 30
0.0
 40
3.0
  1
958.5 B 9006 0023
 41
0.714286
  0
TEXT
  8
MO_001_VIEW_RA
  6
C_SOLID_L
 10
70.508062
 20
205.082504
 30
0.0
 40
3.0
  1
1454  B 9006 0046
 41
0.714286
  0
TEXT
  8
MO_001_VIEW_RA
  6
C_SOLID_L
 10
128.818388
 20
223.604462
 30
0.0
 40
3.0
  1
Art-Nr.m.Fase
 41
0.714286
  0
TEXT
  8
MO_001_VIEW_RA
  6
C_SOLID_L
 10
128.818388
 20
219.318748
 30
0.0
 40
3.0
  1
u.Querbohrung
 41
0.714286
  0
TEXT
  8
MO_001_VIEW_RA
  6
C_SOLID_L
 10
26.756643
 20
205.345169
 30
0.0
 40
3.0
  1
 963  B 9006 0037
 41
0.714286
  0
TEXT
  8
MO_001_VIEW_RA
  6
C_SOLID_L
 10
26.684935
 20
198.384842
 30
0.0
 40
3.0
  1
1413  B 9006 0038
 41
0.714286
  0
TEXT
  8
MO_001_VIEW_RA
  6
C_SOLID_L
 10
26.625185
 20
212.532318
 30
0.0
 40
3.0
  1
 916  B 9006 0039
 41
0.714286
  0
TEXT
  8
MO_001_VIEW_RA
  6
C_SOLID_L
 10
114.390944
 20
212.365189
 30
0.0
 40
3.0
  1
 705  B 9006 0055
 41
0.714286
  0
TEXT
  8
MO_001_VIEW_RA
  6
C_SOLID_L
 10
72.93405
 20
220.996948
 30
0.0
 40
3.0
  1
a
 41
0.714286
  0
TEXT
  8
MO_001_VIEW_RA
  6
C_SOLID_L
 10
117.333792
 20
220.739151
 30
0.0
 40
3.0
  1
a
 41
0.714286
  0
TEXT
  8
MO_001_VIEW_RA
  6
C_SOLID_L
 10
28.716551
 20
220.626831
 30
0.0
 40
3.0
  1
a
 41
0.714286
  0
TEXT
  8
MO_001_VIEW_RA
  6
C_SOLID_L
 10
38.910479
 20
222.453476
 30
0.0
 40
3.0
  1
Art.-Nr.
 41
0.714286
  0
TEXT
  8
MO_001_VIEW_RA
  6
C_SOLID_L
 10
38.910479
 20
218.167762
 30
0.0
 40
3.0
  1
m. Fase
 41
0.714286
  0
TEXT
  8
MO_001_VIEW_RA
  6
C_SOLID_L
 10
-11.521372
 20
220.459702
 30
0.0
 40
3.0
  1
a
 41
0.714286
  0
POINT
  8
MO_001_VIEW_X1
  6
C_SOLID_M
 10
45.711346
 20
118.0
 30
0.0
  0
POINT
  8
MO_001_VIEW_X1
  6
C_SOLID_M
 10
45.711346
 20
118.0
 30
0.0
  0
POINT
  8
MO_001_VIEW_X1
  6
C_SOLID_M
 10
40.711346
 20
115.0
 30
0.0
  0
POINT
  8
MO_001_VIEW_X1
  6
C_SOLID_M
 10
50.711346
 20
115.0
 30
0.0
  0
POINT
  8
MO_001_VIEW_X1
  6
C_SOLID_M
 10
45.711346
 20
118.0
 30
0.0
  0
POINT
  8
MO_001_VIEW_X1
  6
C_SOLID_M
 10
60.711346
 20
115.000008
 30
0.0
  0
POINT
  8
MO_001_VIEW_X1
  6
C_SOLID_M
 10
45.711342
 20
128.0
 30
0.0
  0
POINT
  8
MO_001_VIEW_X1
  6
C_SOLID_M
 10
45.011345
 20
114.0
 30
0.0
  0
POINT
  8
MO_001_VIEW_X1
  6
C_SOLID_M
 10
46.411346
 20
114.0
 30
0.0
  0
POINT
  8
MO_001_VIEW_X1
  6
C_SOLID_M
 10
45.711357
 20
71.042854
 30
0.0
  0
POINT
  8
MO_001_VIEW_X1
  6
C_SOLID_M
 10
30.711346
 20
115.0
 30
0.0
  0
LINE
  8
MO_001_VIEW_X1
  6
C_CENTER_L
 62
     3
 10
45.711346
 20
119.942355
 30
0.0
 11
45.711358
 21
67.182024
 31
0.0
  0
LINE
  8
MO_001_VIEW_X1
  6
C_SOLID_H
 62
     4
 10
42.443398
 20
118.0
 30
0.0
 11
45.011345
 21
118.0
 31
0.0
  0
LINE
  8
MO_001_VIEW_X1
  6
C_SOLID_H
 62
     4
 10
50.711346
 20
114.999998
 30
0.0
 11
50.711358
 21
71.042852
 31
0.0
  0
LINE
  8
MO_001_VIEW_X1
  6
C_SOLID_H
 62
     4
 10
40.711346
 20
115.000003
 30
0.0
 11
40.711358
 21
71.042857
 31
0.0
  0
LINE
  8
MO_001_VIEW_X1
  6
C_SOLID_H
 62
     4
 10
40.711346
 20
115.0
 30
0.0
 11
45.011345
 21
115.0
 31
0.0
  0
LINE
  8
MO_001_VIEW_X1
  6
C_SOLID_H
 62
     4
 10
48.979301
 20
118.000002
 30
0.0
 11
50.71135
 21
115.000016
 31
0.0
  0
LINE
  8
MO_001_VIEW_X1
  6
C_SOLID_H
 62
     4
 10
40.711348
 20
115.00002
 30
0.0
 11
42.443393
 21
117.999999
 31
0.0
  0
LINE
  8
MO_001_VIEW_X1
  6
C_SOLID_H
 62
     4
 10
45.011345
 20
114.0
 30
0.0
 11
46.411346
 21
114.0
 31
0.0
  0
LINE
  8
MO_001_VIEW_X1
  6
C_CENTER_L
 62
     3
 10
53.711357
 20
71.042854
 30
0.0
 11
37.711357
 21
71.042854
 31
0.0
  0
LINE
  8
MO_001_VIEW_X1
  6
C_SOLID_H
 62
     4
 10
46.411346
 20
118.0
 30
0.0
 11
46.411346
 21
114.0
 31
0.0
  0
LINE
  8
MO_001_VIEW_X1
  6
C_SOLID_H
 62
     4
 10
45.011345
 20
118.0
 30
0.0
 11
45.011345
 21
114.0
 31
0.0
  0
LINE
  8
MO_001_VIEW_X1
  6
C_SOLID_H
 62
     4
 10
46.411346
 20
115.0
 30
0.0
 11
50.711346
 21
115.0
 31
0.0
  0
LINE
  8
MO_001_VIEW_X1
  6
C_SOLID_H
 62
     4
 10
46.411346
 20
118.0
 30
0.0
 11
48.979294
 21
118.0
 31
0.0
  0
TEXT
  8
MO_001_VIEW_X1
  6
C_SOLID_L
 10
30.744834
 20
62.537483
 30
0.0
 40
3.5
  1
Ausf. m. Fase
 41
0.714286
  0
TEXT
  8
MO_001_VIEW_X1
  6
C_SOLID_L
 10
30.744834
 20
57.537483
 30
0.0
 40
3.5
  1
u. Schlitz
 41
0.714286
  0
DIMENSION
  8
MO_001_VIEW_X1
  6
C_SOLID_M
  2
*D6
 10
60.711342
 20
124.702873
 30
0.0
 11
60.711342
 21
124.702873
 31
0.0
  1
4
 13
46.411346
 23
114.0
 33
0.0
 14
48.979294
 24
118.0
 34
0.0
 50
89.999523
  3
STANDARD
  0
DIMENSION
  8
MO_001_VIEW_X1
  6
C_SOLID_M
  2
*D7
 10
37.12035
 20
128.0
 30
0.0
 11
37.12035
 21
128.0
 31
0.0
  1
1.4
 13
46.411345
 23
118.0
 33
0.0
 14
45.011344
 24
118.0
 34
0.0
  3
STANDARD
  0
DIMENSION
  8
MO_001_VIEW_X1
  6
C_SOLID_M
  2
*D8
 10
30.711346
 20
116.5
 30
0.0
 11
30.711346
 21
116.5
 31
0.0
  1
3
 13
40.711346
 23
115.0
 33
0.0
 14
42.443398
 24
118.0
 34
0.0
 50
89.999523
  3
STANDARD
  0
DIMENSION
  8
MO_001_VIEW_X1
  6
C_SOLID_M
  2
*D9
 10
28.183621
 20
93.301446
 30
0.0
 11
34.755081
 21
90.66291
 31
0.0
 70
     5
  1
30%%D
 13
30.555482
 23
97.409614
 33
0.0
 14
40.711354
 24
94.688349
 34
0.0
 15
40.711346
 25
115.000015
 35
0.0
  3
STANDARD
  0
POINT
  8
MO_001_VIEW_X2
  6
C_SOLID_M
 10
96.041382
 20
118.0
 30
0.0
  0
POINT
  8
MO_001_VIEW_X2
  6
C_SOLID_M
 10
81.041382
 20
115.0
 30
0.0
  0
POINT
  8
MO_001_VIEW_X2
  6
C_SOLID_M
 10
91.041382
 20
118.0
 30
0.0
  0
POINT
  8
MO_001_VIEW_X2
  6
C_SOLID_M
 10
91.041382
 20
118.0
 30
0.0
  0
POINT
  8
MO_001_VIEW_X2
  6
C_SOLID_M
 10
96.041382
 20
118.0
 30
0.0
  0
LINE
  8
MO_001_VIEW_X2
  6
C_CENTER_L
 62
     3
 10
96.041382
 20
121.075439
 30
0.0
 11
96.041382
 21
69.830826
 31
0.0
  0
LINE
  8
MO_001_VIEW_X2
  6
C_SOLID_H
 62
     4
 10
91.041382
 20
115.0
 30
0.0
 11
91.041382
 21
72.017693
 31
0.0
  0
LINE
  8
MO_001_VIEW_X2
  6
C_SOLID_H
 62
     4
 10
101.041382
 20
115.0
 30
0.0
 11
101.041382
 21
72.017693
 31
0.0
  0
LINE
  8
MO_001_VIEW_X2
  6
C_SOLID_H
 62
     4
 10
92.773438
 20
118.0
 30
0.0
 11
99.309334
 21
118.0
 31
0.0
  0
LINE
  8
MO_001_VIEW_X2
  6
C_SOLID_H
 62
     4
 10
91.041382
 20
115.0
 30
0.0
 11
101.041367
 21
115.0
 31
0.0
  0
LINE
  8
MO_001_VIEW_X2
  6
C_SOLID_H
 62
     4
 10
91.041391
 20
115.000009
 30
0.0
 11
92.77344
 21
118.000004
 31
0.0
  0
LINE
  8
MO_001_VIEW_X2
  6
C_SOLID_H
 62
     4
 10
101.041375
 20
114.999997
 30
0.0
 11
99.309319
 21
117.999997
 31
0.0
  0
LINE
  8
MO_001_VIEW_X2
  6
C_CENTER_L
 62
     3
 10
86.398331
 20
72.017693
 30
0.0
 11
105.086578
 21
72.017693
 31
0.0
  0
TEXT
  8
MO_001_VIEW_X2
  6
C_SOLID_L
 10
82.335589
 20
63.266113
 30
0.0
 40
3.5
  1
Ausf. m. Fase
 41
0.714286
  0
DIMENSION
  8
MO_001_VIEW_X2
  6
C_SOLID_M
  2
*D10
 10
81.141968
 20
116.5
 30
0.0
 11
81.141968
 21
116.5
 31
0.0
  1
3
 13
91.041382
 23
115.0
 33
0.0
 14
92.773438
 24
118.0
 34
0.0
 50
89.999523
  3
STANDARD
  0
DIMENSION
  8
MO_001_VIEW_X2
  6
C_SOLID_M
  2
*D11
 10
76.304611
 20
89.475117
 30
0.0
 11
83.413071
 21
86.530701
 31
0.0
 70
     5
  1
30%%D
 13
72.516611
 23
82.9141
 33
0.0
 14
91.04138
 24
77.950409
 34
0.0
 15
91.041382
 25
114.999992
 35
0.0
  3
STANDARD
  0
POINT
  8
MO_001_VIEW_X3
  6
C_SOLID_M
 10
137.70816
 20
118.0
 30
0.0
  0
POINT
  8
MO_001_VIEW_X3
  6
C_SOLID_M
 10
137.70816
 20
118.0
 30
0.0
  0
POINT
  8
MO_001_VIEW_X3
  6
C_SOLID_M
 10
137.70816
 20
118.0
 30
0.0
  0
POINT
  8
MO_001_VIEW_X3
  6
C_SOLID_M
 10
137.70816
 20
114.0
 30
0.0
  0
POINT
  8
MO_001_VIEW_X3
  6
C_SOLID_M
 10
142.70816
 20
118.0
 30
0.0
  0
POINT
  8
MO_001_VIEW_X3
  6
C_SOLID_M
 10
132.70816
 20
118.0
 30
0.0
  0
POINT
  8
MO_001_VIEW_X3
  6
C_SOLID_M
 10
122.70816
 20
118.0
 30
0.0
  0
POINT
  8
MO_001_VIEW_X3
  6
C_SOLID_M
 10
136.20816
 20
114.0
 30
0.0
  0
POINT
  8
MO_001_VIEW_X3
  6
C_SOLID_M
 10
139.20816
 20
114.0
 30
0.0
  0
POINT
  8
MO_001_VIEW_X3
  6
C_SOLID_M
 10
137.70816
 20
128.0
 30
0.0
  0
POINT
  8
MO_001_VIEW_X3
  6
C_SOLID_M
 10
122.70816
 20
118.0
 30
0.0
  0
POINT
  8
MO_001_VIEW_X3
  6
C_SOLID_M
 10
152.70816
 20
118.0
 30
0.0
  0
LINE
  8
MO_001_VIEW_X3
  6
C_CENTER_L
 62
     3
 10
137.70816
 20
119.98027
 30
0.0
 11
137.70816
 21
93.047226
 31
0.0
  0
LINE
  8
MO_001_VIEW_X3
  6
C_SOLID_H
 62
     4
 10
132.70816
 20
116.0
 30
0.0
 11
132.70816
 21
95.730934
 31
0.0
  0
LINE
  8
MO_001_VIEW_X3
  6
C_SOLID_H
 62
     4
 10
142.70816
 20
115.999992
 30
0.0
 11
142.70816
 21
96.084328
 31
0.0
  0
LINE
  8
MO_001_VIEW_X3
  6
C_SOLID_H
 62
     4
 10
134.70816
 20
118.0
 30
0.0
 11
140.70816
 21
118.0
 31
0.0
  0
LINE
  8
MO_001_VIEW_X3
  6
C_CENTER_L
 62
     3
 10
134.440216
 20
114.0
 30
0.0
 11
140.976105
 21
114.0
 31
0.0
  0
LINE
  8
MO_001_VIEW_X3
  6
C_SOLID_H
 62
     4
 10
132.70816
 20
116.0
 30
0.0
 11
142.70816
 21
116.0
 31
0.0
  0
LINE
  8
MO_001_VIEW_X3
  6
C_SOLID_H
 62
     4
 10
140.708165
 20
118.000004
 30
0.0
 11
142.708165
 21
115.999996
 31
0.0
  0
LINE
  8
MO_001_VIEW_X3
  6
C_SOLID_H
 62
     4
 10
134.708154
 20
117.999996
 30
0.0
 11
132.708167
 21
116.000001
 31
0.0
  0
CIRCLE
  8
MO_001_VIEW_X3
  6
C_SOLID_H
 62
     4
 10
137.70816
 20
114.0
 30
0.0
 40
1.5
  0
POLYLINE
  8
MO_001_VIEW_X3
  6
C_SOLID_M
 62
     1
 66
     1
 10
0.0
 20
0.0
 30
0.0
  0
VERTEX
  8
MO_001_VIEW_X3
  6
C_SOLID_M
 62
     1
 10
132.707152
 20
95.731242
 30
0.0
  0
VERTEX
  8
MO_001_VIEW_X3
  6
C_SOLID_M
 62
     1
 10
132.837742
 20
95.71593
 30
0.0
  0
VERTEX
  8
MO_001_VIEW_X3
  6
C_SOLID_M
 62
     1
 10
132.967194
 20
95.692352
 30
0.0
  0
VERTEX
  8
MO_001_VIEW_X3
  6
C_SOLID_M
 62
     1
 10
133.119821
 20
95.652901
 30
0.0
  0
VERTEX
  8
MO_001_VIEW_X3
  6
C_SOLID_M
 62
     1
 10
133.345198
 20
95.574525
 30
0.0
  0
VERTEX
  8
MO_001_VIEW_X3
  6
C_SOLID_M
 62
     1
 10
133.567973
 20
95.47993
 30
0.0
  0
VERTEX
  8
MO_001_VIEW_X3
  6
C_SOLID_M
 62
     1
 10
134.163651
 20
95.206718
 30
0.0
  0
VERTEX
  8
MO_001_VIEW_X3
  6
C_SOLID_M
 62
     1
 10
134.507375
 20
95.076998
 30
0.0
  0
VERTEX
  8
MO_001_VIEW_X3
  6
C_SOLID_M
 62
     1
 10
134.856946
 20
94.975128
 30
0.0
  0
VERTEX
  8
MO_001_VIEW_X3
  6
C_SOLID_M
 62
     1
 10
135.211767
 20
94.901192
 30
0.0
  0
VERTEX
  8
MO_001_VIEW_X3
  6
C_SOLID_M
 62
     1
 10
135.571243
 20
94.855278
 30
0.0
  0
VERTEX
  8
MO_001_VIEW_X3
  6
C_SOLID_M
 62
     1
 10
135.985724
 20
94.835973
 30
0.0
  0
VERTEX
  8
MO_001_VIEW_X3
  6
C_SOLID_M
 62
     1
 10
136.401438
 20
94.844526
 30
0.0
  0
VERTEX
  8
MO_001_VIEW_X3
  6
C_SOLID_M
 62
     1
 10
137.234772
 20
94.906395
 30
0.0
  0
VERTEX
  8
MO_001_VIEW_X3
  6
C_SOLID_M
 62
     1
 10
137.726328
 20
94.951572
 30
0.0
  0
VERTEX
  8
MO_001_VIEW_X3
  6
C_SOLID_M
 62
     1
 10
138.213684
 20
95.015022
 30
0.0
  0
VERTEX
  8
MO_001_VIEW_X3
  6
C_SOLID_M
 62
     1
 10
138.480244
 20
95.0644
 30
0.0
  0
VERTEX
  8
MO_001_VIEW_X3
  6
C_SOLID_M
 62
     1
 10
138.876287
 20
95.156976
 30
0.0
  0
VERTEX
  8
MO_001_VIEW_X3
  6
C_SOLID_M
 62
     1
 10
139.268731
 20
95.267254
 30
0.0
  0
VERTEX
  8
MO_001_VIEW_X3
  6
C_SOLID_M
 62
     1
 10
139.788262
 20
95.433056
 30
0.0
  0
VERTEX
  8
MO_001_VIEW_X3
  6
C_SOLID_M
 62
     1
 10
140.305878
 20
95.609283
 30
0.0
  0
VERTEX
  8
MO_001_VIEW_X3
  6
C_SOLID_M
 62
     1
 10
141.02211
 20
95.84319
 30
0.0
  0
VERTEX
  8
MO_001_VIEW_X3
  6
C_SOLID_M
 62
     1
 10
141.384256
 20
95.941481
 30
0.0
  0
VERTEX
  8
MO_001_VIEW_X3
  6
C_SOLID_M
 62
     1
 10
141.751862
 20
96.018234
 30
0.0
  0
VERTEX
  8
MO_001_VIEW_X3
  6
C_SOLID_M
 62
     1
 10
141.989481
 20
96.053015
 30
0.0
  0
VERTEX
  8
MO_001_VIEW_X3
  6
C_SOLID_M
 62
     1
 10
142.228469
 20
96.075846
 30
0.0
  0
VERTEX
  8
MO_001_VIEW_X3
  6
C_SOLID_M
 62
     1
 10
142.468181
 20
96.086409
 30
0.0
  0
VERTEX
  8
MO_001_VIEW_X3
  6
C_SOLID_M
 62
     1
 10
142.707975
 20
96.084384
 30
0.0
  0
SEQEND
  8
MO_001_VIEW_X3
  6
C_SOLID_M
 62
     1
  0
TEXT
  8
MO_001_VIEW_X3
  6
C_SOLID_L
 10
123.28184
 20
84.65712
 30
0.0
 40
3.5
  1
Ausführung
 41
0.714286
  0
TEXT
  8
MO_001_VIEW_X3
  6
C_SOLID_L
 10
123.28184
 20
79.65712
 30
0.0
 40
3.5
  1
m. Querbohrung
 41
0.714286
  0
POLYLINE
  8
MO_001_NOSHOW
  6
C_SOLID_M
 66
     1
 10
0.0
 20
0.0
 30
0.0
 70
     4
 75
     6
  0
VERTEX
  8
MO_001_NOSHOW
  6
C_SOLID_M
 10
129.064316
 20
95.257843
 30
0.0
 50
10.475319
  0
VERTEX
  8
MO_001_NOSHOW
  6
C_SOLID_M
 10
131.124527
 20
95.558167
 30
0.0
 50
9.655902
  0
VERTEX
  8
MO_001_NOSHOW
  6
C_SOLID_M
 10
132.967194
 20
95.692352
 30
0.0
 50
347.571246
  0
VERTEX
  8
MO_001_NOSHOW
  6
C_SOLID_M
 10
134.163651
 20
95.206718
 30
0.0
 50
336.954605
  0
VERTEX
  8
MO_001_NOSHOW
  6
C_SOLID_M
 10
135.571243
 20
94.855278
 30
0.0
 50
354.779927
  0
VERTEX
  8
MO_001_NOSHOW
  6
C_SOLID_M
 10
137.234772
 20
94.906395
 30
0.0
 50
4.956589
  0
VERTEX
  8
MO_001_NOSHOW
  6
C_SOLID_M
 10
138.213684
 20
95.015022
 30
0.0
 50
9.29532
  0
VERTEX
  8
MO_001_NOSHOW
  6
C_SOLID_M
 10
140.305878
 20
95.609283
 30
0.0
 50
18.924452
  0
VERTEX
  8
MO_001_NOSHOW
  6
C_SOLID_M
 10
141.751862
 20
96.018234
 30
0.0
 50
9.743485
  0
VERTEX
  8
MO_001_NOSHOW
  6
C_SOLID_M
 10
142.948318
 20
96.069351
 30
0.0
 50
354.658461
  0
VERTEX
  8
MO_001_NOSHOW
  6
C_SOLID_M
 10
145.040512
 20
95.609283
 30
0.0
 50
347.290202
  0
VERTEX
  8
MO_001_NOSHOW
  6
C_SOLID_M
 10
146.742432
 20
95.340912
 30
0.0
 50
352.387459
  0
SEQEND
  8
MO_001_NOSHOW
  6
C_SOLID_M
  0
DIMENSION
  8
MO_001_VIEW_X3
  6
C_SOLID_M
  2
*D12
 10
137.70816
 20
128.0
 30
0.0
 11
137.70816
 21
128.0
 31
0.0
  1
3
 13
139.20816
 23
114.0
 33
0.0
 14
136.20816
 24
114.0
 34
0.0
  3
STANDARD
  0
DIMENSION
  8
MO_001_VIEW_X3
  6
C_SOLID_M
  2
*D13
 10
122.70816
 20
116.0
 30
0.0
 11
122.70816
 21
116.0
 31
0.0
  1
4
 13
134.440216
 23
114.0
 33
0.0
 14
134.70816
 24
118.0
 34
0.0
 50
89.999523
  3
STANDARD
  0
DIMENSION
  8
MO_001_VIEW_X3
  6
C_SOLID_M
  2
*D14
 10
152.70816
 20
106.302147
 30
0.0
 11
152.70816
 21
106.302147
 31
0.0
  1
2x45%%D
 13
142.70816
 23
116.0
 33
0.0
 14
140.70816
 24
118.0
 34
0.0
 50
89.999523
  3
STANDARD
  0
ENDSEC
  0
EOF
