  0
SECTION
  2
HEADER
  9
$ACADVER
  1
AC1009
  9
$INSBASE
 10
0
 20
0
  9
$EXTMIN
 10
-386.7614220045728
 20
-114.1361487935477
  9
$EXTMAX
 10
-69.76142200457274
 20
44.86385120645227
  9
$LIMMIN
 10
-386.7614220045728
 20
-114.1361487935477
  9
$LIMMAX
 10
-69.76142200457274
 20
44.86385120645227
  9
$VIEWCTR
 10
10
 20
10
  9
$VIEWSIZE
 40
10
  9
$SNAPMODE
 70
0
  9
$SNAPUNIT
 10
1
 20
1
  9
$SNAPBASE
 10
0
 20
0
  9
$SNAPANG
 50
0
  9
$SNAPSTYLE
 70
0
  9
$SNAPISOPAIR
 70
0
  9
$GRIDMODE
 70
0
  9
$GRIDUNIT
 10
0
 20
0
  9
$ORTHOMODE
 70
0
  9
$REGENMODE
 70
1
  9
$FILLMODE
 70
1
  9
$QTEXTMODE
 70
0
  9
$DRAGMODE
 70
2
  9
$LTSCALE
 40
1
  9
$OSMODE
 70
0
  9
$ATTMODE
 70
1
  9
$TEXTSIZE
 40
3.5
  9
$TRACEWID
 40
0.5
  9
$TEXTSTYLE
  7
STANDARD
  9
$CLAYER
  8
0
  9
$CELTYPE
  6
BYLAYER
  9
$CECOLOR
 62
256
  9
$DIMSCALE
 40
1
  9
$DIMASZ
 40
0.18
  9
$DIMEXO
 40
0.0625
  9
$DIMDLI
 40
0.38
  9
$DIMRND
 40
0
  9
$DIMDLE
 40
0
  9
$DIMEXE
 40
0.18
  9
$DIMTP
 40
0
  9
$DIMTM
 40
0
  9
$DIMTXT
 40
0.18
  9
$DIMCEN
 40
0.09
  9
$DIMTSZ
 40
0
  9
$DIMTOL
 70
0
  9
$DIMLIM
 70
0
  9
$DIMTIH
 70
1
  9
$DIMTOH
 70
1
  9
$DIMSE1
 70
0
  9
$DIMSE2
 70
0
  9
$DIMTAD
 70
0
  9
$DIMZIN
 70
0
  9
$DIMBLK
  1

  9
$DIMASO
 70
1
  9
$DIMSHO
 70
1
  9
$DIMPOST
  1

  9
$DIMAPOST
  1

  9
$DIMALT
 70
0
  9
$DIMALTD
 70
2
  9
$DIMALTF
 40
25.4
  9
$DIMLFAC
 40
1
  9
$DIMTOFL
 70
0
  9
$DIMTVP
 40
0
  9
$DIMTIX
 70
0
  9
$DIMSOXD
 70
0
  9
$DIMSAH
 70
0
  9
$DIMBLK1
  1

  9
$DIMBLK2
  1

  9
$DIMSTYLE
  2
*UNNAMED
  9
$DIMCLRD
 70
0
  9
$DIMCLRE
 70
0
  9
$DIMCLRT
 70
0
  9
$DIMTFAC
 40
1
  9
$DIMGAP
 40
0.09
  9
$LUNITS
 70
2
  9
$LUPREC
 70
4
  9
$AXISMODE
 70
0
  9
$AXISUNIT
 10
0
 20
0
  9
$SKETCHINC
 40
0.1
  9
$FILLETRAD
 40
2
  9
$AUNITS
 70
0
  9
$AUPREC
 70
0
  9
$MENU
  1
ACAD
  9
$ELEVATION
 40
0
  9
$THICKNESS
 40
0
  9
$VIEWDIR
 10
0
 20
0
 30
1
  9
$LIMCHECK
 70
0
  9
$BLIPMODE
 70
1
  9
$CHAMFERA
 40
0
  9
$CHAMFERB
 40
0
  9
$FASTZOOM
 70
1
  9
$SKPOLY
 70
0
  9
$ANGBASE
 50
0
  9
$ANGDIR
 70
0
  9
$PDMODE
 70
0
  9
$PDSIZE
 40
0
  9
$PLINEWID
 40
0
  9
$COORDS
 70
2
  0
ENDSEC
  0
SECTION
  2
TABLES
  0
TABLE
  2
DIMSTYLE
 70
2
  0
DIMSTYLE
  2
DMST_1
 70
0
  3

  4

  5
DOT
  6
DOT
  7
DOT
 40
1
 41
2
 42
0
 43
7
 44
2
 45
0
 46
0
 47
0
 48
0
140
8
141
0
142
0
143
25.4
144
1
145
0
146
1
147
0.09
 71
0
 72
0
 73
0
 74
0
 75
0
 76
0
 77
1
 78
9
170
0
171
2
172
0
173
0
174
0
175
0
176
2
177
2
178
2
  0
DIMSTYLE
  2
DMST_2
 70
0
  3

  4

  5
DOT
  6
DOT
  7
DOT
 40
1
 41
2.5
 42
0
 43
7
 44
2
 45
0
 46
0
 47
0
 48
0
140
8
141
0
142
0
143
25.4
144
1
145
0
146
1
147
0.09
 71
0
 72
0
 73
0
 74
0
 75
0
 76
0
 77
1
 78
9
170
0
171
2
172
0
173
0
174
0
175
0
176
2
177
2
178
2
  0
ENDTAB
  0
TABLE
  2
LTYPE
 70
9
  0
LTYPE
  2
CONTINUOUS
 70
64
  3
Solid line
 72
65
 73
0
 40
0
  0
LTYPE
  2
BORDER
 70
64
  3
__ __ . __ __ .
 72
65
 73
6
 40
14.59868421052632
 49
4.171052631578948
 49
-2.085526315789474
 49
4.171052631578948
 49
-2.085526315789474
 49
0
 49
-2.085526315789474
  0
LTYPE
  2
CENTER
 70
64
  3
____ _ ____ _
 72
65
 73
4
 40
16.68421052631579
 49
10.42763157894737
 49
-2.085526315789474
 49
2.085526315789474
 49
-2.085526315789474
  0
LTYPE
  2
DASHDOT
 70
64
  3
__ . __ . __ .
 72
65
 73
4
 40
8.342105263157896
 49
4.171052631578948
 49
-2.085526315789474
 49
0
 49
-2.085526315789474
  0
LTYPE
  2
DASHED
 70
64
  3
__ __ __ __ __
 72
65
 73
2
 40
6.256578947368421
 49
4.171052631578948
 49
-2.085526315789474
  0
LTYPE
  2
DIVIDE
 70
64
  3
__ . . __ . . 
 72
65
 73
6
 40
10.42763157894737
 49
4.171052631578948
 49
-2.085526315789474
 49
0
 49
-2.085526315789474
 49
0
 49
-2.085526315789474
  0
LTYPE
  2
DOT
 70
64
  3
..............
 72
65
 73
4
 40
4.171052631578948
 49
0
 49
-2.085526315789474
 49
0
 49
-2.085526315789474
  0
LTYPE
  2
HIDDEN
 70
64
  3
_ _ _ _ _ _ _
 72
65
 73
2
 40
3.128289473684211
 49
2.085526315789474
 49
-1.042763157894737
  0
LTYPE
  2
PHANTOM
 70
64
  3
_____ _ _ _____ _ _ 
 72
65
 73
6
 40
20.85526315789474
 49
10.42763157894737
 49
-2.085526315789474
 49
2.085526315789474
 49
-2.085526315789474
 49
2.085526315789474
 49
-2.085526315789474
  0
ENDTAB
  0
TABLE
  2
LAYER
 70
3
  0
LAYER
  2
1
 70
0
 62
7
  6
CONTINUOUS
  0
LAYER
  2
0
 70
0
 62
7
  6
CONTINUOUS
  0
ENDTAB
  0
TABLE
  2
STYLE
 70
4
  0
STYLE
  2
STANDARD
 70
0
 40
0
 41
1
 50
0
 71
0
 42
3.5
  3
txt
  4

  0
STYLE
  2
SIMPLEX
 70
0
 40
0
 41
1
 50
0
 71
0
 42
3.5
  3
simplex
  4

  0
STYLE
  2
COMPLEX
 70
0
 40
0
 41
1
 50
0
 71
0
 42
3.5
  3
complex
  4

  0
STYLE
  2
ITALIC
 70
0
 40
0
 41
1
 50
0
 71
0
 42
3.5
  3
italic
  4

  0
ENDTAB
  0
TABLE
  2
VIEW
 70
0
  0
ENDTAB
  0
ENDSEC
  0
SECTION
  2
BLOCKS
  0
BLOCK
  8
1
  2
*D0
 70
1
 10
0
 20
0
 30
0
  0
LINE
  8
1
 62
2
 10
-211.779185188782
 20
-19.49463844923334
 30
0
 11
-211.779185188782
 21
-11.49463844923334
 31
0
  0
LINE
  8
1
 62
2
 10
-211.779185188782
 20
-11.49463844923334
 30
0
 11
-211.779185188782
 21
9.830353634074513
 31
0
  0
LINE
  8
1
 62
2
 10
-193.845261324886
 20
-19.49463844923334
 30
0
 11
-213.779185188782
 21
-19.49463844923334
 31
0
  0
LINE
  8
1
 62
2
 10
-193.845261324886
 20
-11.49463844923334
 30
0
 11
-213.779185188782
 21
-11.49463844923334
 31
0
  0
CIRCLE
  8
1
 62
2
 10
-211.779185188782
 20
-11.49463844923334
 30
0
 40
1
  0
CIRCLE
  8
1
 62
2
 10
-211.779185188782
 20
-19.49463844923334
 30
0
 40
1
  0
TEXT
  8
1
 62
2
 10
-213.779185188782
 20
4.430353634074514
 30
0
 40
8
  1
8
 50
90
 41
0.9
  7
COMPLEX
  0
TEXT
  8
1
 62
2
 10
-213.779185188782
 20
-7.569646365925486
 30
0
 40
8
  1
%%c
 50
90
 41
0.9
  7
COMPLEX
  0
ENDBLK
  8
0
  0
BLOCK
  8
1
  2
*D1
 70
1
 10
0
 20
0
 30
0
  0
LINE
  8
1
 62
2
 10
-222.809899047947
 20
-53.49463844923334
 30
0
 11
-222.809899047947
 21
-15.49463844923334
 31
0
  0
LINE
  8
1
 62
2
 10
-200.5658816657939
 20
-53.49463844923334
 30
0
 11
-224.809899047947
 21
-53.49463844923334
 31
0
  0
LINE
  8
1
 62
2
 10
-201.49086362082
 20
-15.49463844923334
 30
0
 11
-224.809899047947
 21
-15.49463844923334
 31
0
  0
CIRCLE
  8
1
 62
2
 10
-222.809899047947
 20
-53.49463844923334
 30
0
 40
1
  0
CIRCLE
  8
1
 62
2
 10
-222.809899047947
 20
-15.49463844923334
 30
0
 40
1
  0
TEXT
  8
1
 62
2
 10
-224.809899047947
 20
-39.888334460507
 30
0
 40
8
  1
38
 50
90
 41
0.9
  7
COMPLEX
  0
ENDBLK
  8
0
  0
BLOCK
  8
1
  2
*D2
 70
1
 10
0
 20
0
 30
0
  0
LINE
  8
1
 62
2
 10
-305.5981633767829
 20
-77.1399081168593
 30
0
 11
-296.598163376783
 21
-77.1399081168593
 31
0
  0
LINE
  8
1
 62
2
 10
-305.5981633767829
 20
-77.1399081168593
 30
0
 11
-315.321708645739
 21
-77.1399081168593
 31
0
  0
LINE
  8
1
 62
2
 10
-305.5981633767829
 20
-60.99463844923342
 30
0
 11
-305.5981633767829
 21
-79.1399081168593
 31
0
  0
LINE
  8
1
 62
2
 10
-296.598163376783
 20
-60.94463844923343
 30
0
 11
-296.598163376783
 21
-79.1399081168593
 31
0
  0
CIRCLE
  8
1
 62
2
 10
-305.5981633767829
 20
-77.1399081168593
 30
0
 40
1
  0
CIRCLE
  8
1
 62
2
 10
-296.598163376783
 20
-77.1399081168593
 30
0
 40
1
  0
TEXT
  8
1
 62
2
 10
-315.321708645739
 20
-75.1399081168593
 30
0
 40
8
  1
9
 41
0.9
  7
COMPLEX
  0
ENDBLK
  8
0
  0
BLOCK
  8
1
  2
*D3
 70
1
 10
0
 20
0
 30
0
  0
LINE
  8
1
 62
2
 10
-296.598163376783
 20
-77.26470101987999
 30
0
 11
-292.598163376783
 21
-77.26470101987999
 31
0
  0
LINE
  8
1
 62
2
 10
-292.598163376783
 20
-77.26470101987999
 30
0
 11
-283.715199011387
 21
-77.26470101987999
 31
0
  0
LINE
  8
1
 62
2
 10
-296.598163376783
 20
-61.99463844923341
 30
0
 11
-296.598163376783
 21
-79.26470101987999
 31
0
  0
LINE
  8
1
 62
2
 10
-292.598163376783
 20
-42.49463844923332
 30
0
 11
-292.598163376783
 21
-79.26470101987999
 31
0
  0
CIRCLE
  8
1
 62
2
 10
-296.598163376783
 20
-77.26470101987999
 30
0
 40
1
  0
CIRCLE
  8
1
 62
2
 10
-292.598163376783
 20
-77.26470101987999
 30
0
 40
1
  0
TEXT
  8
1
 62
2
 10
-289.215199011387
 20
-75.26470101987999
 30
0
 40
8
  1
4
 41
0.9
  7
COMPLEX
  0
ENDBLK
  8
0
  0
BLOCK
  8
1
  2
*D4
 70
1
 10
0
 20
0
 30
0
  0
LINE
  8
1
 62
2
 10
-262.808226693789
 20
-42.49463844923333
 30
0
 11
-262.808226693789
 21
-26.49463844923333
 31
0
  0
LINE
  8
1
 62
2
 10
-262.808226693789
 20
-26.49463844923333
 30
0
 11
-262.808226693789
 21
2.342509288199221
 31
0
  0
LINE
  8
1
 62
2
 10
-295.098163376783
 20
-42.49463844923333
 30
0
 11
-260.808226693789
 21
-42.49463844923333
 31
0
  0
LINE
  8
1
 62
2
 10
-292.598163376783
 20
-26.49463844923333
 30
0
 11
-260.808226693789
 21
-26.49463844923333
 31
0
  0
CIRCLE
  8
1
 62
2
 10
-262.808226693789
 20
-42.49463844923333
 30
0
 40
1
  0
CIRCLE
  8
1
 62
2
 10
-262.808226693789
 20
-26.49463844923333
 30
0
 40
1
  0
TEXT
  8
1
 62
2
 10
-264.808226693789
 20
-7.45749071180078
 30
0
 40
8
  1
16
 50
90
 41
0.9
  7
COMPLEX
  0
TEXT
  8
1
 62
2
 10
-264.808226693789
 20
-19.45749071180078
 30
0
 40
8
  1
%%c
 50
90
 41
0.9
  7
COMPLEX
  0
ENDBLK
  8
0
  0
BLOCK
  8
1
  2
*D5
 70
1
 10
0
 20
0
 30
0
  0
LINE
  8
1
 62
2
 10
-375.8150234604591
 20
3.64954914695571
 30
0
 11
-320.8150234604591
 21
3.64954914695571
 31
0
  0
LINE
  8
1
 62
2
 10
-375.8150234604591
 20
-34.49463844923329
 30
0
 11
-375.8150234604591
 21
5.64954914695571
 31
0
  0
LINE
  8
1
 62
2
 10
-320.8150234604591
 20
-34.49463844923329
 30
0
 11
-320.8150234604591
 21
5.64954914695571
 31
0
  0
CIRCLE
  8
1
 62
2
 10
-375.8150234604591
 20
3.64954914695571
 30
0
 40
1.25
  0
CIRCLE
  8
1
 62
2
 10
-320.8150234604591
 20
3.64954914695571
 30
0
 40
1.25
  0
TEXT
  8
1
 62
2
 10
-345.591666093055
 20
5.64954914695571
 30
0
 40
8
  1
55
 41
0.9
  7
COMPLEX
  0
TEXT
  8
1
 62
2
 10
-357.591666093055
 20
5.64954914695571
 30
0
 40
8
  1
%%c
 41
0.9
  7
COMPLEX
  0
ENDBLK
  8
0
  0
BLOCK
  8
1
  2
*D6
 70
1
 10
0
 20
0
 30
0
  0
LINE
  8
1
 62
2
 10
-134.4138804279187
 20
3.64954914695571
 30
0
 11
-79.41388042791868
 21
3.64954914695571
 31
0
  0
LINE
  8
1
 62
2
 10
-134.4138804279187
 20
-34.49463844923329
 30
0
 11
-134.4138804279187
 21
5.64954914695571
 31
0
  0
LINE
  8
1
 62
2
 10
-79.41388042791868
 20
-34.49463844923329
 30
0
 11
-79.41388042791868
 21
5.64954914695571
 31
0
  0
CIRCLE
  8
1
 62
2
 10
-134.4138804279187
 20
3.64954914695571
 30
0
 40
1.25
  0
CIRCLE
  8
1
 62
2
 10
-79.41388042791868
 20
3.64954914695571
 30
0
 40
1.25
  0
TEXT
  8
1
 62
2
 10
-105.411574559874
 20
5.64954914695571
 30
0
 40
8
  1
55
 41
0.9
  7
COMPLEX
  0
TEXT
  8
1
 62
2
 10
-117.411574559874
 20
5.64954914695571
 30
0
 40
8
  1
%%c
 41
0.9
  7
COMPLEX
  0
ENDBLK
  8
0
  0
BLOCK
  8
1
  2
*D7
 70
1
 10
0
 20
0
 30
0
  0
LINE
  8
1
 62
2
 10
-199.345261324886
 20
-77.3359785264412
 30
0
 11
-193.845261324886
 21
-77.3359785264412
 31
0
  0
LINE
  8
1
 62
2
 10
-199.345261324886
 20
-77.3359785264412
 30
0
 11
-218.624045226049
 21
-77.3359785264412
 31
0
  0
LINE
  8
1
 62
2
 10
-199.345261324886
 20
-55.99463844923323
 30
0
 11
-199.345261324886
 21
-79.3359785264412
 31
0
  0
LINE
  8
1
 62
2
 10
-193.845261324886
 20
-57.49463844923323
 30
0
 11
-193.845261324886
 21
-79.3359785264412
 31
0
  0
CIRCLE
  8
1
 62
2
 10
-199.345261324886
 20
-77.3359785264412
 30
0
 40
1
  0
CIRCLE
  8
1
 62
2
 10
-193.845261324886
 20
-77.3359785264412
 30
0
 40
1
  0
TEXT
  8
1
 62
2
 10
-218.624045226049
 20
-73.7359785264412
 30
0
 40
8
  1
5,5
 41
0.9
  7
COMPLEX
  0
ENDBLK
  8
0
  0
BLOCK
  8
1
  2
*D8
 70
1
 10
0
 20
0
 30
0
  0
LINE
  8
1
 62
2
 10
-193.845261324886
 20
-77.330481303719
 30
0
 11
-184.845261324886
 21
-77.330481303719
 31
0
  0
LINE
  8
1
 62
2
 10
-184.845261324886
 20
-77.330481303719
 30
0
 11
-173.148421042056
 21
-77.330481303719
 31
0
  0
LINE
  8
1
 62
2
 10
-193.845261324886
 20
-57.49463844923323
 30
0
 11
-193.845261324886
 21
-79.330481303719
 31
0
  0
LINE
  8
1
 62
2
 10
-184.845261324886
 20
-57.34463844923324
 30
0
 11
-184.845261324886
 21
-79.330481303719
 31
0
  0
CIRCLE
  8
1
 62
2
 10
-193.845261324886
 20
-77.330481303719
 30
0
 40
1
  0
CIRCLE
  8
1
 62
2
 10
-184.845261324886
 20
-77.330481303719
 30
0
 40
1
  0
TEXT
  8
1
 62
2
 10
-178.448421042056
 20
-75.330481303719
 30
0
 40
8
  1
9
 41
0.9
  7
COMPLEX
  0
ENDBLK
  8
0
  0
ENDSEC
  0
SECTION
  2
ENTITIES
  0
LINE
  8
1
 62
2
 10
-193.845261324886
 20
-38.49463844923334
 30
0
 11
-212.844913696914
 21
-30.49463844923334
 31
0
  0
LINE
  8
1
 62
1
 10
-193.845261324886
 20
-30.49463844923334
 30
0
 11
-193.845261324886
 21
-19.49463844923334
 31
0
  0
LINE
  8
1
 62
2
 10
-213.174823690341
 20
-38.49463844923334
 30
0
 11
-193.845261324886
 21
-30.49463844923334
 31
0
  0
LINE
  8
1
 62
1
 10
-193.845261324886
 20
-30.49463844923334
 30
0
 11
-212.844913696914
 21
-30.49463844923334
 31
0
  0
LINE
  8
1
 62
1
 10
-193.845261324886
 20
-38.49463844923334
 30
0
 11
-193.845261324886
 21
-30.49463844923334
 31
0
  0
LINE
  8
1
 62
2
 10
-270.8829086391841
 20
-30.49463844923333
 30
0
 11
-292.559426975894
 21
-38.49463844923334
 31
0
  0
LINE
  8
1
 62
2
 10
-292.598163376783
 20
-30.49463844923333
 30
0
 11
-271.3227886304201
 21
-38.49463844923333
 31
0
  0
LINE
  8
1
 62
1
 10
-199.345261324886
 20
-12.99463844923334
 30
0
 11
-199.345261324886
 21
-13.49463844923334
 31
0
  0
LINE
  8
1
 62
1
 10
-199.345261324886
 20
-19.30257421702864
 30
0
 11
-199.345261324886
 21
-13.49463844923334
 31
0
  0
LINE
  8
1
 62
1
 10
-296.598163376783
 20
-49.49463844923333
 30
0
 11
-296.598163376783
 21
-57.49463844923341
 31
0
  0
LINE
  8
1
 62
1
 10
-305.598163376783
 20
-42.99463844923333
 30
0
 11
-305.5981633767829
 21
-60.99463844923343
 31
0
  0
LINE
  8
1
 62
1
 10
-305.598163376783
 20
-25.99463844923333
 30
0
 11
-305.598163376783
 21
-7.994638449233328
 31
0
  0
LINE
  8
1
 62
1
 10
-305.598163376783
 20
-25.99463844923333
 30
0
 11
-305.598163376783
 21
-42.99463844923333
 31
0
  0
LINE
  8
1
 62
1
 10
-296.598163376783
 20
-26.49463844923333
 30
0
 11
-296.598163376783
 21
-42.49463844923333
 31
0
  0
LINE
  8
1
 62
1
 10
-292.598163376783
 20
-30.49463844923333
 30
0
 11
-292.598163376783
 21
-38.49463844923333
 31
0
  0
LINE
  8
1
 62
1
 10
-296.598163376783
 20
-26.49463844923333
 30
0
 11
-292.598163376783
 21
-26.49463844923333
 31
0
  0
LINE
  8
1
 62
1
 10
-296.598163376783
 20
-11.49463844923333
 30
0
 11
-296.598163376783
 21
-19.49463844923333
 31
0
  0
LINE
  8
1
 62
1
 10
-296.598163376783
 20
-7.994638449233328
 30
0
 11
-296.598163376783
 21
-11.49463844923333
 31
0
  0
LINE
  8
1
 62
7
 10
-305.598163376783
 20
-19.05734325899432
 30
0
 11
-305.598163376783
 21
-17.34463844923341
 31
0
  0
LINE
  8
1
 62
1
 10
-305.598163376783
 20
-11.64463844923331
 30
0
 11
-305.598163376783
 21
-17.34463844923341
 31
0
  0
LINE
  8
1
 62
7
 10
-305.598163376783
 20
-17.34463844923341
 30
0
 11
-305.598163376783
 21
-19.05734325899432
 31
0
  0
LINE
  8
1
 62
1
 10
-305.598163376783
 20
-17.34463844923341
 30
0
 11
-305.598163376783
 21
-25.99463844923333
 31
0
  0
LINE
  8
1
 62
1
 10
-305.598163376783
 20
-17.34463844923341
 30
0
 11
-305.598163376783
 21
-14.24174285012754
 31
0
  0
LINE
  8
1
 62
1
 10
-184.845261324886
 20
-57.99463844923323
 30
0
 11
-184.845261324886
 21
-57.34463844923325
 31
0
  0
LINE
  8
1
 62
1
 10
-184.845261324886
 20
-17.34463844923325
 30
0
 11
-184.845261324886
 21
-19.05734325899416
 31
0
  0
LINE
  8
1
 62
1
 10
-184.845261324886
 20
-57.34463844923325
 30
0
 11
-184.845261324886
 21
-56.86316299728204
 31
0
  0
LINE
  8
1
 62
1
 10
-184.845261324886
 20
-7.994638449233342
 30
0
 11
-184.845261324886
 21
-14.24174285012744
 31
0
  0
LINE
  8
1
 62
1
 10
-184.845261324886
 20
-17.34463844923325
 30
0
 11
-184.845261324886
 21
-11.64463844923326
 31
0
  0
LINE
  8
1
 62
1
 10
-184.845261324886
 20
-19.05734325899416
 30
0
 11
-184.845261324886
 21
-17.34463844923325
 31
0
  0
LINE
  8
1
 62
1
 10
-184.845261324886
 20
-14.24174285012744
 30
0
 11
-184.845261324886
 21
-17.34463844923325
 31
0
  0
LINE
  8
1
 62
1
 10
-184.845261324886
 20
-57.99463844923323
 30
0
 11
-184.845261324886
 21
-60.99463844923324
 31
0
  0
LINE
  8
1
 62
1
 10
-305.598163376783
 20
-25.99463844923333
 30
0
 11
-305.598163376783
 21
-26.29463844923334
 31
0
  0
LINE
  8
1
 62
1
 10
-305.598163376783
 20
-42.69463844923332
 30
0
 11
-305.598163376783
 21
-42.99463844923333
 31
0
  0
LINE
  8
1
 62
1
 10
-184.845261324886
 20
-43.49463844923334
 30
0
 11
-184.845261324886
 21
-57.34463844923325
 31
0
  0
LINE
  8
1
 62
1
 10
-184.845261324886
 20
-21.74463844923334
 30
0
 11
-184.845261324886
 21
-17.34463844923325
 31
0
  0
LINE
  8
1
 62
1
 10
-184.845261324886
 20
-25.49463844923334
 30
0
 11
-184.845261324886
 21
-21.74463844923334
 31
0
  0
LINE
  8
1
 62
1
 10
-305.598163376783
 20
-49.19463844923332
 30
0
 11
-305.598163376783
 21
-57.34463844923341
 31
0
  0
LINE
  8
1
 62
1
 10
-305.598163376783
 20
-49.19463844923332
 30
0
 11
-305.598163376783
 21
-42.99463844923333
 31
0
  0
LINE
  8
1
 62
1
 10
-304.598163376783
 20
-6.994638449233328
 30
0
 11
-296.598163376783
 21
-6.994638449233328
 31
0
  0
LINE
  8
1
 62
1
 10
-305.598163376783
 20
-26.29463844923334
 30
0
 11
-305.598163376783
 21
-25.99463844923333
 31
0
  0
LINE
  8
1
 62
1
 10
-305.598163376783
 20
-26.29463844923334
 30
0
 11
-305.8981797950773
 21
-26.29463844923334
 31
0
  0
LINE
  8
1
 62
1
 10
-305.598163376783
 20
-26.29463844923334
 30
0
 11
-305.8981797950773
 21
-26.29463844923334
 31
0
  0
LINE
  8
1
 62
1
 10
-296.598163376783
 20
-42.49463844923333
 30
0
 11
-295.098163376783
 21
-42.49463844923333
 31
0
  0
LINE
  8
1
 62
7
 10
-296.598163376783
 20
-61.99463844923341
 30
0
 11
-296.598163376783
 21
-60.99463844923341
 31
0
  0
LINE
  8
1
 62
1
 10
-304.5981633767829
 20
-61.99463844923342
 30
0
 11
-296.598163376783
 21
-61.99463844923341
 31
0
  0
LINE
  8
1
 62
1
 10
-305.598163376783
 20
-42.69463844923332
 30
0
 11
-305.8981633767829
 21
-42.69463844923332
 31
0
  0
LINE
  8
1
 62
1
 10
-305.598163376783
 20
-42.69463844923332
 30
0
 11
-305.598163376783
 21
-42.99463844923333
 31
0
  0
LINE
  8
1
 62
1
 10
-185.845261324886
 20
-6.994638449233342
 30
0
 11
-193.845261324886
 21
-6.994638449233342
 31
0
  0
LINE
  8
1
 62
1
 10
-184.845261324886
 20
-26.24463844923334
 30
0
 11
-184.845261324886
 21
-7.994638449233342
 31
0
  0
LINE
  8
1
 62
1
 10
-184.845261324886
 20
-42.74463844923334
 30
0
 11
-184.845261324886
 21
-60.99463844923324
 31
0
  0
LINE
  8
1
 62
1
 10
-193.845261324886
 20
-61.99463844923323
 30
0
 11
-193.845261324886
 21
-60.99463844923323
 31
0
  0
LINE
  8
1
 62
1
 10
-185.845261324886
 20
-61.99463844923324
 30
0
 11
-193.845261324886
 21
-61.99463844923323
 31
0
  0
LINE
  8
1
 62
1
 10
-292.598163376783
 20
-30.49463844923333
 30
0
 11
-270.8829086391841
 21
-30.49463844923333
 31
0
  0
LINE
  8
1
 62
1
 10
-193.845261324886
 20
-38.49463844923334
 30
0
 11
-213.174823690341
 21
-38.49463844923334
 31
0
  0
LINE
  8
1
 62
1
 10
-164.345261324886
 20
-11.99463844923334
 30
0
 11
-176.845261324886
 21
-11.99463844923334
 31
0
  0
LINE
  8
1
 62
1
 10
-176.845261324886
 20
-11.99463844923334
 30
0
 11
-176.845261324886
 21
-19.49463844923334
 31
0
  0
LINE
  8
1
 62
1
 10
-161.845261324886
 20
-54.49463844923334
 30
0
 11
-161.845261324886
 21
-50.98085096313334
 31
0
  0
LINE
  8
1
 62
1
 10
-176.845261324886
 20
-56.99463844923323
 30
0
 11
-172.4625228132974
 21
-56.99463844923323
 31
0
  0
LINE
  8
1
 62
1
 10
-295.098163376783
 20
-42.49463844923333
 30
0
 11
-296.598163376783
 21
-42.49463844923333
 31
0
  0
LINE
  8
1
 62
1
 10
-306.098163376783
 20
-42.71463844923341
 30
0
 11
-305.8981633767829
 21
-42.71463844923341
 31
0
  0
LINE
  8
1
 62
1
 10
-307.598163376783
 20
-26.27463844923336
 30
0
 11
-307.598163376783
 21
-41.49463844923333
 31
0
  0
LINE
  8
1
 62
1
 10
-292.598163376783
 20
-26.49463844923333
 30
0
 11
-292.598163376783
 21
-30.49463844923333
 31
0
  0
LINE
  8
1
 62
1
 10
-292.598163376783
 20
-42.49463844923333
 30
0
 11
-292.598163376783
 21
-38.49463844923333
 31
0
  0
LINE
  8
1
 62
1
 10
-292.598163376783
 20
-42.49463844923333
 30
0
 11
-295.098163376783
 21
-42.49463844923333
 31
0
  0
LINE
  8
1
 62
1
 10
-305.8981633767829
 20
-42.71463844923341
 30
0
 11
-305.8981633767829
 21
-42.69463844923332
 31
0
  0
LINE
  8
1
 62
1
 10
-307.598163376783
 20
-42.71463844923341
 30
0
 11
-306.098163376783
 21
-42.71463844923341
 31
0
  0
LINE
  8
1
 62
1
 10
-307.598163376783
 20
-26.27463844923336
 30
0
 11
-306.098163376783
 21
-26.27463844923336
 31
0
  0
LINE
  8
1
 62
1
 10
-307.598163376783
 20
-42.71463844923341
 30
0
 11
-307.598163376783
 21
-41.49463844923333
 31
0
  0
LINE
  8
1
 62
1
 10
-184.845261324886
 20
-42.74463844923334
 30
0
 11
-184.845261324886
 21
-42.49463844923334
 31
0
  0
LINE
  8
1
 62
1
 10
-184.845261324886
 20
-26.24463844923334
 30
0
 11
-184.845261324886
 21
-26.29608161040075
 31
0
  0
LINE
  8
1
 62
1
 10
-184.845261324886
 20
-25.49463844923334
 30
0
 11
-184.845261324886
 21
-26.24463844923334
 31
0
  0
LINE
  8
1
 62
1
 10
-183.845261324886
 20
-25.49463844923334
 30
0
 11
-184.845261324886
 21
-25.49463844923334
 31
0
  0
LINE
  8
1
 62
1
 10
-184.845261324886
 20
-43.49463844923334
 30
0
 11
-184.845261324886
 21
-42.74463844923334
 31
0
  0
LINE
  8
1
 62
1
 10
-183.845261324886
 20
-43.49463844923334
 30
0
 11
-184.845261324886
 21
-43.49463844923334
 31
0
  0
LINE
  8
1
 62
1
 10
-166.845261324886
 20
-56.99463844923323
 30
0
 11
-168.7752675200956
 21
-56.99463844923323
 31
0
  0
LINE
  8
1
 62
1
 10
-161.845261324886
 20
-16.99463844923334
 30
0
 11
-161.845261324886
 21
-36.95040952493323
 31
0
  0
LINE
  8
1
 62
1
 10
-173.5660450800044
 20
-11.99463844923334
 30
0
 11
-166.845261324886
 21
-11.99463844923334
 31
0
  0
LINE
  8
1
 62
1
 10
-183.845261324886
 20
-43.49463844923334
 30
0
 11
-183.845261324886
 21
-41.98463844923324
 31
0
  0
LINE
  8
1
 62
1
 10
-161.845261324886
 20
-36.95040952493323
 30
0
 11
-161.845261324886
 21
-14.49463844923334
 31
0
  0
LINE
  8
1
 62
1
 10
-161.845261324886
 20
-36.95040952493323
 30
0
 11
-161.845261324886
 21
-40.37438782375377
 31
0
  0
LINE
  8
1
 62
1
 10
-161.845261324886
 20
-40.37438782375377
 30
0
 11
-161.845261324886
 21
-36.95040952493323
 31
0
  0
LINE
  8
1
 62
1
 10
-161.845261324886
 20
-40.37438782375377
 30
0
 11
-161.845261324886
 21
-43.80593240063236
 31
0
  0
LINE
  8
1
 62
1
 10
-161.845261324886
 20
-43.80593240063236
 30
0
 11
-161.845261324886
 21
-40.37438782375377
 31
0
  0
LINE
  8
1
 62
1
 10
-161.845261324886
 20
-43.80593240063236
 30
0
 11
-161.845261324886
 21
-47.35526883795026
 31
0
  0
LINE
  8
1
 62
1
 10
-161.845261324886
 20
-47.35526883795026
 30
0
 11
-161.845261324886
 21
-43.80593240063236
 31
0
  0
LINE
  8
1
 62
1
 10
-161.845261324886
 20
-47.35526883795026
 30
0
 11
-161.845261324886
 21
-50.98085096313334
 31
0
  0
LINE
  8
1
 62
1
 10
-161.845261324886
 20
-50.98085096313334
 30
0
 11
-161.845261324886
 21
-47.35526883795026
 31
0
  0
LINE
  8
1
 62
1
 10
-161.845261324886
 20
-50.98085096313334
 30
0
 11
-161.845261324886
 21
-51.99463844923334
 31
0
  0
LINE
  8
1
 62
1
 10
-164.345261324886
 20
-56.99463844923323
 30
0
 11
-166.845261324886
 21
-56.99463844923323
 31
0
  0
LINE
  8
1
 62
1
 10
-168.7752675200956
 20
-56.99463844923323
 30
0
 11
-166.845261324886
 21
-56.99463844923323
 31
0
  0
LINE
  8
1
 62
1
 10
-168.7752675200956
 20
-56.99463844923323
 30
0
 11
-172.4625228132974
 21
-56.99463844923323
 31
0
  0
LINE
  8
1
 62
1
 10
-172.4625228132974
 20
-56.99463844923323
 30
0
 11
-168.7752675200956
 21
-56.99463844923323
 31
0
  0
LINE
  8
1
 62
1
 10
-172.4625228132974
 20
-56.99463844923323
 30
0
 11
-173.5660450800044
 21
-56.99463844923323
 31
0
  0
LINE
  8
1
 62
1
 10
-176.845261324886
 20
-56.99463844923323
 30
0
 11
-176.845261324886
 21
-49.49463844923334
 31
0
  0
LINE
  8
1
 62
1
 10
-183.845261324886
 20
-26.99463844923334
 30
0
 11
-183.845261324886
 21
-25.49463844923334
 31
0
  0
LINE
  8
1
 62
1
 10
-306.098163376783
 20
-42.71463844923341
 30
0
 11
-305.8981633767829
 21
-42.71463844923341
 31
0
  0
LINE
  8
1
 62
1
 10
-305.8981633767829
 20
-42.71463844923341
 30
0
 11
-305.8981633767829
 21
-42.69463844923332
 31
0
  0
LINE
  8
1
 62
1
 10
-305.8981633767829
 20
-42.69463844923332
 30
0
 11
-305.598163376783
 21
-42.69463844923332
 31
0
  0
LINE
  8
1
 62
1
 10
-305.8981797950773
 20
-26.29463844923334
 30
0
 11
-305.8981633767829
 21
-26.27463844923336
 31
0
  0
LINE
  8
1
 62
1
 10
-305.8981633767829
 20
-26.27463844923336
 30
0
 11
-306.098163376783
 21
-26.27463844923336
 31
0
  0
LINE
  8
1
 62
1
 10
-306.098163376783
 20
-26.27463844923336
 30
0
 11
-305.8981633767829
 21
-26.27463844923336
 31
0
  0
LINE
  8
1
 62
1
 10
-179.345261324886
 20
-21.99463844923334
 30
0
 11
-182.9074391513772
 21
-21.99463844923334
 31
0
  0
LINE
  8
1
 62
1
 10
-182.9074391513772
 20
-21.99463844923334
 30
0
 11
-183.845261324886
 21
-25.49463844923334
 31
0
  0
LINE
  8
1
 62
1
 10
-296.598163376783
 20
-7.994638449233328
 30
0
 11
-296.598163376783
 21
-6.994638449233328
 31
0
  0
LINE
  8
1
 62
1
 10
-296.598163376783
 20
-26.49463844923333
 30
0
 11
-296.598163376783
 21
-19.49463844923333
 31
0
  0
LINE
  8
1
 62
1
 10
-291.098163376783
 20
-11.68670268143803
 30
0
 11
-296.598163376783
 21
-11.49463844923333
 31
0
  0
LINE
  8
1
 62
1
 10
-291.098163376783
 20
-19.30257421702874
 30
0
 11
-291.098163376783
 21
-11.68670268143803
 31
0
  0
LINE
  8
1
 62
1
 10
-296.598163376783
 20
-19.49463844923333
 30
0
 11
-291.098163376783
 21
-19.30257421702874
 31
0
  0
LINE
  8
1
 62
1
 10
-296.598163376783
 20
-60.94463844923343
 30
0
 11
-296.598163376783
 21
-57.49463844923341
 31
0
  0
LINE
  8
1
 62
1
 10
-296.598163376783
 20
-57.49463844923341
 30
0
 11
-291.098163376783
 21
-57.30257421702871
 31
0
  0
LINE
  8
1
 62
1
 10
-291.098163376783
 20
-49.68670268143803
 30
0
 11
-291.098163376783
 21
-57.30257421702871
 31
0
  0
LINE
  8
1
 62
1
 10
-291.098163376783
 20
-49.68670268143803
 30
0
 11
-296.598163376783
 21
-49.49463844923333
 31
0
  0
LINE
  8
1
 62
1
 10
-296.598163376783
 20
-42.49463844923333
 30
0
 11
-296.598163376783
 21
-49.49463844923333
 31
0
  0
LINE
  8
1
 62
2
  6
DASHDOT
 10
-309.66082328454
 20
-34.49463844923333
 30
0
 11
-268.950216036383
 21
-34.49463844923333
 31
0
  0
LINE
  8
1
 62
1
 10
-193.845261324886
 20
-11.49463844923334
 30
0
 11
-199.345261324886
 21
-11.68670268143787
 31
0
  0
LINE
  8
1
 62
1
 10
-199.345261324886
 20
-11.68670268143787
 30
0
 11
-199.345261324886
 21
-13.49463844923334
 31
0
  0
LINE
  8
1
 62
1
 10
-199.345261324886
 20
-19.30257421702864
 30
0
 11
-193.845261324886
 21
-19.49463844923334
 31
0
  0
LINE
  8
1
 62
1
 10
-193.845261324886
 20
-57.49463844923323
 30
0
 11
-193.845261324886
 21
-60.94463844923326
 31
0
  0
LINE
  8
1
 62
1
 10
-199.345261324886
 20
-57.30257421702864
 30
0
 11
-193.845261324886
 21
-57.49463844923323
 31
0
  0
LINE
  8
1
 62
1
 10
-193.845261324886
 20
-49.49463844923334
 30
0
 11
-199.345261324886
 21
-49.68670268143787
 31
0
  0
LINE
  8
1
 62
2
  6
DASHDOT
 10
-190.977217653449
 20
-53.49463844923334
 30
0
 11
-200.5658816657939
 21
-53.49463844923334
 31
0
  0
LINE
  8
1
 62
2
  6
DASHDOT
 10
-190.6642711116391
 20
-15.49463844923334
 30
0
 11
-201.49086362082
 21
-15.49463844923334
 31
0
  0
LINE
  8
1
 62
1
 10
-199.345261324886
 20
-55.99463844923323
 30
0
 11
-199.345261324886
 21
-57.30257421702864
 31
0
  0
LINE
  8
1
 62
1
 10
-183.845261324886
 20
-43.49463844923334
 30
0
 11
-182.9074391513772
 21
-46.99463844923334
 31
0
  0
LINE
  8
1
 62
1
 10
-182.9074391513772
 20
-46.99463844923334
 30
0
 11
-179.345261324886
 21
-46.99463844923334
 31
0
  0
LINE
  8
1
 62
1
 10
-183.845261324886
 20
-43.49463844923334
 30
0
 11
-182.9074391513772
 21
-46.99463844923334
 31
0
  0
LINE
  8
1
 62
1
 10
-181.9074391513772
 20
-43.93826702491233
 30
0
 11
-181.9074391513772
 21
-40.65018922096484
 31
0
  0
LINE
  8
1
 62
1
 10
-181.9074391513772
 20
-27.21393720836388
 30
0
 11
-181.9074391513772
 21
-25.05100987355424
 31
0
  0
LINE
  8
1
 62
1
 10
-183.845261324886
 20
-41.98463844923324
 30
0
 11
-183.845261324886
 21
-26.99463844923334
 31
0
  0
LINE
  8
1
 62
1
 10
-184.845261324886
 20
-42.74463844923334
 30
0
 11
-184.845261324886
 21
-26.29608161040075
 31
0
  0
LINE
  8
1
 62
1
 10
-184.845261324886
 20
-26.29608161040075
 30
0
 11
-184.845261324886
 21
-26.49463844923334
 31
0
  0
LINE
  8
1
 62
1
 10
-181.9074391513772
 20
-40.65018922096484
 30
0
 11
-181.9074391513772
 21
-27.21393720836388
 31
0
  0
LINE
  8
1
 62
1
 10
-193.845261324886
 20
-57.49463844923323
 30
0
 11
-193.845261324886
 21
-49.49463844923334
 31
0
  0
LINE
  8
1
 62
1
 10
-193.845261324886
 20
-49.49463844923334
 30
0
 11
-193.845261324886
 21
-38.49463844923334
 31
0
  0
LINE
  8
1
 62
1
 10
-193.845261324886
 20
-19.49463844923334
 30
0
 11
-193.845261324886
 21
-11.49463844923334
 31
0
  0
LINE
  8
1
 62
1
 10
-193.845261324886
 20
-6.994638449233342
 30
0
 11
-193.845261324886
 21
-11.49463844923334
 31
0
  0
LINE
  8
1
 62
1
 10
-271.3227886304201
 20
-38.49463844923333
 30
0
 11
-292.559426975894
 21
-38.49463844923334
 31
0
  0
LINE
  8
1
 62
2
  6
DASHDOT
 10
-216.0340436333701
 20
-34.49463844923326
 30
0
 11
-158.9665814276422
 21
-34.49463844923334
 31
0
  0
LINE
  8
1
 62
1
 10
-199.345261324886
 20
-55.99463844923323
 30
0
 11
-199.345261324886
 21
-49.68670268143787
 31
0
  0
LINE
  8
1
 62
1
 10
-176.845261324886
 20
-49.49463844923334
 30
0
 11
-176.845261324886
 21
-20.37754695744004
 31
0
  0
LINE
  8
1
 62
1
 10
-98.48230681355832
 20
-22.45310339818511
 30
0
 11
-100.7766125589625
 21
-25.72971157534106
 31
0
  0
LINE
  8
1
 62
1
 10
-113.0511482968749
 20
-25.72971157534106
 30
0
 11
-115.345454042279
 21
-22.45310339818511
 31
0
  0
LINE
  8
1
 62
1
 10
-105.9138804279187
 20
-41.49463844923331
 30
0
 11
-107.9138804279187
 21
-41.49463844923331
 31
0
  0
LINE
  8
1
 62
1
 10
-105.9138804279187
 20
-27.49463844923331
 30
0
 11
-105.9138804279187
 21
-41.49463844923331
 31
0
  0
LINE
  8
1
 62
1
 10
-107.9138804279187
 20
-27.49463844923331
 30
0
 11
-105.9138804279187
 21
-27.49463844923331
 31
0
  0
LINE
  8
1
 62
1
 10
-107.9138804279187
 20
-41.49463844923331
 30
0
 11
-107.9138804279187
 21
-27.49463844923331
 31
0
  0
LINE
  8
1
 62
2
  6
DASHDOT
 10
-106.9138804279187
 20
-26.27463844923327
 30
0
 11
-106.9138804279187
 21
-5.494638449233221
 31
0
  0
LINE
  8
1
 62
2
  6
DASHDOT
 10
-125.9138804279187
 20
-34.49463844923329
 30
0
 11
-125.9138804279187
 21
-31.56808870161892
 31
0
  0
LINE
  8
1
 62
2
  6
DASHDOT
 10
-87.91388042791863
 20
-31.73417935775128
 30
0
 11
-87.91388042791863
 21
-37.59661062056659
 31
0
  0
LINE
  8
1
 62
2
  6
DASHDOT
 10
-125.9138804279187
 20
-34.49463844923329
 30
0
 11
-79.4138804279187
 21
-34.49463844923329
 31
0
  0
LINE
  8
1
 62
2
  6
DASHDOT
 10
-125.9138804279187
 20
-34.49463844923329
 30
0
 11
-125.9138804279187
 21
-37.36211337005388
 31
0
  0
LINE
  8
1
 62
2
  6
DASHDOT
 10
-329.315023460459
 20
-34.4946384492333
 30
0
 11
-329.315023460459
 21
-37.42118819684763
 31
0
  0
LINE
  8
1
 62
2
  6
DASHDOT
 10
-367.315023460459
 20
-37.2550975407153
 30
0
 11
-367.315023460459
 21
-31.39266627789997
 31
0
  0
LINE
  8
1
 62
2
  6
DASHDOT
 10
-367.3150234604591
 20
-34.49463844923329
 30
0
 11
-320.8150234604591
 21
-34.49463844923329
 31
0
  0
LINE
  8
1
 62
2
  6
DASHDOT
 10
-329.315023460459
 20
-34.4946384492333
 30
0
 11
-329.315023460459
 21
-31.6271635284127
 31
0
  0
LINE
  8
1
 62
1
 10
-343.815023460459
 20
-22.83273465954264
 30
0
 11
-343.815023460459
 21
-46.15654223892384
 31
0
  0
LINE
  8
1
 62
1
 10
-343.815023460459
 20
-46.15654223892384
 30
0
 11
-343.815023460459
 21
-54.4946384492333
 31
0
  0
LINE
  8
1
 62
1
 10
-352.815023460459
 20
-46.15654223892384
 30
0
 11
-352.815023460459
 21
-22.83273465954264
 31
0
  0
LINE
  8
1
 62
1
 10
-352.815023460459
 20
-22.83273465954264
 30
0
 11
-352.8150234604591
 21
-14.4946384492333
 31
0
  0
LINE
  8
1
 62
1
 10
-343.815023460459
 20
-14.4946384492333
 30
0
 11
-343.815023460459
 21
-22.83273465954264
 31
0
  0
LINE
  8
1
 62
1
 10
-350.3150234604591
 20
-11.9946384492333
 30
0
 11
-346.315023460459
 21
-11.9946384492333
 31
0
  0
LINE
  8
1
 62
1
 10
-352.815023460459
 20
-54.4946384492333
 30
0
 11
-352.815023460459
 21
-46.15654223892384
 31
0
  0
LINE
  8
1
 62
1
 10
-346.315023460459
 20
-56.9946384492333
 30
0
 11
-350.315023460459
 21
-56.9946384492333
 31
0
  0
LINE
  8
1
 62
7
 10
-386.7614220045728
 20
44.86385120645227
 30
0
 11
-69.76142200457274
 21
44.86385120645225
 31
0
  0
LINE
  8
1
 62
7
 10
-386.7614220045728
 20
-114.1361487935477
 30
0
 11
-69.76142200457274
 21
-114.1361487935477
 31
0
  0
LINE
  8
1
 62
7
 10
-69.76142200457274
 20
-114.1361487935477
 30
0
 11
-69.76142200457274
 21
44.86385120645225
 31
0
  0
LINE
  8
1
 62
7
 10
-386.7614220045728
 20
44.86385120645227
 30
0
 11
-386.7614220045728
 21
-114.1361487935477
 31
0
  0
LINE
  8
1
 62
2
  6
DASHDOT
 10
-377.3150234604591
 20
-34.49463844923329
 30
0
 11
-367.3150234604591
 21
-34.49463844923329
 31
0
  0
LINE
  8
1
 62
2
  6
DASHDOT
 10
-348.3150234604591
 20
-63.49463844923329
 30
0
 11
-348.3150234604591
 21
-5.494638449233293
 31
0
  0
LINE
  8
1
 62
2
  6
DASHDOT
 10
-106.9138804279187
 20
-63.49463844923336
 30
0
 11
-106.9138804279187
 21
-26.27463844923327
 31
0
  0
LINE
  8
1
 62
2
  6
DASHDOT
 10
-135.9138804279188
 20
-34.49463844923329
 30
0
 11
-125.9138804279187
 21
-34.49463844923329
 31
0
  0
LINE
  8
1
 62
2
  6
DASHDOT
 10
-288.639287135582
 20
-15.49463844923333
 30
0
 11
-299.8679547792267
 21
-15.49463844923333
 31
0
  0
LINE
  8
1
 62
2
  6
DASHDOT
 10
-288.924842660729
 20
-53.49463844923341
 30
0
 11
-300.598163376783
 21
-53.49463844923341
 31
0
  0
LINE
  8
1
 62
2
  6
DASHDOT
 10
-79.4138804279187
 20
-34.49463844923329
 30
0
 11
-77.91388042791861
 21
-34.49463844923329
 31
0
  0
LINE
  8
1
 62
2
  6
DASHDOT
 10
-320.8150234604591
 20
-34.49463844923329
 30
0
 11
-319.3150234604591
 21
-34.49463844923329
 31
0
  0
ARC
  8
1
 62
1
 10
-178.8269449758898
 20
-43.93826702491233
 30
0
 40
3.080494175487388
 50
180
 51
260.313476252314
  0
ARC
  8
1
 62
1
 10
-178.8269449758898
 20
-25.05100987355424
 30
0
 40
3.080494175487232
 50
99.68652374768585
 51
180
  0
ARC
  8
1
 62
1
 10
-106.9138804279187
 20
-34.49463844923329
 30
0
 40
10.70000000000002
 50
55.00000000000003
 51
125
  0
ARC
  8
1
 62
1
 10
-106.9138804279187
 20
-34.49463844923329
 30
0
 40
14.7
 50
55.00000000000002
 51
124.9999999999998
  0
ARC
  8
1
 62
1
 10
-348.3150234604591
 20
-34.49463844923329
 30
0
 40
12.49999999999999
 50
291.1001960240936
 51
68.89980397590658
  0
ARC
  8
1
 62
1
 10
-348.3150234604591
 20
-34.49463844923329
 30
0
 40
12.50000000000001
 50
111.1001960240925
 51
248.8998039759074
  0
ARC
  8
1
 62
1
 10
-106.9138804279187
 20
-34.49463844923329
 30
0
 40
27.5
 50
0
 51
180
  0
ARC
  8
1
 62
1
 10
-106.9138804279187
 20
-34.49463844923329
 30
0
 40
27.50000000000001
 50
180
 51
0
  0
ARC
  8
1
 62
1
 10
-348.3150234604591
 20
-34.49463844923329
 30
0
 40
27.5
 50
0
 51
180
  0
ARC
  8
1
 62
1
 10
-348.3150234604591
 20
-34.49463844923329
 30
0
 40
27.5
 50
180
 51
0
  0
CIRCLE
  8
1
 62
1
 10
-106.9138804279187
 20
-34.49463844923329
 30
0
 40
8.220000000000024
  0
POLYLINE
  8
1
 62
2
 66
1
  0
VERTEX
  8
1
 10
-270.8829086391841
 20
-30.49463844923333
 30
0
 42
0.0005442567365519478
  0
VERTEX
  8
1
 10
-271.0130691388208
 20
-30.92152840114615
 30
0
 42
0.001631571376023778
  0
VERTEX
  8
1
 10
-271.1414419194289
 20
-31.34921788263826
 30
0
 42
0.002712653644019111
  0
VERTEX
  8
1
 10
-271.2662392619801
 20
-31.77850642328897
 30
0
 42
0.00378394660117548
  0
VERTEX
  8
1
 10
-271.3856734474456
 20
-32.21019355267758
 30
0
 42
0.004838160290756653
  0
VERTEX
  8
1
 10
-271.497956756797
 20
-32.64507880038338
 30
0
 42
0.007712272712049905
  0
VERTEX
  8
1
 10
-271.6254070829641
 20
-33.19542104335845
 30
0
 42
0.01074206031269571
  0
VERTEX
  8
1
 10
-271.7324997396827
 20
-33.75027932633883
 30
0
 42
0.01297041921782315
  0
VERTEX
  8
1
 10
-271.8129233928007
 20
-34.30788768395279
 30
0
 42
0.01628750346912997
  0
VERTEX
  8
1
 10
-271.8603667081656
 20
-34.86648015082857
 30
0
 42
0.01877500854423041
  0
VERTEX
  8
1
 10
-271.8685183516251
 20
-35.42429076159443
 30
0
 42
0.0220306555039022
  0
VERTEX
  8
1
 10
-271.8270681856405
 20
-36.04214243484023
 30
0
 42
0.01437447484658234
  0
VERTEX
  8
1
 10
-271.7404875008182
 20
-36.65747268427401
 30
0
 42
0.01265890461696676
  0
VERTEX
  8
1
 10
-271.6200589268679
 20
-37.27091186584878
 30
0
 42
0.00514977533305994
  0
VERTEX
  8
1
 10
-271.4770650934987
 20
-37.88309033551756
 30
0
 42
0.003674375458763252
  0
VERTEX
  8
1
 10
-271.3227886304201
 20
-38.49463844923333
 30
0
  0
SEQEND
  8
1
  0
POLYLINE
  8
1
 62
2
 66
1
  0
VERTEX
  8
1
 10
-213.174823690341
 20
-38.49463844923334
 30
0
 42
0.0004744863399143163
  0
VERTEX
  8
1
 10
-213.081091548345
 20
-38.12293572419337
 30
0
 42
0.00142112819194444
  0
VERTEX
  8
1
 10
-212.9886554998831
 20
-37.75042175736819
 30
0
 42
0.002356002917776378
  0
VERTEX
  8
1
 10
-212.8988116384893
 20
-37.37628530697258
 30
0
 42
0.003273911663671287
  0
VERTEX
  8
1
 10
-212.8128560576977
 20
-36.99971513122133
 30
0
 42
0.004164419173157636
  0
VERTEX
  8
1
 10
-212.7320848510423
 20
-36.61989998832924
 30
0
 42
0.006834710817673751
  0
VERTEX
  8
1
 10
-212.651589679346
 20
-36.19572729182868
 30
0
 42
0.01309291920522402
  0
VERTEX
  8
1
 10
-212.5880841437891
 20
-35.76885501077079
 30
0
 42
0.01704421774407171
  0
VERTEX
  8
1
 10
-212.5506344734274
 20
-35.34154292405358
 30
0
 42
0.02393524034481024
  0
VERTEX
  8
1
 10
-212.5483068973165
 20
-34.91605081057507
 30
0
 42
0.05208666814032138
  0
VERTEX
  8
1
 10
-212.6611910929266
 20
-34.15087360633552
 30
0
 42
0.007461018968411695
  0
VERTEX
  8
1
 10
-212.7539017597962
 20
-33.80988609017312
 30
0
 42
0.002620591504401929
  0
VERTEX
  8
1
 10
-212.8536758644176
 20
-33.47013069173827
 30
0
 42
-0.01038605892534101
  0
VERTEX
  8
1
 10
-212.9458896260874
 20
-33.13006220202323
 30
0
 42
-0.02107605349878658
  0
VERTEX
  8
1
 10
-213.0159192641022
 20
-32.78813541202023
 30
0
 42
-0.03135181318330315
  0
VERTEX
  8
1
 10
-213.0572426595591
 20
-32.3364195294604
 30
0
 42
-0.02408044390081867
  0
VERTEX
  8
1
 10
-213.0482163824196
 20
-31.88004797356888
 30
0
 42
-0.01677315494710837
  0
VERTEX
  8
1
 10
-213.0014278508329
 20
-31.42018466267857
 30
0
 42
-0.009827613735844601
  0
VERTEX
  8
1
 10
-212.929464482948
 20
-30.95799351512242
 30
0
 42
-0.00323085551862198
  0
VERTEX
  8
1
 10
-212.844913696914
 20
-30.49463844923334
 30
0
  0
SEQEND
  8
1
  0
ARC
  8
1
 62
1
 10
-164.345261324886
 20
-14.49463844923334
 30
0
 40
2.5
 50
0
 51
90
  0
ARC
  8
1
 62
1
 10
-164.345261324886
 20
-54.49463844923334
 30
0
 40
2.499999999999886
 50
270
 51
0
  0
ARC
  8
1
 62
1
 10
-179.345261324886
 20
-19.49463844923334
 30
0
 40
2.5
 50
270
 51
0
  0
ARC
  8
1
 62
1
 10
-179.345261324886
 20
-49.49463844923334
 30
0
 40
2.5
 50
0
 51
90
  0
ARC
  8
1
 62
1
 10
-350.315023460459
 20
-54.4946384492333
 30
0
 40
2.5
 50
180
 51
270
  0
ARC
  8
1
 62
1
 10
-346.315023460459
 20
-54.4946384492333
 30
0
 40
2.5
 50
270
 51
0
  0
ARC
  8
1
 62
1
 10
-350.3150234604591
 20
-14.4946384492333
 30
0
 40
2.5
 50
90
 51
180
  0
ARC
  8
1
 62
1
 10
-346.315023460459
 20
-14.4946384492333
 30
0
 40
2.5
 50
0
 51
90
  0
ARC
  8
1
 62
1
 10
-304.598163376783
 20
-7.994638449233328
 30
0
 40
1
 50
90
 51
180
  0
ARC
  8
1
 62
1
 10
-304.5981633767829
 20
-60.99463844923342
 30
0
 40
1
 50
180
 51
270
  0
ARC
  8
1
 62
1
 10
-185.845261324886
 20
-7.994638449233342
 30
0
 40
1
 50
0
 51
90
  0
ARC
  8
1
 62
1
 10
-185.845261324886
 20
-60.99463844923324
 30
0
 40
1
 50
270
 51
0
  0
TEXT
  8
1
 62
2
 10
-128.310349298971
 20
-107.419045098673
 30
0
 40
2.5
  1
gez. am 29.06.2010 Schar.
 41
0.9
 51
15
  0
TEXT
  8
1
 62
1
 10
-136.884008416968
 20
-100.866244145157
 30
0
 40
5
  1
901416-06-0-000
 41
0.9
 51
15
  0
TEXT
  8
1
 62
1
 10
-159.818811754275
 20
-90.10092829295181
 30
0
 40
5
  1
ER - WC-Grt. PR 7122
 41
0.9
 51
15
  0
DIMENSION
  8
1
  6
CONTINUOUS
 62
2
  2
*D0
  3
DMST_1
 10
-211.779185188782
 20
-11.49463844923334
 30
0
 11
-217.779185188782
 21
1.130353634074513
 31
0
 12
0
 22
0
 32
0
 70
0
  1
%%c<>
 13
-193.845261324886
 23
-19.49463844923334
 33
0
 14
-193.845261324886
 24
-11.49463844923334
 34
0
 50
90
 53
0
  0
DIMENSION
  8
1
  6
CONTINUOUS
 62
2
  2
*D1
  3
DMST_1
 10
-222.809899047947
 20
-15.49463844923334
 30
0
 11
-228.809899047947
 21
-33.688334460507
 31
0
 12
0
 22
0
 32
0
 70
0
 13
-200.5658816657939
 23
-53.49463844923334
 33
0
 14
-201.49086362082
 24
-15.49463844923334
 34
0
 50
90
 53
0
  0
DIMENSION
  8
1
  6
CONTINUOUS
 62
2
  2
*D2
  3
DMST_1
 10
-305.5981633767829
 20
-77.1399081168593
 30
0
 11
-312.671708645739
 21
-71.1399081168593
 31
0
 12
0
 22
0
 32
0
 70
0
 13
-296.598163376783
 23
-60.94463844923343
 33
0
 14
-305.5981633767829
 24
-60.99463844923343
 34
0
 53
0
  0
DIMENSION
  8
1
  6
CONTINUOUS
 62
2
  2
*D3
  3
DMST_1
 10
-292.598163376783
 20
-77.26470101987999
 30
0
 11
-286.465199011387
 21
-71.26470101987999
 31
0
 12
0
 22
0
 32
0
 70
0
 13
-296.598163376783
 23
-61.99463844923341
 33
0
 14
-292.598163376783
 24
-42.49463844923333
 34
0
 53
0
  0
DIMENSION
  8
1
  6
CONTINUOUS
 62
2
  2
*D4
  3
DMST_1
 10
-262.808226693789
 20
-26.49463844923333
 30
0
 11
-268.808226693789
 21
-8.55749071180078
 31
0
 12
0
 22
0
 32
0
 70
0
  1
%%c<>
 13
-295.098163376783
 23
-42.49463844923333
 33
0
 14
-292.598163376783
 24
-26.49463844923333
 34
0
 50
90
 53
0
  0
DIMENSION
  8
1
  6
CONTINUOUS
 62
2
  2
*D5
  3
DMST_2
 10
-320.8150234604591
 20
3.64954914695571
 30
0
 11
-345.691666093055
 21
9.64954914695571
 31
0
 12
0
 22
0
 32
0
 70
0
  1
%%c<>
 13
-375.8150234604591
 23
-34.49463844923329
 33
0
 14
-320.8150234604591
 24
-34.49463844923329
 34
0
 53
0
  0
DIMENSION
  8
1
  6
CONTINUOUS
 62
2
  2
*D6
  3
DMST_2
 10
-79.41388042791868
 20
3.64954914695571
 30
0
 11
-105.511574559874
 21
9.64954914695571
 31
0
 12
0
 22
0
 32
0
 70
0
  1
%%c<>
 13
-134.4138804279187
 23
-34.49463844923329
 33
0
 14
-79.4138804279187
 24
-34.49463844923329
 34
0
 53
0
  0
DIMENSION
  8
1
  6
CONTINUOUS
 62
2
  2
*D7
  3
DMST_1
 10
-199.345261324886
 20
-77.3359785264412
 30
0
 11
-211.324045226049
 21
-70.5359785264412
 31
0
 12
0
 22
0
 32
0
 70
0
 13
-193.845261324886
 23
-57.49463844923323
 33
0
 14
-199.345261324886
 24
-55.99463844923323
 34
0
 53
0
  0
DIMENSION
  8
1
  6
CONTINUOUS
 62
2
  2
*D8
  3
DMST_1
 10
-184.845261324886
 20
-77.330481303719
 30
0
 11
-175.798421042056
 21
-71.330481303719
 31
0
 12
0
 22
0
 32
0
 70
0
 13
-193.845261324886
 23
-57.49463844923323
 33
0
 14
-184.845261324886
 24
-57.34463844923325
 34
0
 53
0
  0
ENDSEC
  0
EOF
