  0
SECTION
  2
HEADER
  9
$ACADVER
  1
AC1018
  9
$ACADMAINTVER
 70
   104
  9
$DWGCODEPAGE
  3
ANSI_1252
  9
$INSBASE
 10
0.0
 20
0.0
 30
0.0
  9
$EXTMIN
 10
1108.949283867443
 20
35.58620719906605
 30
0.0
  9
$EXTMAX
 10
1979.1050668731
 20
629.5862071990661
 30
0.0
  9
$LIMMIN
 10
97.56622002158383
 20
123.8088583208174
  9
$LIMMAX
 10
477.5662200215838
 20
577.8288583208174
  9
$ORTHOMODE
 70
     0
  9
$REGENMODE
 70
     1
  9
$FILLMODE
 70
     1
  9
$QTEXTMODE
 70
     0
  9
$MIRRTEXT
 70
     1
  9
$LTSCALE
 40
2.0
  9
$ATTMODE
 70
     1
  9
$TEXTSIZE
 40
5.0
  9
$TRACEWID
 40
1.0
  9
$TEXTSTYLE
  7
STANDARD
  9
$CLAYER
  8
AM_0
  9
$CELTYPE
  6
ByLayer
  9
$CECOLOR
 62
   256
  9
$CELTSCALE
 40
1.0
  9
$DISPSILH
 70
     0
  9
$DIMSCALE
 40
1.0
  9
$DIMASZ
 40
2.5
  9
$DIMEXO
 40
0.0
  9
$DIMDLI
 40
10.0
  9
$DIMRND
 40
0.0
  9
$DIMDLE
 40
0.0
  9
$DIMEXE
 40
1.0
  9
$DIMTP
 40
0.1
  9
$DIMTM
 40
0.1
  9
$DIMTXT
 40
3.5
  9
$DIMCEN
 40
0.0
  9
$DIMTSZ
 40
0.0
  9
$DIMTOL
 70
     0
  9
$DIMLIM
 70
     0
  9
$DIMTIH
 70
     0
  9
$DIMTOH
 70
     0
  9
$DIMSE1
 70
     0
  9
$DIMSE2
 70
     0
  9
$DIMTAD
 70
     1
  9
$DIMZIN
 70
     8
  9
$DIMBLK
  1

  9
$DIMASO
 70
     1
  9
$DIMSHO
 70
     1
  9
$DIMPOST
  1

  9
$DIMAPOST
  1
"
  9
$DIMALT
 70
     0
  9
$DIMALTD
 70
     2
  9
$DIMALTF
 40
0.0393701
  9
$DIMLFAC
 40
1.0
  9
$DIMTOFL
 70
     1
  9
$DIMTVP
 40
0.0
  9
$DIMTIX
 70
     0
  9
$DIMSOXD
 70
     0
  9
$DIMSAH
 70
     0
  9
$DIMBLK1
  1

  9
$DIMBLK2
  1

  9
$DIMSTYLE
  2
AM_ISO
  9
$DIMCLRD
 70
   256
  9
$DIMCLRE
 70
   256
  9
$DIMCLRT
 70
     3
  9
$DIMTFAC
 40
0.71
  9
$DIMGAP
 40
1.5
  9
$DIMJUST
 70
     0
  9
$DIMSD1
 70
     0
  9
$DIMSD2
 70
     0
  9
$DIMTOLJ
 70
     0
  9
$DIMTZIN
 70
     0
  9
$DIMALTZ
 70
     0
  9
$DIMALTTZ
 70
     0
  9
$DIMUPT
 70
     0
  9
$DIMDEC
 70
     2
  9
$DIMTDEC
 70
     2
  9
$DIMALTU
 70
     2
  9
$DIMALTTD
 70
     2
  9
$DIMTXSTY
  7
STANDARD
  9
$DIMAUNIT
 70
     0
  9
$DIMADEC
 70
     0
  9
$DIMALTRND
 40
0.0
  9
$DIMAZIN
 70
     2
  9
$DIMDSEP
 70
    46
  9
$DIMATFIT
 70
     3
  9
$DIMFRAC
 70
     0
  9
$DIMLDRBLK
  1

  9
$DIMLUNIT
 70
     2
  9
$DIMLWD
 70
    -1
  9
$DIMLWE
 70
    -1
  9
$DIMTMOVE
 70
     0
  9
$LUNITS
 70
     2
  9
$LUPREC
 70
     2
  9
$SKETCHINC
 40
1.0
  9
$FILLETRAD
 40
5.0
  9
$AUNITS
 70
     0
  9
$AUPREC
 70
     0
  9
$MENU
  1
.
  9
$ELEVATION
 40
0.0
  9
$PELEVATION
 40
0.0
  9
$THICKNESS
 40
0.0
  9
$LIMCHECK
 70
     0
  9
$CHAMFERA
 40
5.0
  9
$CHAMFERB
 40
5.0
  9
$CHAMFERC
 40
20.0
  9
$CHAMFERD
 40
0.0
  9
$SKPOLY
 70
     0
  9
$TDCREATE
 40
2451778.520669884
  9
$TDUCREATE
 40
2451778.437336551
  9
$TDUPDATE
 40
2452991.691251898
  9
$TDUUPDATE
 40
2452991.607918565
  9
$TDINDWG
 40
1.2348860995
  9
$TDUSRTIMER
 40
1.2348859838
  9
$USRTIMER
 70
     1
  9
$ANGBASE
 50
0.0
  9
$ANGDIR
 70
     0
  9
$PDMODE
 70
     0
  9
$PDSIZE
 40
0.0
  9
$PLINEWID
 40
0.0
  9
$SPLFRAME
 70
     0
  9
$SPLINETYPE
 70
     6
  9
$SPLINESEGS
 70
     8
  9
$HANDSEED
  5
301
  9
$SURFTAB1
 70
     6
  9
$SURFTAB2
 70
     6
  9
$SURFTYPE
 70
     6
  9
$SURFU
 70
     6
  9
$SURFV
 70
     6
  9
$UCSBASE
  2

  9
$UCSNAME
  2

  9
$UCSORG
 10
0.0
 20
0.0
 30
0.0
  9
$UCSXDIR
 10
1.0
 20
0.0
 30
0.0
  9
$UCSYDIR
 10
0.0
 20
1.0
 30
0.0
  9
$UCSORTHOREF
  2

  9
$UCSORTHOVIEW
 70
     0
  9
$UCSORGTOP
 10
0.0
 20
0.0
 30
0.0
  9
$UCSORGBOTTOM
 10
0.0
 20
0.0
 30
0.0
  9
$UCSORGLEFT
 10
0.0
 20
0.0
 30
0.0
  9
$UCSORGRIGHT
 10
0.0
 20
0.0
 30
0.0
  9
$UCSORGFRONT
 10
0.0
 20
0.0
 30
0.0
  9
$UCSORGBACK
 10
0.0
 20
0.0
 30
0.0
  9
$PUCSBASE
  2

  9
$PUCSNAME
  2

  9
$PUCSORG
 10
0.0
 20
0.0
 30
0.0
  9
$PUCSXDIR
 10
1.0
 20
0.0
 30
0.0
  9
$PUCSYDIR
 10
0.0
 20
1.0
 30
0.0
  9
$PUCSORTHOREF
  2

  9
$PUCSORTHOVIEW
 70
     0
  9
$PUCSORGTOP
 10
0.0
 20
0.0
 30
0.0
  9
$PUCSORGBOTTOM
 10
0.0
 20
0.0
 30
0.0
  9
$PUCSORGLEFT
 10
0.0
 20
0.0
 30
0.0
  9
$PUCSORGRIGHT
 10
0.0
 20
0.0
 30
0.0
  9
$PUCSORGFRONT
 10
0.0
 20
0.0
 30
0.0
  9
$PUCSORGBACK
 10
0.0
 20
0.0
 30
0.0
  9
$USERI1
 70
     0
  9
$USERI2
 70
     0
  9
$USERI3
 70
     0
  9
$USERI4
 70
     0
  9
$USERI5
 70
     0
  9
$USERR1
 40
0.0
  9
$USERR2
 40
0.0
  9
$USERR3
 40
0.0
  9
$USERR4
 40
0.0
  9
$USERR5
 40
0.0
  9
$WORLDVIEW
 70
     1
  9
$SHADEDGE
 70
     3
  9
$SHADEDIF
 70
    70
  9
$TILEMODE
 70
     1
  9
$MAXACTVP
 70
    64
  9
$PINSBASE
 10
0.0
 20
0.0
 30
0.0
  9
$PLIMCHECK
 70
     0
  9
$PEXTMIN
 10
1.000000000000000E+20
 20
1.000000000000000E+20
 30
1.000000000000000E+20
  9
$PEXTMAX
 10
-1.000000000000000E+20
 20
-1.000000000000000E+20
 30
-1.000000000000000E+20
  9
$PLIMMIN
 10
0.0
 20
0.0
  9
$PLIMMAX
 10
420.0
 20
297.0
  9
$UNITMODE
 70
     0
  9
$VISRETAIN
 70
     1
  9
$PLINEGEN
 70
     0
  9
$PSLTSCALE
 70
     1
  9
$TREEDEPTH
 70
  3020
  9
$CMLSTYLE
  2
Standard
  9
$CMLJUST
 70
     0
  9
$CMLSCALE
 40
20.0
  9
$PROXYGRAPHICS
 70
     1
  9
$MEASUREMENT
 70
     1
  9
$CELWEIGHT
370
    -1
  9
$ENDCAPS
280
     0
  9
$JOINSTYLE
280
     0
  9
$LWDISPLAY
290
     0
  9
$INSUNITS
 70
     4
  9
$HYPERLINKBASE
  1

  9
$STYLESHEET
  1

  9
$XEDIT
290
     1
  9
$CEPSNTYPE
380
     0
  9
$PSTYLEMODE
290
     1
  9
$FINGERPRINTGUID
  2
{FF8371D1-37D3-4C24-98C1-F3259E130B25}
  9
$VERSIONGUID
  2
{1F01EE86-51D3-4A6D-B072-9044269FB848}
  9
$EXTNAMES
290
     1
  9
$PSVPSCALE
 40
0.0
  9
$OLESTARTUP
290
     0
  9
$SORTENTS
280
   127
  9
$INDEXCTL
280
     0
  9
$HIDETEXT
280
     1
  9
$XCLIPFRAME
290
     0
  9
$HALOGAP
280
     0
  9
$OBSCOLOR
 70
   257
  9
$OBSLTYPE
280
     0
  9
$INTERSECTIONDISPLAY
280
     0
  9
$INTERSECTIONCOLOR
 70
   257
  9
$DIMASSOC
280
     1
  9
$PROJECTNAME
  1

  0
ENDSEC
  0
SECTION
  2
CLASSES
  0
CLASS
  1
ACDBDICTIONARYWDFLT
  2
AcDbDictionaryWithDefault
  3
ObjectDBX Classes
 90
        0
 91
        1
280
     0
281
     0
  0
CLASS
  1
AMGSETTINGSOBJ
  2
AmgSettingsObj
  3
"AcadM|Product Description: AutoCAD Mechanical|Company: Autodesk, Inc."
 90
     1024
 91
        4
280
     0
281
     0
  0
CLASS
  1
AMGOBJPROPCFG
  2
AmgObjPropCfg
  3
"AmgLay|Product Description: AutoCAD Mechanical|Company: Autodesk, Inc."
 90
     1025
 91
        1
280
     0
281
     0
  0
CLASS
  1
ACME_DOCUMENT
  2
AcMeDbDoc
  3
AcMeServices
 90
     1024
 91
        0
280
     0
281
     0
  0
CLASS
  1
ACMESCOPE
  2
AcMeScope
  3
AcMeServices
 90
     1024
 91
        1
280
     0
281
     0
  0
CLASS
  1
ACMECOMMANDHISTORY
  2
AcMeCommandHistory
  3
AcMeServices
 90
     1024
 91
        0
280
     0
281
     0
  0
CLASS
  1
DICTIONARYVAR
  2
AcDbDictionaryVar
  3
ObjectDBX Classes
 90
        0
 91
        4
280
     0
281
     0
  0
CLASS
  1
ACIMSYSVARMAN
  2
AcImSysVarManager
  3
AcMeServices
 90
     1024
 91
        2
280
     0
281
     0
  0
CLASS
  1
ACIMREALSYSVAR
  2
AcImRealSysVar
  3
AcMeServices
 90
     1024
 91
        1
280
     0
281
     0
  0
CLASS
  1
ACIMINTSYSVAR
  2
AcImIntSysVar
  3
AcMeServices
 90
     1024
 91
       25
280
     0
281
     0
  0
CLASS
  1
ACMEDRAWINGMAN
  2
AcMeDrawingMan
  3
AcMeServices
 90
     1024
 91
        0
280
     0
281
     0
  0
CLASS
  1
ACMEVIEW
  2
AcMeView
  3
AcMeServices
 90
     1024
 91
        0
280
     0
281
     0
  0
CLASS
  1
ACDBENTITYCACHE
  2
AcMeEntityCache
  3
AcMeServices
 90
     1024
 91
        0
280
     0
281
     0
  0
CLASS
  1
GSMANAGER
  2
AcMeGSManager
  3
AcMeServices
 90
        0
 91
        0
280
     1
281
     0
  0
CLASS
  1
AMDTINTERNALREACTOR
  2
AmdtInternalReactor
  3
AcMeServices
 90
     1024
 91
        1
280
     0
281
     0
  0
CLASS
  1
ACMESTATEMGR
  2
AcMeStateMgr
  3
AcMeServices
 90
     1024
 91
        1
280
     0
281
     0
  0
CLASS
  1
ACME_DATABASE
  2
AcMeDbDatabase
  3
AcMeServices
 90
     1024
 91
        0
280
     0
281
     0
  0
CLASS
  1
ACRFINSADJUSTERMGR
  2
AcRfInsAdjusterMgr
  3
AcMeServices
 90
     1024
 91
        0
280
     0
281
     0
  0
CLASS
  1
ACMDATADICTIONARY
  2
AcmDataDictionary
  3
"AcmSymBB|Product Description: AutoCAD Mechanical|Company: Autodesk, Inc."
 90
     1024
 91
        1
280
     0
281
     0
  0
CLASS
  1
ACMDATAENTRYBLOCK
  2
AcmDataEntryBlock
  3
AcmSymBB|Product Description: AutoCAD Mechanical|Company: Autodesk, Inc.
 90
     1024
 91
        1
280
     0
281
     0
  0
CLASS
  1
LAYER_INDEX
  2
AcDbLayerIndex
  3
ObjectDBX Classes
 90
        0
 91
        0
280
     0
281
     0
  0
CLASS
  1
IDBUFFER
  2
AcDbIdBuffer
  3
ObjectDBX Classes
 90
        0
 91
        0
280
     0
281
     0
  0
CLASS
  1
ACAMGFILTERDAT
  2
AcAmgFilterDat
  3
"AcadM|Product Description: AutoCAD Mechanical|Company: Autodesk, Inc."
 90
     1024
 91
        0
280
     0
281
     0
  0
CLASS
  1
ACMDIMBREAKPERSREACTOR
  2
AcmDimBreakPersReactor
  3
AmgDim|Product Description: AutoCAD Mechanical|Company: Autodesk, Inc.
 90
     4095
 91
        0
280
     0
281
     0
  0
CLASS
  1
ACGREFMASTER
  2
AcGrefMaster
  3
AcAttribServices
 90
     1024
 91
        1
280
     0
281
     0
  0
CLASS
  1
ACGREFACADMASTER
  2
AcGrefacadMaster
  3
AcGrefServices
 90
     1024
 91
        0
280
     0
281
     0
  0
CLASS
  1
AMIMASTER
  2
AmiMaster
  3
AmiServices
 90
     1024
 91
        0
280
     0
281
     0
  0
CLASS
  1
ACIMSTRSYSVAR
  2
AcImStrSysVar
  3
AcMeServices
 90
     1024
 91
        1
280
     0
281
     0
  0
CLASS
  1
ACMSTANDARDDIN
  2
AcmStandardDIN
  3
"Amdt_StdImp|Product Description: AutoCAD Mechanical|Company: Autodesk, Inc."
 90
     1024
 91
        1
280
     0
281
     0
  0
CLASS
  1
AMDTEDGESTANDARDDIN
  2
AmdtEdgeStdDIN
  3
"Amdt_StdImp|Product Description: AutoCAD Mechanical|Company: Autodesk, Inc."
 90
     1024
 91
        1
280
     0
281
     0
  0
CLASS
  1
ACMSURFSTANDARDDIN
  2
AcmSurfTextStdDIN
  3
"Amdt_StdImp|Product Description: AutoCAD Mechanical|Company: Autodesk, Inc."
 90
     1024
 91
        1
280
     0
281
     0
  0
CLASS
  1
ACMFCFSTANDARDDIN
  2
AcmFCFStdDIN
  3
"Amdt_StdImp|Product Description: AutoCAD Mechanical|Company: Autodesk, Inc."
 90
     1024
 91
        1
280
     0
281
     0
  0
CLASS
  1
ACMWELDSTANDARDDIN
  2
AcmWeldingStdDIN
  3
"Amdt_StdImp|Product Description: AutoCAD Mechanical|Company: Autodesk, Inc."
 90
     1024
 91
        1
280
     0
281
     0
  0
CLASS
  1
ACMIDSTANDARDDIN
  2
AcmIdStdDIN
  3
"Amdt_StdImp|Product Description: AutoCAD Mechanical|Company: Autodesk, Inc."
 90
     1024
 91
        1
280
     0
281
     0
  0
CLASS
  1
ACMDATUMSTANDARDDIN
  2
AcmDatumStdDIN
  3
"Amdt_StdImp|Product Description: AutoCAD Mechanical|Company: Autodesk, Inc."
 90
     1024
 91
        1
280
     0
281
     0
  0
CLASS
  1
ACMBOMSTANDARDDIN
  2
AcmBOMStdDIN
  3
"Amdt_StdImp|Product Description: AutoCAD Mechanical|Company: Autodesk, Inc."
 90
     1024
 91
        1
280
     0
281
     0
  0
CLASS
  1
ACMDETAILSTANDARDDIN
  2
AmdtDetailSymStdDIN
  3
"Amdt_StdImp|Product Description: AutoCAD Mechanical|Company: Autodesk, Inc."
 90
     1024
 91
        1
280
     0
281
     0
  0
CLASS
  1
ACMSECTIONSTANDARDDIN
  2
AmdtSectionSymStdDIN
  3
"Amdt_StdImp|Product Description: AutoCAD Mechanical|Company: Autodesk, Inc."
 90
     1024
 91
        1
280
     0
281
     0
  0
CLASS
  1
ACMCENTERLINESTANDARDDIN
  2
AmdtCenterLineStdDIN
  3
"Amdt_StdImp|Product Description: AutoCAD Mechanical|Company: Autodesk, Inc."
 90
     1024
 91
        1
280
     0
281
     0
  0
CLASS
  1
ACMNOTESTANDARDDIN
  2
AmdtNoteStdDIN
  3
"Amdt_StdImp|Product Description: AutoCAD Mechanical|Company: Autodesk, Inc."
 90
     1024
 91
        1
280
     0
281
     0
  0
CLASS
  1
ACAMGLAYSTD
  2
AcAmgLayStd
  3
"AmgLay|Product Description: AutoCAD Mechanical|Company: Autodesk, Inc."
 90
     1024
 91
        1
280
     0
281
     0
  0
CLASS
  1
ACAMGDIMSTD
  2
AcAmgDimStd
  3
"AmgDim|Product Description: AutoCAD Mechanical|Company: Autodesk, Inc."
 90
     1024
 91
        1
280
     0
281
     0
  0
CLASS
  1
ACAMGHOLECHARTSTDDIN
  2
AcAmgHoleChartStdDIN
  3
AmgDim|Product Description: AutoCAD Mechanical|Company: Autodesk, Inc.
 90
     1024
 91
        1
280
     0
281
     0
  0
CLASS
  1
ACAMGTITLESTD
  2
AcAmgTitleStd
  3
"AmgTitle|Product Description: AutoCAD Mechanical|Company: Autodesk, Inc."
 90
     4095
 91
        1
280
     0
281
     0
  0
CLASS
  1
MATERIAL
  2
AcDbMaterial
  3
ObjectDBX Classes
 90
     1153
 91
        3
280
     0
281
     0
  0
CLASS
  1
VISUALSTYLE
  2
AcDbVisualStyle
  3
ObjectDBX Classes
 90
     4095
 91
        3
280
     0
281
     0
  0
CLASS
  1
TABLESTYLE
  2
AcDbTableStyle
  3
ObjectDBX Classes
 90
     4095
 91
        1
280
     0
281
     0
  0
CLASS
  1
SCALE
  2
AcDbScale
  3
ObjectDBX Classes
 90
     1153
 91
       17
280
     0
281
     0
  0
CLASS
  1
MLEADERSTYLE
  2
AcDbMLeaderStyle
  3
ACDB_MLEADERSTYLE_CLASS
 90
     4095
 91
        0
280
     0
281
     0
  0
CLASS
  1
AM_DRAWING_MGR
  2
AcDmDwgMgr
  3
AcMechDwgViewMgmt
 90
     1024
 91
        1
280
     0
281
     0
  0
CLASS
  1
AM_DWG_DOCUMENT
  2
AcDmDwgDocument
  3
AcMechDwgViewMgmt
 90
     1024
 91
        1
280
     0
281
     0
  0
CLASS
  1
AM_DWG_SHEET
  2
AcDmSheet
  3
AcMechDwgViewMgmt
 90
     1024
 91
        1
280
     0
281
     0
  0
CLASS
  1
AM_VIEWDIMPARMAP
  2
AcDmViewDimParMap
  3
AcMechDwgViewMgmt
 90
     1024
 91
        1
280
     0
281
     0
  0
CLASS
  1
AM_DWGMGR_NAME
  2
AcDmDwgMgrName
  3
AcMechDwgViewMgmt
 90
     1024
 91
        1
280
     0
281
     0
  0
CLASS
  1
AMDTMENUSTATEMGR
  2
AmdtMenuStateMgr
  3
McadcomServices
 90
     1024
 91
        0
280
     0
281
     0
  0
CLASS
  1
AMDTMCOMMENUSTATE
  2
AmdtMcomMenuState
  3
McadcomServices
 90
     1024
 91
        0
280
     0
281
     0
  0
CLASS
  1
MAPIAMMOUDLE
  2
MApiAmModule
  3
MApiAmServices
 90
     1024
 91
        0
280
     0
281
     0
  0
CLASS
  1
AMDTDMMENUSTATE
  2
AmdtDmMenuState
  3
AcMechDwgViewMgmt
 90
     1024
 91
        0
280
     0
281
     0
  0
CLASS
  1
AMDTAMMENUSTATE
  2
AmdtAmMenuState
  3
DesignerAssemblies
 90
     1024
 91
        0
280
     0
281
     0
  0
CLASS
  1
ACAMPROJECT
  2
AcAmProject
  3
DesignerAssemblies
 90
     1024
 91
        0
280
     0
281
     0
  0
CLASS
  1
ACAMGRCOMPDEF
  2
AcAmGrCompDef
  3
DesignerAssemblies
 90
     1024
 91
        0
280
     0
281
     0
  0
CLASS
  1
ACAMCOMPDEF
  2
AcAmCompDef
  3
DesignerAssemblies
 90
     1024
 91
        0
280
     0
281
     0
  0
CLASS
  1
ACAMCOMPDEFMGR
  2
AcAmCompDefMgr
  3
DesignerAssemblies
 90
     1024
 91
        0
280
     0
281
     0
  0
CLASS
  1
AMCONTEXTMGR
  2
AcAmContextMgr
  3
DesignerAssemblies
 90
     1024
 91
        0
280
     0
281
     0
  0
CLASS
  1
ACAMCONTEXTMODELER
  2
AcAmContextModeler
  3
DesignerAssemblies
 90
     1024
 91
        0
280
     0
281
     0
  0
CLASS
  1
ACRFATTGENMGR
  2
AcRfAttGeneralMgr
  3
AcAttribServices
 90
     1024
 91
        0
280
     0
281
     0
  0
CLASS
  1
ACRFOBJATTMGR
  2
AcRfObjAttGroupMgr
  3
AcAttribServices
 90
     1024
 91
        0
280
     0
281
     0
  0
CLASS
  1
ACRFMCADAPIATTHOLDER
  2
AcRfMCADAPIAttHolder
  3
AcAttribServices
 90
     1024
 91
        0
280
     0
281
     0
  0
CLASS
  1
AMDTSYSATTR
  2
AmdtSystemAttribute
  3
AcAttribServices
 90
     1024
 91
        0
280
     0
281
     0
  0
CLASS
  1
ACMTHREADLINESTANDARDDIN
  2
AmdtThreadLineStdDIN
  3
"Amdt_StdImp|Product Description: AutoCAD Mechanical|Company: Autodesk, Inc."
 90
     1024
 91
        1
280
     0
281
     0
  0
CLASS
  1
ACMTAPERSTANDARDDIN
  2
AcmTaperStdDIN
  3
"Amdt_StdImp|Product Description: AutoCAD Mechanical|Company: Autodesk, Inc."
 90
     1024
 91
        1
280
     0
281
     0
  0
CLASS
  1
ACMANOOTATIONVIEWSTANDARDDIN
  2
AmdtAnViewStdDIN
  3
"Amdt_StdImp|Product Description: AutoCAD Mechanical|Company: Autodesk, Inc."
 90
     1024
 91
        1
280
     0
281
     0
  0
CLASS
  1
ACAMGRCOMPDEFSET
  2
AcAmGrCompDefSet
  3
DesignerAssemblies
 90
     1024
 91
        0
280
     0
281
     0
  0
CLASS
  1
AMDTBROWSERDBTAB
  2
AmdtBrowserDbTab
  3
McadcomServices
 90
     1024
 91
        0
280
     0
281
     0
  0
CLASS
  1
CBROWSERAPPOBJECT
  2
CBrowserAppObject
  3
McadcomServices
 90
     1024
 91
        0
280
     0
281
     0
  0
CLASS
  1
DM_PLACEHOLDER
  2
AcDmSelsetPlaceholder
  3
AcMechDwgViewMgmt
 90
     1024
 91
        0
280
     0
281
     0
  0
CLASS
  1
CELLSTYLEMAP
  2
AcDbCellStyleMap
  3
ObjectDBX Classes
 90
     1152
 91
        1
280
     0
281
     0
  0
ENDSEC
  0
SECTION
  2
TABLES
  0
TABLE
  2
VPORT
  5
26
330
0
100
AcDbSymbolTable
 70
     1
  0
VPORT
  5
27
330
26
100
AcDbSymbolTableRecord
100
AcDbViewportTableRecord
  2
*Active
 70
     0
 10
0.0
 20
0.0
 11
1.0
 21
1.0
 12
1694.60837996865
 22
335.0342751239948
 13
0.0
 23
0.0
 14
5.0
 24
5.0
 15
20.0
 25
20.0
 16
0.0
 26
0.0
 36
1.0
 17
0.0
 27
0.0
 37
0.0
 40
788.191452115349
 41
2.273709483793517
 42
50.0
 43
0.0
 44
0.0
 50
0.0
 51
0.0
 71
    16
 72
 20000
 73
     1
 74
     0
 75
     0
 76
     0
 77
     0
 78
     0
281
     0
 65
     1
110
0.0
120
0.0
130
0.0
111
1.0
121
0.0
131
0.0
112
0.0
122
1.0
132
0.0
 79
     0
146
0.0
  0
ENDTAB
  0
TABLE
  2
LTYPE
  5
21
330
0
100
AcDbSymbolTable
 70
    14
  0
LTYPE
  5
22
330
21
100
AcDbSymbolTableRecord
100
AcDbLinetypeTableRecord
  2
ByBlock
 70
     0
  3

 72
    65
 73
     0
 40
0.0
  0
LTYPE
  5
23
330
21
100
AcDbSymbolTableRecord
100
AcDbLinetypeTableRecord
  2
ByLayer
 70
     0
  3

 72
    65
 73
     0
 40
0.0
  0
LTYPE
  5
1D
330
21
100
AcDbSymbolTableRecord
100
AcDbLinetypeTableRecord
  2
Continuous
 70
     0
  3
Solid line
 72
    65
 73
     0
 40
0.0
  0
LTYPE
  5
90
330
21
100
AcDbSymbolTableRecord
100
AcDbLinetypeTableRecord
  2
AM_ISO02W050
 70
     0
  3
__ __ __ __ __ __ __ __ __ __ __ __ __ __ __
 72
    65
 73
     2
 40
7.5
 49
6.0
 74
     0
 49
-1.5
 74
     0
  0
LTYPE
  5
96
330
21
100
AcDbSymbolTableRecord
100
AcDbLinetypeTableRecord
  2
AM_ISO08W050
 70
     0
  3
____ . ____ . ____ . ____ . ____ . ____ . ____
 72
    65
 73
     4
 40
18.0
 49
12.0
 74
     0
 49
-1.5
 74
     0
 49
3.0
 74
     0
 49
-1.5
 74
     0
  0
LTYPE
  5
292
330
21
100
AcDbSymbolTableRecord
100
AcDbLinetypeTableRecord
  2
AM_ISO09W050
 70
     0
  3
_____ . . _____ . . _____ . . ____ .. ____
 72
    65
 73
     6
 40
22.5
 49
12.0
 74
     0
 49
-1.5
 74
     0
 49
3.0
 74
     0
 49
-1.5
 74
     0
 49
3.0
 74
     0
 49
-1.5
 74
     0
  0
LTYPE
  5
293
330
21
100
AcDbSymbolTableRecord
100
AcDbLinetypeTableRecord
  2
amconstr
 70
     0
  3
_______________________
 72
    65
 73
     2
 40
9999.0
 49
9999.0
 74
     0
 49
0.0
 74
     0
  0
LTYPE
  5
294
330
21
100
AcDbSymbolTableRecord
100
AcDbLinetypeTableRecord
  2
AM_ISO02W050x2
 70
     0
  3
 _ _ _ _ _ _ _ _ _ _ _ _
 72
    65
 73
     2
 40
3.75
 49
3.0
 74
     0
 49
-0.75
 74
     0
  0
LTYPE
  5
295
330
21
100
AcDbSymbolTableRecord
100
AcDbLinetypeTableRecord
  2
AM_ISO08W050x2
 70
     0
  3
__ . __ . __ . __ . __ . __
 72
    65
 73
     4
 40
9.0
 49
6.0
 74
     0
 49
-0.75
 74
     0
 49
1.5
 74
     0
 49
-0.75
 74
     0
  0
LTYPE
  5
296
330
21
100
AcDbSymbolTableRecord
100
AcDbLinetypeTableRecord
  2
amzigzag
 70
     0
  3
/\/-/\/-/\/-/\/-/\/-/\/
 72
    65
 73
     2
 40
11.0001
 49
0.0001
 74
     4
 75
   135
340
297
 46
0.04
 50
0.0
 44
0.0
 45
0.0
 49
-11.0
 74
     0
  0
LTYPE
  5
2A9
330
21
100
AcDbSymbolTableRecord
100
AcDbLinetypeTableRecord
  2
ACDINWELD
 70
     0
  3
_ _ _ _ _
 72
    65
 73
     2
 40
2.0
 49
2.0
 74
     0
 49
-1.0
 74
     0
  0
LTYPE
  5
2AC
330
21
100
AcDbSymbolTableRecord
100
AcDbLinetypeTableRecord
  2
ACDINTGB
 70
     0
  3
__ . . __ . .
 72
    65
 73
     6
 40
9.0
 49
4.0
 74
     0
 49
-1.0
 74
     0
 49
1.0
 74
     0
 49
-1.0
 74
     0
 49
1.0
 74
     0
 49
-1.0
 74
     0
  0
LTYPE
  5
2AD
330
21
100
AcDbSymbolTableRecord
100
AcDbLinetypeTableRecord
  2
ACDINTGL
 70
     0
  3
_ _ _ _ _
 72
    65
 73
     2
 40
3.0
 49
2.0
 74
     0
 49
-1.0
 74
     0
  0
LTYPE
  5
2B1
330
21
100
AcDbSymbolTableRecord
100
AcDbLinetypeTableRecord
  2
CENTER
 70
     0
  3
__ . __
 72
    65
 73
     4
 40
7.0
 49
4.0
 74
     0
 49
-1.0
 74
     0
 49
1.0
 74
     0
 49
-1.0
 74
     0
  0
LTYPE
  5
2E7
330
21
100
AcDbSymbolTableRecord
100
AcDbLinetypeTableRecord
  2
HIDDEN
 70
     0
  3
Verdeckt
 72
    65
 73
     2
 40
9.525
 49
6.349999999999999
 74
     0
 49
-3.174999999999999
 74
     0
  0
LTYPE
  5
2E8
330
21
100
AcDbSymbolTableRecord
100
AcDbLinetypeTableRecord
  2
PHANTOM2
 70
     0
  3
Phantom (.5x) ___ _ _ ___ _ _ ___ _ _ ___ _ _
 72
    65
 73
     6
 40
31.75
 49
15.875
 74
     0
 49
-3.174999999999999
 74
     0
 49
3.174999999999999
 74
     0
 49
-3.174999999999999
 74
     0
 49
3.174999999999999
 74
     0
 49
-3.174999999999999
 74
     0
  0
ENDTAB
  0
TABLE
  2
LAYER
  5
10
330
0
100
AcDbSymbolTable
 70
     8
  0
LAYER
  5
11
330
10
100
AcDbSymbolTableRecord
100
AcDbLayerTableRecord
  2
0
 70
     0
 62
     7
  6
Continuous
370
    -3
390
12
  0
LAYER
  5
78
330
10
100
AcDbSymbolTableRecord
100
AcDbLayerTableRecord
  2
Defpoints
 70
     0
 62
     7
  6
Continuous
290
     0
370
    -3
390
12
  0
LAYER
  5
44
330
10
100
AcDbSymbolTableRecord
100
AcDbLayerTableRecord
  2
AM_0
 70
     0
 62
     7
  6
Continuous
370
    50
390
12
  0
LAYER
  5
68
330
10
100
AcDbSymbolTableRecord
100
AcDbLayerTableRecord
  2
AM_5
 70
     0
 62
   110
  6
Continuous
370
    25
390
12
  0
LAYER
  5
5B
330
10
100
AcDbSymbolTableRecord
100
AcDbLayerTableRecord
  2
AM_1
 70
     0
 62
     7
  6
Continuous
370
    50
390
12
  0
LAYER
  5
95
330
10
100
AcDbSymbolTableRecord
100
AcDbLayerTableRecord
  2
AM_7
 70
     0
 62
     1
  6
AM_ISO08W050
370
    25
390
12
  0
LAYER
  5
8F
330
10
100
AcDbSymbolTableRecord
100
AcDbLayerTableRecord
  2
AM_3
 70
     0
 62
     1
  6
AM_ISO02W050
370
    25
390
12
  0
LAYER
  5
5D
330
10
100
AcDbSymbolTableRecord
100
AcDbLayerTableRecord
  2
AM_6
 70
     0
 62
     3
  6
Continuous
370
    35
390
12
  0
ENDTAB
  0
TABLE
  2
STYLE
  5
1E
330
0
100
AcDbSymbolTable
 70
     4
  0
STYLE
  5
1F
330
1E
100
AcDbSymbolTableRecord
100
AcDbTextStyleTableRecord
  2
STANDARD
 70
     0
 40
0.0
 41
1.0
 50
0.0
 71
     0
 42
5.0
  3
ISOCP.SHX
  4

  0
STYLE
  5
297
330
1E
100
AcDbSymbolTableRecord
100
AcDbTextStyleTableRecord
  2

 70
     1
 40
0.0
 41
1.0
 50
0.0
 71
     0
 42
2.5
  3
ltypeshp.shx
  4

  0
STYLE
  5
2A3
330
1E
100
AcDbSymbolTableRecord
100
AcDbTextStyleTableRecord
  2
ACDINTS
 70
     0
 40
1.0
 41
1.0
 50
0.0
 71
     0
 42
2.5
  3
isocp.shx
  4

  0
STYLE
  5
2A7
330
1E
100
AcDbSymbolTableRecord
100
AcDbTextStyleTableRecord
  2
ACDINGDT
 70
     0
 40
0.0
 41
1.0
 50
0.0
 71
     0
 42
2.5
  3
amgdt.shx
  4

  0
ENDTAB
  0
TABLE
  2
VIEW
  5
24
330
0
100
AcDbSymbolTable
 70
     1
  0
VIEW
  5
9
330
24
100
AcDbSymbolTableRecord
100
AcDbViewTableRecord
  2
AM_VIEW1
 70
     0
 40
227.01
 10
258.4747003000061
 20
464.3238583208174
 41
321.8169605568446
 11
0.0
 21
0.0
 31
1.0
 12
0.0
 22
0.0
 32
0.0
 42
50.0
 43
0.0
 44
0.0
 50
0.0
 71
    16
281
     0
 72
     0
  0
ENDTAB
  0
TABLE
  2
UCS
  5
25
330
0
100
AcDbSymbolTable
 70
     0
  0
ENDTAB
  0
TABLE
  2
APPID
  5
28
330
0
100
AcDbSymbolTable
 70
     4
  0
APPID
  5
29
330
28
100
AcDbSymbolTableRecord
100
AcDbRegAppTableRecord
  2
ACAD
 70
     0
  0
APPID
  5
A9
330
28
100
AcDbSymbolTableRecord
100
AcDbRegAppTableRecord
  2
GENIUS_GENDTOL_13
 70
     0
  0
APPID
  5
5E
330
28
100
AcDbSymbolTableRecord
100
AcDbRegAppTableRecord
  2
GENIUS_AMGTXT_16
 70
     0
  0
APPID
  5
2EA
330
28
100
AcDbSymbolTableRecord
100
AcDbRegAppTableRecord
  2
ACATTRIBSERVICES
 70
     0
  0
ENDTAB
  0
TABLE
  2
DIMSTYLE
  5
2A
330
0
100
AcDbSymbolTable
 70
     7
100
AcDbDimStyleTable
 71
     1
340
2B
  0
DIMSTYLE
105
2B
102
{ACAD_REACTORS
330
EA
330
206
330
249
330
BF
330
9A
330
D6
330
1EF
330
B0
330
137
330
23A
330
258
330
19F
330
1AC
330
1BB
330
1C8
330
1D5
330
1E2
330
265
330
22B
330
182
330
272
330
27F
330
191
330
11C
330
15B
330
168
330
175
330
10B
330
7C
330
67
102
}
330
2A
100
AcDbSymbolTableRecord
100
AcDbDimStyleTableRecord
  2
AM_ISO
 70
     0
  4
"
 41
2.5
 42
0.0
 43
10.0
 44
1.0
 47
0.1
 48
0.1
 73
     0
 74
     0
 77
     1
 78
     8
 79
     2
140
3.5
141
0.0
143
0.0393701
146
0.71
147
1.5
172
     1
176
   256
177
   256
178
     3
271
     2
272
     2
283
     0
340
1F
371
    -1
372
    -1
  0
DIMSTYLE
105
2B6
330
2A
100
AcDbSymbolTableRecord
100
AcDbDimStyleTableRecord
  2
AM_ISO$3
 70
     0
  4
"
 41
2.5
 42
0.0
 43
10.0
 44
1.0
 47
0.1
 48
0.1
 73
     0
 77
     1
 78
     8
 79
     2
140
3.5
141
0.0
143
0.0393701
146
0.71
147
1.5
176
   256
177
   256
178
     3
271
     2
272
     2
283
     0
288
     1
289
     0
340
1F
371
    -1
372
    -1
  0
DIMSTYLE
105
2B7
330
2A
100
AcDbSymbolTableRecord
100
AcDbDimStyleTableRecord
  2
AM_ISO$4
 70
     0
  4
"
 41
2.5
 42
0.0
 43
10.0
 44
1.0
 47
0.1
 48
0.1
 73
     0
 77
     1
 78
     8
 79
     2
140
3.5
141
0.0
143
0.0393701
146
0.71
147
1.5
176
   256
177
   256
178
     3
271
     2
272
     2
283
     0
288
     1
289
     0
340
1F
371
    -1
372
    -1
  0
DIMSTYLE
105
2B8
330
2A
100
AcDbSymbolTableRecord
100
AcDbDimStyleTableRecord
  2
AM_ISO$6
 70
     0
  4
"
 41
2.5
 42
0.0
 43
10.0
 44
1.0
 47
0.1
 48
0.1
 73
     0
 74
     0
 78
     8
 79
     2
140
3.5
141
0.0
143
0.0393701
146
0.71
147
1.5
172
     1
176
   256
177
   256
178
     3
271
     2
272
     2
283
     0
340
1F
371
    -1
372
    -1
  0
DIMSTYLE
105
2B9
330
2A
100
AcDbSymbolTableRecord
100
AcDbDimStyleTableRecord
  2
AM_ISO$7
 70
     0
  4
"
 41
2.5
 42
0.0
 43
10.0
 44
1.0
 47
0.1
 48
0.1
 73
     0
 74
     0
 77
     1
 78
     8
 79
     2
140
5.0
141
0.0
143
0.0393701
146
0.71
147
1.5
172
     1
176
   256
177
   256
178
     3
271
     2
272
     2
283
     0
340
1F
371
    -1
372
    -1
  0
DIMSTYLE
105
2BA
330
2A
100
AcDbSymbolTableRecord
100
AcDbDimStyleTableRecord
  2
AM_ISO$SF
 70
     0
  4
"
 41
2.5
 42
0.0
 43
10.0
 44
1.0
 47
0.1
 48
0.1
 73
     0
 74
     0
 75
     1
 76
     1
 77
     1
 78
     8
 79
     2
140
3.5
141
0.0
143
0.0393701
146
0.71
147
1.5
172
     1
176
   256
177
   256
178
     3
271
     2
272
     2
283
     0
340
1F
371
    -1
372
    -1
  0
DIMSTYLE
105
2BB
330
2A
100
AcDbSymbolTableRecord
100
AcDbDimStyleTableRecord
  2
AM_ISO$SH
 70
     0
  4
"
 41
2.5
 42
0.0
 43
10.0
 44
1.0
 47
0.1
 48
0.1
 73
     0
 74
     0
 75
     1
 76
     1
 77
     1
 78
     8
 79
     2
140
3.5
141
0.0
143
0.0393701
144
2.0
146
0.71
147
1.5
172
     1
173
     1
176
   256
177
   256
178
     3
271
     2
272
     2
283
     0
340
1F
343
2BC
371
    -1
372
    -1
  0
ENDTAB
  0
TABLE
  2
BLOCK_RECORD
  5
1
330
0
100
AcDbSymbolTable
 70
    32
  0
BLOCK_RECORD
  5
2
102
{ACAD_XDICTIONARY
360
3
102
}
330
1
100
AcDbSymbolTableRecord
100
AcDbBlockTableRecord
  2
*Model_Space
340
6
  0
BLOCK_RECORD
  5
C
330
1
100
AcDbSymbolTableRecord
100
AcDbBlockTableRecord
  2
*Paper_Space
340
F
  0
BLOCK_RECORD
  5
2BC
330
1
100
AcDbSymbolTableRecord
100
AcDbBlockTableRecord
  2
GENAXEH
340
0
  0
BLOCK_RECORD
  5
EB
330
1
100
AcDbSymbolTableRecord
100
AcDbBlockTableRecord
  2
*D1
340
0
  0
BLOCK_RECORD
  5
207
330
1
100
AcDbSymbolTableRecord
100
AcDbBlockTableRecord
  2
*D2
340
0
  0
BLOCK_RECORD
  5
24A
330
1
100
AcDbSymbolTableRecord
100
AcDbBlockTableRecord
  2
*D3
340
0
  0
BLOCK_RECORD
  5
C0
330
1
100
AcDbSymbolTableRecord
100
AcDbBlockTableRecord
  2
*D4
340
0
  0
BLOCK_RECORD
  5
9B
330
1
100
AcDbSymbolTableRecord
100
AcDbBlockTableRecord
  2
*D5
340
0
  0
BLOCK_RECORD
  5
D7
330
1
100
AcDbSymbolTableRecord
100
AcDbBlockTableRecord
  2
*D6
340
0
  0
BLOCK_RECORD
  5
1F0
330
1
100
AcDbSymbolTableRecord
100
AcDbBlockTableRecord
  2
*D7
340
0
  0
BLOCK_RECORD
  5
B1
330
1
100
AcDbSymbolTableRecord
100
AcDbBlockTableRecord
  2
*D8
340
0
  0
BLOCK_RECORD
  5
138
330
1
100
AcDbSymbolTableRecord
100
AcDbBlockTableRecord
  2
*D9
340
0
  0
BLOCK_RECORD
  5
23B
330
1
100
AcDbSymbolTableRecord
100
AcDbBlockTableRecord
  2
*D10
340
0
  0
BLOCK_RECORD
  5
259
330
1
100
AcDbSymbolTableRecord
100
AcDbBlockTableRecord
  2
*D11
340
0
  0
BLOCK_RECORD
  5
1A0
330
1
100
AcDbSymbolTableRecord
100
AcDbBlockTableRecord
  2
*D12
340
0
  0
BLOCK_RECORD
  5
1AD
330
1
100
AcDbSymbolTableRecord
100
AcDbBlockTableRecord
  2
*D13
340
0
  0
BLOCK_RECORD
  5
1BC
330
1
100
AcDbSymbolTableRecord
100
AcDbBlockTableRecord
  2
*D14
340
0
  0
BLOCK_RECORD
  5
1C9
330
1
100
AcDbSymbolTableRecord
100
AcDbBlockTableRecord
  2
*D15
340
0
  0
BLOCK_RECORD
  5
1D6
330
1
100
AcDbSymbolTableRecord
100
AcDbBlockTableRecord
  2
*D16
340
0
  0
BLOCK_RECORD
  5
1E3
330
1
100
AcDbSymbolTableRecord
100
AcDbBlockTableRecord
  2
*D17
340
0
  0
BLOCK_RECORD
  5
266
330
1
100
AcDbSymbolTableRecord
100
AcDbBlockTableRecord
  2
*D18
340
0
  0
BLOCK_RECORD
  5
22C
330
1
100
AcDbSymbolTableRecord
100
AcDbBlockTableRecord
  2
*D19
340
0
  0
BLOCK_RECORD
  5
183
330
1
100
AcDbSymbolTableRecord
100
AcDbBlockTableRecord
  2
*D20
340
0
  0
BLOCK_RECORD
  5
273
330
1
100
AcDbSymbolTableRecord
100
AcDbBlockTableRecord
  2
*D21
340
0
  0
BLOCK_RECORD
  5
280
330
1
100
AcDbSymbolTableRecord
100
AcDbBlockTableRecord
  2
*D22
340
0
  0
BLOCK_RECORD
  5
192
330
1
100
AcDbSymbolTableRecord
100
AcDbBlockTableRecord
  2
*D23
340
0
  0
BLOCK_RECORD
  5
11D
330
1
100
AcDbSymbolTableRecord
100
AcDbBlockTableRecord
  2
*D24
340
0
  0
BLOCK_RECORD
  5
15C
330
1
100
AcDbSymbolTableRecord
100
AcDbBlockTableRecord
  2
*D25
340
0
  0
BLOCK_RECORD
  5
169
330
1
100
AcDbSymbolTableRecord
100
AcDbBlockTableRecord
  2
*D26
340
0
  0
BLOCK_RECORD
  5
176
330
1
100
AcDbSymbolTableRecord
100
AcDbBlockTableRecord
  2
*D27
340
0
  0
BLOCK_RECORD
  5
10C
330
1
100
AcDbSymbolTableRecord
100
AcDbBlockTableRecord
  2
*D28
340
0
  0
BLOCK_RECORD
  5
71
330
1
100
AcDbSymbolTableRecord
100
AcDbBlockTableRecord
  2
_DotSmall
340
0
102
{BLKREFS
331
85
331
70
102
}
  0
BLOCK_RECORD
  5
7D
330
1
100
AcDbSymbolTableRecord
100
AcDbBlockTableRecord
  2
*D30
340
0
  0
BLOCK_RECORD
  5
69
330
1
100
AcDbSymbolTableRecord
100
AcDbBlockTableRecord
  2
*D31
340
0
  0
ENDTAB
  0
ENDSEC
  0
SECTION
  2
BLOCKS
  0
BLOCK
  5
4
330
2
100
AcDbEntity
  8
0
100
AcDbBlockBegin
  2
*Model_Space
 70
     0
 10
0.0
 20
0.0
 30
0.0
  3
*Model_Space
  1

  0
ENDBLK
  5
5
330
2
100
AcDbEntity
  8
0
100
AcDbBlockEnd
  0
BLOCK
  5
D
330
C
100
AcDbEntity
 67
     1
  8
0
100
AcDbBlockBegin
  2
*Paper_Space
 70
     0
 10
0.0
 20
0.0
 30
0.0
  3
*Paper_Space
  1

  0
ENDBLK
  5
E
330
C
100
AcDbEntity
 67
     1
  8
0
100
AcDbBlockEnd
  0
BLOCK
  5
2BD
330
2BC
100
AcDbEntity
  8
0
100
AcDbBlockBegin
  2
GENAXEH
 70
     0
 10
0.0
 20
0.0
 30
0.0
  3
GENAXEH
  1

  0
LINE
  5
2BE
330
2BC
100
AcDbEntity
  8
0
100
AcDbLine
 10
-1.0
 20
0.0
 30
0.0
 11
1.0
 21
0.0
 31
0.0
  0
ENDBLK
  5
2BF
330
2BC
100
AcDbEntity
  8
0
100
AcDbBlockEnd
  0
BLOCK
  5
EC
330
EB
100
AcDbEntity
  8
0
100
AcDbBlockBegin
  2
*D1
 70
     1
 10
0.0
 20
0.0
 30
0.0
  3
*D1
  1

  0
LINE
  5
ED
330
EB
100
AcDbEntity
  8
AM_5
440
 16777216
100
AcDbLine
 10
1241.436540742891
 20
535.8317157769063
 30
0.0
 11
1241.436540742891
 21
557.8317157769062
 31
0.0
  0
LINE
  5
EE
330
EB
100
AcDbEntity
  8
AM_5
440
 16777216
100
AcDbLine
 10
1238.436540742891
 20
535.8317157769063
 30
0.0
 11
1238.436540742891
 21
557.8317157769062
 31
0.0
  0
LINE
  5
EF
330
EB
100
AcDbEntity
  8
AM_5
440
 16777216
100
AcDbLine
 10
1246.436540742891
 20
555.8317157769063
 30
0.0
 11
1251.436540742891
 21
555.8317157769063
 31
0.0
  0
LINE
  5
F0
330
EB
100
AcDbEntity
  8
AM_5
440
 16777216
100
AcDbLine
 10
1233.436540742891
 20
555.8317157769063
 30
0.0
 11
1219.34659124923
 21
555.8317157769063
 31
0.0
  0
LINE
  5
F1
330
EB
100
AcDbEntity
  8
AM_5
440
 16777216
100
AcDbLine
 10
1241.436540742891
 20
555.8317157769063
 30
0.0
 11
1238.436540742891
 21
555.8317157769063
 31
0.0
  0
SOLID
  5
F2
330
EB
100
AcDbEntity
  8
AM_5
440
 16777216
100
AcDbTrace
 10
1246.436540742891
 20
556.6650491102397
 30
0.0
 11
1246.436540742891
 21
554.9983824435729
 31
0.0
 12
1241.436540742891
 22
555.8317157769063
 32
0.0
 13
1241.436540742891
 23
555.8317157769063
 33
0.0
  0
SOLID
  5
F3
330
EB
100
AcDbEntity
  8
AM_5
440
 16777216
100
AcDbTrace
 10
1233.436540742891
 20
556.6650491102397
 30
0.0
 11
1233.436540742891
 21
554.9983824435729
 31
0.0
 12
1238.436540742891
 22
555.8317157769063
 32
0.0
 13
1238.436540742891
 23
555.8317157769063
 33
0.0
  0
MTEXT
  5
F4
330
EB
100
AcDbEntity
  8
AM_5
 62
     3
440
 16777216
100
AcDbMText
 10
1223.89156599606
 20
562.3317157769063
 30
0.0
 40
7.0
 41
0.0
 71
     5
 72
     1
  1
3
 73
     1
 44
1.0
  0
POINT
  5
F5
330
EB
100
AcDbEntity
  8
Defpoints
 62
     0
440
 16777216
100
AcDbPoint
 10
1241.436540742891
 20
535.8317157769063
 30
0.0
  0
POINT
  5
F6
330
EB
100
AcDbEntity
  8
Defpoints
 62
     0
440
 16777216
100
AcDbPoint
 10
1238.436540742891
 20
535.8317157769063
 30
0.0
  0
POINT
  5
F7
330
EB
100
AcDbEntity
  8
Defpoints
 62
     0
440
 16777216
100
AcDbPoint
 10
1238.436540742891
 20
555.8317157769063
 30
0.0
  0
ENDBLK
  5
F8
330
EB
100
AcDbEntity
  8
0
100
AcDbBlockEnd
  0
BLOCK
  5
208
330
207
100
AcDbEntity
  8
0
100
AcDbBlockBegin
  2
*D2
 70
     1
 10
0.0
 20
0.0
 30
0.0
  3
*D2
  1

  0
LINE
  5
209
330
207
100
AcDbEntity
  8
AM_5
440
 16777216
100
AcDbLine
 10
1477.025688772259
 20
300.8317157769066
 30
0.0
 11
1477.025688772259
 21
278.8317157769065
 31
0.0
  0
LINE
  5
20A
330
207
100
AcDbEntity
  8
AM_5
440
 16777216
100
AcDbLine
 10
1453.025688772259
 20
300.8317157769066
 30
0.0
 11
1453.025688772259
 21
278.8317157769065
 31
0.0
  0
LINE
  5
20B
330
207
100
AcDbEntity
  8
AM_5
440
 16777216
100
AcDbLine
 10
1472.025688772259
 20
280.8317157769065
 30
0.0
 11
1458.025688772259
 21
280.8317157769065
 31
0.0
  0
SOLID
  5
20C
330
207
100
AcDbEntity
  8
AM_5
440
 16777216
100
AcDbTrace
 10
1472.025688772259
 20
281.6650491102398
 30
0.0
 11
1472.025688772259
 21
279.9983824435732
 31
0.0
 12
1477.025688772259
 22
280.8317157769065
 32
0.0
 13
1477.025688772259
 23
280.8317157769065
 33
0.0
  0
SOLID
  5
20D
330
207
100
AcDbEntity
  8
AM_5
440
 16777216
100
AcDbTrace
 10
1458.025688772259
 20
281.6650491102398
 30
0.0
 11
1458.025688772259
 21
279.9983824435732
 31
0.0
 12
1453.025688772259
 22
280.8317157769065
 32
0.0
 13
1453.025688772259
 23
280.8317157769065
 33
0.0
  0
MTEXT
  5
20E
330
207
100
AcDbEntity
  8
AM_5
 62
     3
440
 16777216
100
AcDbMText
 10
1465.025688772259
 20
287.3324047532845
 30
0.0
 40
7.0
 41
0.0
 71
     5
 72
     1
  1
24
 73
     1
 44
1.0
  0
POINT
  5
20F
330
207
100
AcDbEntity
  8
Defpoints
 62
     0
440
 16777216
100
AcDbPoint
 10
1477.025688772259
 20
300.8317157769066
 30
0.0
  0
POINT
  5
210
330
207
100
AcDbEntity
  8
Defpoints
 62
     0
440
 16777216
100
AcDbPoint
 10
1453.025688772259
 20
300.8317157769066
 30
0.0
  0
POINT
  5
211
330
207
100
AcDbEntity
  8
Defpoints
 62
     0
440
 16777216
100
AcDbPoint
 10
1453.025688772259
 20
280.8317157769065
 30
0.0
  0
ENDBLK
  5
212
330
207
100
AcDbEntity
  8
0
100
AcDbBlockEnd
  0
BLOCK
  5
24B
330
24A
100
AcDbEntity
  8
0
100
AcDbBlockBegin
  2
*D3
 70
     1
 10
0.0
 20
0.0
 30
0.0
  3
*D3
  1

  0
LINE
  5
24C
330
24A
100
AcDbEntity
  8
AM_5
440
 16777216
100
AcDbLine
 10
1335.43654074289
 20
210.9227722709194
 30
0.0
 11
1357.43654074289
 21
210.9227722709193
 31
0.0
  0
LINE
  5
24D
330
24A
100
AcDbEntity
  8
AM_5
440
 16777216
100
AcDbLine
 10
1335.43654074289
 20
224.9227722709194
 30
0.0
 11
1357.43654074289
 21
224.9227722709193
 31
0.0
  0
LINE
  5
24E
330
24A
100
AcDbEntity
  8
AM_5
440
 16777216
100
AcDbLine
 10
1355.43654074289
 20
205.9227722709193
 30
0.0
 11
1355.43654074289
 21
200.9227722709193
 31
0.0
  0
LINE
  5
24F
330
24A
100
AcDbEntity
  8
AM_5
440
 16777216
100
AcDbLine
 10
1355.43654074289
 20
229.9227722709193
 30
0.0
 11
1355.43654074289
 21
234.9227722709193
 31
0.0
  0
LINE
  5
250
330
24A
100
AcDbEntity
  8
AM_5
440
 16777216
100
AcDbLine
 10
1355.43654074289
 20
210.9227722709193
 30
0.0
 11
1355.43654074289
 21
224.9227722709193
 31
0.0
  0
SOLID
  5
251
330
24A
100
AcDbEntity
  8
AM_5
440
 16777216
100
AcDbTrace
 10
1354.603207409557
 20
205.9227722709193
 30
0.0
 11
1356.269874076224
 21
205.9227722709193
 31
0.0
 12
1355.43654074289
 22
210.9227722709193
 32
0.0
 13
1355.43654074289
 23
210.9227722709193
 33
0.0
  0
SOLID
  5
252
330
24A
100
AcDbEntity
  8
AM_5
440
 16777216
100
AcDbTrace
 10
1354.603207409557
 20
229.9227722709193
 30
0.0
 11
1356.269874076224
 21
229.9227722709193
 31
0.0
 12
1355.43654074289
 22
224.9227722709193
 32
0.0
 13
1355.43654074289
 23
224.9227722709193
 33
0.0
  0
MTEXT
  5
253
330
24A
100
AcDbEntity
  8
AM_5
 62
     3
440
 16777216
100
AcDbMText
 10
1348.93654074289
 20
217.9227722709196
 30
0.0
 40
7.0
 41
0.0
 71
     5
 72
     1
  1
14
 11
0.0000000000000001
 21
1.0
 31
0.0
 73
     1
 44
1.0
  0
POINT
  5
254
330
24A
100
AcDbEntity
  8
Defpoints
 62
     0
440
 16777216
100
AcDbPoint
 10
1335.43654074289
 20
210.9227722709194
 30
0.0
  0
POINT
  5
255
330
24A
100
AcDbEntity
  8
Defpoints
 62
     0
440
 16777216
100
AcDbPoint
 10
1335.43654074289
 20
224.9227722709194
 30
0.0
  0
POINT
  5
256
330
24A
100
AcDbEntity
  8
Defpoints
 62
     0
440
 16777216
100
AcDbPoint
 10
1355.43654074289
 20
224.9227722709193
 30
0.0
  0
ENDBLK
  5
257
330
24A
100
AcDbEntity
  8
0
100
AcDbBlockEnd
  0
BLOCK
  5
C1
330
C0
100
AcDbEntity
  8
0
100
AcDbBlockBegin
  2
*D4
 70
     1
 10
0.0
 20
0.0
 30
0.0
  3
*D4
  1

  0
LINE
  5
C2
330
C0
100
AcDbEntity
  8
AM_5
440
 16777216
100
AcDbLine
 10
1468.325688772259
 20
400.8317157769065
 30
0.0
 11
1468.325688772259
 21
413.2097629102323
 31
0.0
  0
LINE
  5
C3
330
C0
100
AcDbEntity
  8
AM_5
440
 16777216
100
AcDbLine
 10
1459.825688772259
 20
400.8317157769065
 30
0.0
 11
1459.825688772259
 21
413.2097629102323
 31
0.0
  0
LINE
  5
C4
330
C0
100
AcDbEntity
  8
AM_5
440
 16777216
100
AcDbLine
 10
1473.325688772259
 20
411.2097629102322
 30
0.0
 11
1478.325688772259
 21
411.2097629102322
 31
0.0
  0
LINE
  5
C5
330
C0
100
AcDbEntity
  8
AM_5
440
 16777216
100
AcDbLine
 10
1454.825688772259
 20
411.2097629102322
 30
0.0
 11
1433.735739278598
 21
411.2097629102322
 31
0.0
  0
LINE
  5
C6
330
C0
100
AcDbEntity
  8
AM_5
440
 16777216
100
AcDbLine
 10
1468.325688772259
 20
411.2097629102322
 30
0.0
 11
1459.825688772259
 21
411.2097629102322
 31
0.0
  0
SOLID
  5
C7
330
C0
100
AcDbEntity
  8
AM_5
440
 16777216
100
AcDbTrace
 10
1473.325688772259
 20
412.0430962435655
 30
0.0
 11
1473.325688772259
 21
410.3764295768989
 31
0.0
 12
1468.325688772259
 22
411.2097629102322
 32
0.0
 13
1468.325688772259
 23
411.2097629102322
 33
0.0
  0
SOLID
  5
C8
330
C0
100
AcDbEntity
  8
AM_5
440
 16777216
100
AcDbTrace
 10
1454.825688772259
 20
412.0430962435655
 30
0.0
 11
1454.825688772259
 21
410.3764295768989
 31
0.0
 12
1459.825688772259
 22
411.2097629102322
 32
0.0
 13
1459.825688772259
 23
411.2097629102322
 33
0.0
  0
MTEXT
  5
C9
330
C0
100
AcDbEntity
  8
AM_5
 62
     3
440
 16777216
100
AcDbMText
 10
1441.780714025429
 20
417.7097629102322
 30
0.0
 40
7.0
 41
0.0
 71
     5
 72
     1
  1
8.5
 73
     1
 44
1.0
  0
POINT
  5
CA
330
C0
100
AcDbEntity
  8
Defpoints
 62
     0
440
 16777216
100
AcDbPoint
 10
1468.325688772259
 20
400.8317157769065
 30
0.0
  0
POINT
  5
CB
330
C0
100
AcDbEntity
  8
Defpoints
 62
     0
440
 16777216
100
AcDbPoint
 10
1459.825688772259
 20
400.8317157769065
 30
0.0
  0
POINT
  5
CC
330
C0
100
AcDbEntity
  8
Defpoints
 62
     0
440
 16777216
100
AcDbPoint
 10
1459.825688772259
 20
411.2097629102322
 30
0.0
  0
ENDBLK
  5
CD
330
C0
100
AcDbEntity
  8
0
100
AcDbBlockEnd
  0
BLOCK
  5
9C
330
9B
100
AcDbEntity
  8
0
100
AcDbBlockBegin
  2
*D5
 70
     1
 10
0.0
 20
0.0
 30
0.0
  3
*D5
  1

  0
LINE
  5
9D
330
9B
100
AcDbEntity
  8
AM_5
440
 16777216
100
AcDbLine
 10
1473.225688772258
 20
478.8317157769061
 30
0.0
 11
1473.225688772258
 21
495.3346280117973
 31
0.0
  0
LINE
  5
9E
330
9B
100
AcDbEntity
  8
AM_5
440
 16777216
100
AcDbLine
 10
1459.225688772258
 20
482.8317157769062
 30
0.0
 11
1459.225688772258
 21
495.3346280117973
 31
0.0
  0
LINE
  5
9F
330
9B
100
AcDbEntity
  8
AM_5
440
 16777216
100
AcDbLine
 10
1478.225688772258
 20
493.3346280117973
 30
0.0
 11
1483.225688772258
 21
493.3346280117973
 31
0.0
  0
LINE
  5
A0
330
9B
100
AcDbEntity
  8
AM_5
440
 16777216
100
AcDbLine
 10
1454.225688772258
 20
493.3346280117973
 30
0.0
 11
1436.225688772258
 21
493.3346280117973
 31
0.0
  0
LINE
  5
A1
330
9B
100
AcDbEntity
  8
AM_5
440
 16777216
100
AcDbLine
 10
1473.225688772258
 20
493.3346280117973
 30
0.0
 11
1459.225688772258
 21
493.3346280117973
 31
0.0
  0
SOLID
  5
A2
330
9B
100
AcDbEntity
  8
AM_5
440
 16777216
100
AcDbTrace
 10
1478.225688772258
 20
494.1679613451306
 30
0.0
 11
1478.225688772258
 21
492.501294678464
 31
0.0
 12
1473.225688772258
 22
493.3346280117973
 32
0.0
 13
1473.225688772258
 23
493.3346280117973
 33
0.0
  0
SOLID
  5
A3
330
9B
100
AcDbEntity
  8
AM_5
440
 16777216
100
AcDbTrace
 10
1454.225688772258
 20
494.1679613451306
 30
0.0
 11
1454.225688772258
 21
492.501294678464
 31
0.0
 12
1459.225688772258
 22
493.3346280117973
 32
0.0
 13
1459.225688772258
 23
493.3346280117973
 33
0.0
  0
MTEXT
  5
A4
330
9B
100
AcDbEntity
  8
AM_5
 62
     3
440
 16777216
100
AcDbMText
 10
1442.725688772258
 20
499.8346280117973
 30
0.0
 40
7.0
 41
0.0
 71
     5
 72
     1
  1
14
 73
     1
 44
1.0
  0
POINT
  5
A5
330
9B
100
AcDbEntity
  8
Defpoints
 62
     0
440
 16777216
100
AcDbPoint
 10
1473.225688772258
 20
478.8317157769061
 30
0.0
  0
POINT
  5
A6
330
9B
100
AcDbEntity
  8
Defpoints
 62
     0
440
 16777216
100
AcDbPoint
 10
1459.225688772258
 20
482.8317157769062
 30
0.0
  0
POINT
  5
A7
330
9B
100
AcDbEntity
  8
Defpoints
 62
     0
440
 16777216
100
AcDbPoint
 10
1459.225688772258
 20
493.3346280117973
 30
0.0
  0
ENDBLK
  5
A8
330
9B
100
AcDbEntity
  8
0
100
AcDbBlockEnd
  0
BLOCK
  5
D8
330
D7
100
AcDbEntity
  8
0
100
AcDbBlockBegin
  2
*D6
 70
     1
 10
0.0
 20
0.0
 30
0.0
  3
*D6
  1

  0
LINE
  5
D9
330
D7
100
AcDbEntity
  8
AM_5
440
 16777216
100
AcDbLine
 10
1459.825688772259
 20
365.8317157769066
 30
0.0
 11
1459.825688772259
 21
356.2095838834366
 31
0.0
  0
LINE
  5
DA
330
D7
100
AcDbEntity
  8
AM_5
440
 16777216
100
AcDbLine
 10
1453.025688772259
 20
365.8317157769066
 30
0.0
 11
1453.025688772259
 21
356.2095838834366
 31
0.0
  0
LINE
  5
DB
330
D7
100
AcDbEntity
  8
AM_5
440
 16777216
100
AcDbLine
 10
1464.825688772259
 20
358.2095838834366
 30
0.0
 11
1469.825688772259
 21
358.2095838834366
 31
0.0
  0
LINE
  5
DC
330
D7
100
AcDbEntity
  8
AM_5
440
 16777216
100
AcDbLine
 10
1448.025688772259
 20
358.2095838834366
 30
0.0
 11
1409.309547039976
 21
358.2095838834366
 31
0.0
  0
LINE
  5
DD
330
D7
100
AcDbEntity
  8
AM_5
440
 16777216
100
AcDbLine
 10
1459.825688772259
 20
358.2095838834366
 30
0.0
 11
1453.025688772259
 21
358.2095838834366
 31
0.0
  0
SOLID
  5
DE
330
D7
100
AcDbEntity
  8
AM_5
440
 16777216
100
AcDbTrace
 10
1464.825688772259
 20
359.0429172167699
 30
0.0
 11
1464.825688772259
 21
357.3762505501033
 31
0.0
 12
1459.825688772259
 22
358.2095838834366
 32
0.0
 13
1459.825688772259
 23
358.2095838834366
 33
0.0
  0
SOLID
  5
DF
330
D7
100
AcDbEntity
  8
AM_5
440
 16777216
100
AcDbTrace
 10
1448.025688772259
 20
359.0429172167699
 30
0.0
 11
1448.025688772259
 21
357.3762505501033
 31
0.0
 12
1453.025688772259
 22
358.2095838834366
 32
0.0
 13
1453.025688772259
 23
358.2095838834366
 33
0.0
  0
MTEXT
  5
E0
330
D7
100
AcDbEntity
  8
AM_5
 62
     3
440
 16777216
100
AcDbMText
 10
1426.167617906117
 20
365.0595838834366
 30
0.0
 40
7.0
 41
0.0
 71
     5
 72
     1
  1
6.8(3.8)
 73
     1
 44
1.0
  0
POINT
  5
E1
330
D7
100
AcDbEntity
  8
Defpoints
 62
     0
440
 16777216
100
AcDbPoint
 10
1459.825688772259
 20
365.8317157769066
 30
0.0
  0
POINT
  5
E2
330
D7
100
AcDbEntity
  8
Defpoints
 62
     0
440
 16777216
100
AcDbPoint
 10
1453.025688772259
 20
365.8317157769066
 30
0.0
  0
POINT
  5
E3
330
D7
100
AcDbEntity
  8
Defpoints
 62
     0
440
 16777216
100
AcDbPoint
 10
1453.025688772259
 20
358.2095838834366
 30
0.0
  0
ENDBLK
  5
E4
330
D7
100
AcDbEntity
  8
0
100
AcDbBlockEnd
  0
BLOCK
  5
1F1
330
1F0
100
AcDbEntity
  8
0
100
AcDbBlockBegin
  2
*D7
 70
     1
 10
0.0
 20
0.0
 30
0.0
  3
*D7
  1

  0
LINE
  5
1F2
330
1F0
100
AcDbEntity
  8
AM_5
440
 16777216
100
AcDbLine
 10
1325.43654074289
 20
500.8317157769063
 30
0.0
 11
1390.43654074289
 21
500.8317157769063
 31
0.0
  0
LINE
  5
1F3
330
1F0
100
AcDbEntity
  8
AM_5
440
 16777216
100
AcDbLine
 10
1325.43654074289
 20
335.8317157769063
 30
0.0
 11
1390.43654074289
 21
335.8317157769063
 31
0.0
  0
LINE
  5
1F4
330
1F0
100
AcDbEntity
  8
AM_5
440
 16777216
100
AcDbLine
 10
1388.436540742891
 20
495.8317157769063
 30
0.0
 11
1388.436540742891
 21
340.8317157769063
 31
0.0
  0
SOLID
  5
1F5
330
1F0
100
AcDbEntity
  8
AM_5
440
 16777216
100
AcDbTrace
 10
1387.603207409557
 20
495.8317157769063
 30
0.0
 11
1389.269874076224
 21
495.8317157769063
 31
0.0
 12
1388.436540742891
 22
500.8317157769063
 32
0.0
 13
1388.436540742891
 23
500.8317157769063
 33
0.0
  0
SOLID
  5
1F6
330
1F0
100
AcDbEntity
  8
AM_5
440
 16777216
100
AcDbTrace
 10
1387.603207409557
 20
340.8317157769063
 30
0.0
 11
1389.269874076224
 21
340.8317157769063
 31
0.0
 12
1388.436540742891
 22
335.8317157769063
 32
0.0
 13
1388.436540742891
 23
335.8317157769063
 33
0.0
  0
MTEXT
  5
1F7
330
1F0
100
AcDbEntity
  8
AM_5
 62
     3
440
 16777216
100
AcDbMText
 10
1381.93654074289
 20
418.3317157769065
 30
0.0
 40
7.0
 41
0.0
 71
     5
 72
     1
  1
165
 11
0.0000000000000001
 21
1.0
 31
0.0
 73
     1
 44
1.0
  0
POINT
  5
1F8
330
1F0
100
AcDbEntity
  8
Defpoints
 62
     0
440
 16777216
100
AcDbPoint
 10
1325.43654074289
 20
500.8317157769063
 30
0.0
  0
POINT
  5
1F9
330
1F0
100
AcDbEntity
  8
Defpoints
 62
     0
440
 16777216
100
AcDbPoint
 10
1325.43654074289
 20
335.8317157769063
 30
0.0
  0
POINT
  5
1FA
330
1F0
100
AcDbEntity
  8
Defpoints
 62
     0
440
 16777216
100
AcDbPoint
 10
1388.436540742891
 20
335.8317157769063
 30
0.0
  0
ENDBLK
  5
1FB
330
1F0
100
AcDbEntity
  8
0
100
AcDbBlockEnd
  0
BLOCK
  5
B2
330
B1
100
AcDbEntity
  8
0
100
AcDbBlockBegin
  2
*D8
 70
     1
 10
0.0
 20
0.0
 30
0.0
  3
*D8
  1

  0
LINE
  5
B3
330
B1
100
AcDbEntity
  8
AM_5
440
 16777216
100
AcDbLine
 10
1459.225688772258
 20
450.8317157769063
 30
0.0
 11
1459.225688772258
 21
434.7316922570419
 31
0.0
  0
LINE
  5
B4
330
B1
100
AcDbEntity
  8
AM_5
440
 16777216
100
AcDbLine
 10
1453.025688772259
 20
436.633387815433
 30
0.0
 11
1453.025688772259
 21
438.7316922570419
 31
0.0
  0
LINE
  5
B5
330
B1
100
AcDbEntity
  8
AM_5
440
 16777216
100
AcDbLine
 10
1464.225688772258
 20
436.7316922570418
 30
0.0
 11
1469.225688772258
 21
436.7316922570418
 31
0.0
  0
LINE
  5
B6
330
B1
100
AcDbEntity
  8
AM_5
440
 16777216
100
AcDbLine
 10
1448.025688772259
 20
436.7316922570418
 30
0.0
 11
1409.309547039976
 21
436.7316922570418
 31
0.0
  0
LINE
  5
B7
330
B1
100
AcDbEntity
  8
AM_5
440
 16777216
100
AcDbLine
 10
1459.225688772258
 20
436.7316922570418
 30
0.0
 11
1453.025688772259
 21
436.7316922570418
 31
0.0
  0
SOLID
  5
B8
330
B1
100
AcDbEntity
  8
AM_5
440
 16777216
100
AcDbTrace
 10
1464.225688772258
 20
437.5650255903752
 30
0.0
 11
1464.225688772258
 21
435.8983589237086
 31
0.0
 12
1459.225688772258
 22
436.7316922570418
 32
0.0
 13
1459.225688772258
 23
436.7316922570418
 33
0.0
  0
SOLID
  5
B9
330
B1
100
AcDbEntity
  8
AM_5
440
 16777216
100
AcDbTrace
 10
1448.025688772259
 20
437.5650255903752
 30
0.0
 11
1448.025688772259
 21
435.8983589237086
 31
0.0
 12
1453.025688772259
 22
436.7316922570418
 32
0.0
 13
1453.025688772259
 23
436.7316922570418
 33
0.0
  0
MTEXT
  5
BA
330
B1
100
AcDbEntity
  8
AM_5
 62
     3
440
 16777216
100
AcDbMText
 10
1426.167617906117
 20
443.5816922570419
 30
0.0
 40
7.0
 41
0.0
 71
     5
 72
     1
  1
6.2(3.2)
 73
     1
 44
1.0
  0
POINT
  5
BB
330
B1
100
AcDbEntity
  8
Defpoints
 62
     0
440
 16777216
100
AcDbPoint
 10
1459.225688772258
 20
450.8317157769063
 30
0.0
  0
POINT
  5
BC
330
B1
100
AcDbEntity
  8
Defpoints
 62
     0
440
 16777216
100
AcDbPoint
 10
1453.025688772259
 20
436.633387815433
 30
0.0
  0
POINT
  5
BD
330
B1
100
AcDbEntity
  8
Defpoints
 62
     0
440
 16777216
100
AcDbPoint
 10
1453.025688772259
 20
436.7316922570418
 30
0.0
  0
ENDBLK
  5
BE
330
B1
100
AcDbEntity
  8
0
100
AcDbBlockEnd
  0
BLOCK
  5
139
330
138
100
AcDbEntity
  8
0
100
AcDbBlockBegin
  2
*D9
 70
     1
 10
0.0
 20
0.0
 30
0.0
  3
*D9
  1

  0
LINE
  5
13A
330
138
100
AcDbEntity
  8
AM_5
440
 16777216
100
AcDbLine
 10
1284.436540742891
 20
391.5353813114673
 30
0.0
 11
1284.436540742891
 21
385.2246235560972
 31
0.0
  0
LINE
  5
13B
330
138
100
AcDbEntity
  8
AM_5
440
 16777216
100
AcDbLine
 10
1322.436540742891
 20
391.5353813114673
 30
0.0
 11
1322.436540742891
 21
385.2246235560972
 31
0.0
  0
LINE
  5
13C
330
138
100
AcDbEntity
  8
AM_5
440
 16777216
100
AcDbLine
 10
1289.43654074289
 20
387.2246235560972
 30
0.0
 11
1317.43654074289
 21
387.2246235560972
 31
0.0
  0
SOLID
  5
13D
330
138
100
AcDbEntity
  8
AM_5
440
 16777216
100
AcDbTrace
 10
1289.43654074289
 20
388.0579568894305
 30
0.0
 11
1289.43654074289
 21
386.3912902227639
 31
0.0
 12
1284.436540742891
 22
387.2246235560972
 32
0.0
 13
1284.436540742891
 23
387.2246235560972
 33
0.0
  0
SOLID
  5
13E
330
138
100
AcDbEntity
  8
AM_5
440
 16777216
100
AcDbTrace
 10
1317.43654074289
 20
388.0579568894305
 30
0.0
 11
1317.43654074289
 21
386.3912902227639
 31
0.0
 12
1322.436540742891
 22
387.2246235560972
 32
0.0
 13
1322.436540742891
 23
387.2246235560972
 33
0.0
  0
MTEXT
  5
13F
330
138
100
AcDbEntity
  8
AM_5
 62
     3
440
 16777216
100
AcDbMText
 10
1303.436540742891
 20
393.7246235560972
 30
0.0
 40
7.0
 41
0.0
 71
     5
 72
     1
  1
38
 73
     1
 44
1.0
  0
POINT
  5
140
330
138
100
AcDbEntity
  8
Defpoints
 62
     0
440
 16777216
100
AcDbPoint
 10
1284.436540742891
 20
391.5353813114673
 30
0.0
  0
POINT
  5
141
330
138
100
AcDbEntity
  8
Defpoints
 62
     0
440
 16777216
100
AcDbPoint
 10
1322.436540742891
 20
391.5353813114673
 30
0.0
  0
POINT
  5
142
330
138
100
AcDbEntity
  8
Defpoints
 62
     0
440
 16777216
100
AcDbPoint
 10
1322.436540742891
 20
387.2246235560972
 30
0.0
  0
ENDBLK
  5
143
330
138
100
AcDbEntity
  8
0
100
AcDbBlockEnd
  0
BLOCK
  5
23C
330
23B
100
AcDbEntity
  8
0
100
AcDbBlockBegin
  2
*D10
 70
     1
 10
0.0
 20
0.0
 30
0.0
  3
*D10
  1

  0
LINE
  5
23D
330
23B
100
AcDbEntity
  8
AM_5
440
 16777216
100
AcDbLine
 10
1313.93654074289
 20
210.1727722709194
 30
0.0
 11
1373.436540742891
 21
210.1727722709193
 31
0.0
  0
LINE
  5
23E
330
23B
100
AcDbEntity
  8
AM_5
440
 16777216
100
AcDbLine
 10
1313.936540742891
 20
225.6727722709193
 30
0.0
 11
1373.436540742891
 21
225.6727722709193
 31
0.0
  0
LINE
  5
23F
330
23B
100
AcDbEntity
  8
AM_5
440
 16777216
100
AcDbLine
 10
1371.436540742891
 20
205.1727722709193
 30
0.0
 11
1371.436540742891
 21
200.1727722709193
 31
0.0
  0
LINE
  5
240
330
23B
100
AcDbEntity
  8
AM_5
440
 16777216
100
AcDbLine
 10
1371.436540742891
 20
230.6727722709193
 30
0.0
 11
1371.436540742891
 21
255.2627217645805
 31
0.0
  0
LINE
  5
241
330
23B
100
AcDbEntity
  8
AM_5
440
 16777216
100
AcDbLine
 10
1371.436540742891
 20
210.1727722709193
 30
0.0
 11
1371.436540742891
 21
225.6727722709193
 31
0.0
  0
SOLID
  5
242
330
23B
100
AcDbEntity
  8
AM_5
440
 16777216
100
AcDbTrace
 10
1370.603207409557
 20
205.1727722709193
 30
0.0
 11
1372.269874076224
 21
205.1727722709193
 31
0.0
 12
1371.436540742891
 22
210.1727722709193
 32
0.0
 13
1371.436540742891
 23
210.1727722709193
 33
0.0
  0
SOLID
  5
243
330
23B
100
AcDbEntity
  8
AM_5
440
 16777216
100
AcDbTrace
 10
1370.603207409557
 20
230.6727722709193
 30
0.0
 11
1372.269874076224
 21
230.6727722709193
 31
0.0
 12
1371.436540742891
 22
225.6727722709193
 32
0.0
 13
1371.436540742891
 23
225.6727722709193
 33
0.0
  0
MTEXT
  5
244
330
23B
100
AcDbEntity
  8
AM_5
 62
     3
440
 16777216
100
AcDbMText
 10
1364.93654074289
 20
245.4677470177501
 30
0.0
 40
7.0
 41
0.0
 71
     5
 72
     1
  1
15.5
 11
0.0000000000000001
 21
1.0
 31
0.0
 73
     1
 44
1.0
  0
POINT
  5
245
330
23B
100
AcDbEntity
  8
Defpoints
 62
     0
440
 16777216
100
AcDbPoint
 10
1313.93654074289
 20
210.1727722709194
 30
0.0
  0
POINT
  5
246
330
23B
100
AcDbEntity
  8
Defpoints
 62
     0
440
 16777216
100
AcDbPoint
 10
1313.936540742891
 20
225.6727722709193
 30
0.0
  0
POINT
  5
247
330
23B
100
AcDbEntity
  8
Defpoints
 62
     0
440
 16777216
100
AcDbPoint
 10
1371.436540742891
 20
225.6727722709193
 30
0.0
  0
ENDBLK
  5
248
330
23B
100
AcDbEntity
  8
0
100
AcDbBlockEnd
  0
BLOCK
  5
25A
330
259
100
AcDbEntity
  8
0
100
AcDbBlockBegin
  2
*D11
 70
     1
 10
0.0
 20
0.0
 30
0.0
  3
*D11
  1

  0
LINE
  5
25B
330
259
100
AcDbEntity
  8
AM_5
440
 16777216
100
AcDbLine
 10
1336.43654074289
 20
345.8317157769063
 30
0.0
 11
1336.43654074289
 21
278.8317157769063
 31
0.0
  0
LINE
  5
25C
330
259
100
AcDbEntity
  8
AM_5
440
 16777216
100
AcDbLine
 10
1303.436540742891
 20
346.4317157769063
 30
0.0
 11
1303.436540742891
 21
278.8317157769063
 31
0.0
  0
LINE
  5
25D
330
259
100
AcDbEntity
  8
AM_5
440
 16777216
100
AcDbLine
 10
1331.43654074289
 20
280.8317157769063
 30
0.0
 11
1308.436540742891
 21
280.8317157769063
 31
0.0
  0
SOLID
  5
25E
330
259
100
AcDbEntity
  8
AM_5
440
 16777216
100
AcDbTrace
 10
1331.43654074289
 20
281.6650491102397
 30
0.0
 11
1331.43654074289
 21
279.998382443573
 31
0.0
 12
1336.43654074289
 22
280.8317157769063
 32
0.0
 13
1336.43654074289
 23
280.8317157769063
 33
0.0
  0
SOLID
  5
25F
330
259
100
AcDbEntity
  8
AM_5
440
 16777216
100
AcDbTrace
 10
1308.436540742891
 20
281.6650491102397
 30
0.0
 11
1308.436540742891
 21
279.998382443573
 31
0.0
 12
1303.436540742891
 22
280.8317157769063
 32
0.0
 13
1303.436540742891
 23
280.8317157769063
 33
0.0
  0
MTEXT
  5
260
330
259
100
AcDbEntity
  8
AM_5
 62
     3
440
 16777216
100
AcDbMText
 10
1319.93654074289
 20
287.3317157769063
 30
0.0
 40
7.0
 41
0.0
 71
     5
 72
     1
  1
33
 73
     1
 44
1.0
  0
POINT
  5
261
330
259
100
AcDbEntity
  8
Defpoints
 62
     0
440
 16777216
100
AcDbPoint
 10
1336.43654074289
 20
345.8317157769063
 30
0.0
  0
POINT
  5
262
330
259
100
AcDbEntity
  8
Defpoints
 62
     0
440
 16777216
100
AcDbPoint
 10
1303.436540742891
 20
346.4317157769063
 30
0.0
  0
POINT
  5
263
330
259
100
AcDbEntity
  8
Defpoints
 62
     0
440
 16777216
100
AcDbPoint
 10
1303.436540742891
 20
280.8317157769063
 30
0.0
  0
ENDBLK
  5
264
330
259
100
AcDbEntity
  8
0
100
AcDbBlockEnd
  0
BLOCK
  5
1A1
330
1A0
100
AcDbEntity
  8
0
100
AcDbBlockBegin
  2
*D12
 70
     1
 10
0.0
 20
0.0
 30
0.0
  3
*D12
  1

  0
LINE
  5
1A2
330
1A0
100
AcDbEntity
  8
AM_5
440
 16777216
100
AcDbLine
 10
1325.43654074289
 20
500.8317157769063
 30
0.0
 11
1390.43654074289
 21
500.8317157769063
 31
0.0
  0
LINE
  5
1A3
330
1A0
100
AcDbEntity
  8
AM_5
440
 16777216
100
AcDbLine
 10
1241.436540742891
 20
535.8317157769063
 30
0.0
 11
1390.43654074289
 21
535.8317157769062
 31
0.0
  0
LINE
  5
1A4
330
1A0
100
AcDbEntity
  8
AM_5
440
 16777216
100
AcDbLine
 10
1388.43654074289
 20
505.8317157769063
 30
0.0
 11
1388.436540742891
 21
530.8317157769062
 31
0.0
  0
SOLID
  5
1A5
330
1A0
100
AcDbEntity
  8
AM_5
440
 16777216
100
AcDbTrace
 10
1387.603207409557
 20
505.8317157769063
 30
0.0
 11
1389.269874076223
 21
505.8317157769063
 31
0.0
 12
1388.43654074289
 22
500.8317157769063
 32
0.0
 13
1388.43654074289
 23
500.8317157769063
 33
0.0
  0
SOLID
  5
1A6
330
1A0
100
AcDbEntity
  8
AM_5
440
 16777216
100
AcDbTrace
 10
1387.603207409557
 20
530.8317157769062
 30
0.0
 11
1389.269874076224
 21
530.8317157769062
 31
0.0
 12
1388.436540742891
 22
535.8317157769062
 32
0.0
 13
1388.436540742891
 23
535.8317157769062
 33
0.0
  0
MTEXT
  5
1A7
330
1A0
100
AcDbEntity
  8
AM_5
 62
     3
440
 16777216
100
AcDbMText
 10
1381.93654074289
 20
518.3317157769064
 30
0.0
 40
7.0
 41
0.0
 71
     5
 72
     1
  1
35
 11
0.0000000000000001
 21
1.0
 31
0.0
 73
     1
 44
1.0
  0
POINT
  5
1A8
330
1A0
100
AcDbEntity
  8
Defpoints
 62
     0
440
 16777216
100
AcDbPoint
 10
1325.43654074289
 20
500.8317157769063
 30
0.0
  0
POINT
  5
1A9
330
1A0
100
AcDbEntity
  8
Defpoints
 62
     0
440
 16777216
100
AcDbPoint
 10
1241.436540742891
 20
535.8317157769063
 30
0.0
  0
POINT
  5
1AA
330
1A0
100
AcDbEntity
  8
Defpoints
 62
     0
440
 16777216
100
AcDbPoint
 10
1388.436540742891
 20
535.8317157769062
 30
0.0
  0
ENDBLK
  5
1AB
330
1A0
100
AcDbEntity
  8
0
100
AcDbBlockEnd
  0
BLOCK
  5
1AE
330
1AD
100
AcDbEntity
  8
0
100
AcDbBlockBegin
  2
*D13
 70
     1
 10
0.0
 20
0.0
 30
0.0
  3
*D13
  1

  0
LINE
  5
1AF
330
1AD
100
AcDbEntity
  8
AM_5
440
 16777216
100
AcDbLine
 10
1303.436540742891
 20
365.8317157769063
 30
0.0
 11
1374.43654074289
 21
365.8317157769063
 31
0.0
  0
LINE
  5
1B0
330
1AD
100
AcDbEntity
  8
AM_5
440
 16777216
100
AcDbLine
 10
1322.436540742891
 20
357.8317157769063
 30
0.0
 11
1374.43654074289
 21
357.8317157769063
 31
0.0
  0
LINE
  5
1B1
330
1AD
100
AcDbEntity
  8
AM_5
440
 16777216
100
AcDbLine
 10
1372.436540742891
 20
370.8317157769063
 30
0.0
 11
1372.436540742891
 21
375.8317157769063
 31
0.0
  0
LINE
  5
1B2
330
1AD
100
AcDbEntity
  8
AM_5
440
 16777216
100
AcDbLine
 10
1372.436540742891
 20
352.8317157769063
 30
0.0
 11
1372.436540742891
 21
339.0317157769063
 31
0.0
  0
LINE
  5
1B3
330
1AD
100
AcDbEntity
  8
AM_5
440
 16777216
100
AcDbLine
 10
1372.436540742891
 20
365.8317157769063
 30
0.0
 11
1372.436540742891
 21
357.8317157769063
 31
0.0
  0
SOLID
  5
1B4
330
1AD
100
AcDbEntity
  8
AM_5
440
 16777216
100
AcDbTrace
 10
1371.603207409557
 20
370.8317157769063
 30
0.0
 11
1373.269874076224
 21
370.8317157769063
 31
0.0
 12
1372.436540742891
 22
365.8317157769063
 32
0.0
 13
1372.436540742891
 23
365.8317157769063
 33
0.0
  0
SOLID
  5
1B5
330
1AD
100
AcDbEntity
  8
AM_5
440
 16777216
100
AcDbTrace
 10
1371.603207409557
 20
352.8317157769063
 30
0.0
 11
1373.269874076224
 21
352.8317157769063
 31
0.0
 12
1372.436540742891
 22
357.8317157769063
 32
0.0
 13
1372.436540742891
 23
357.8317157769063
 33
0.0
  0
MTEXT
  5
1B6
330
1AD
100
AcDbEntity
  8
AM_5
 62
     3
440
 16777216
100
AcDbMText
 10
1365.936540742891
 20
343.4317157769066
 30
0.0
 40
7.0
 41
0.0
 71
     5
 72
     1
  1
8
 11
0.0000000000000001
 21
1.0
 31
0.0
 73
     1
 44
1.0
  0
POINT
  5
1B7
330
1AD
100
AcDbEntity
  8
Defpoints
 62
     0
440
 16777216
100
AcDbPoint
 10
1303.436540742891
 20
365.8317157769063
 30
0.0
  0
POINT
  5
1B8
330
1AD
100
AcDbEntity
  8
Defpoints
 62
     0
440
 16777216
100
AcDbPoint
 10
1322.436540742891
 20
357.8317157769063
 30
0.0
  0
POINT
  5
1B9
330
1AD
100
AcDbEntity
  8
Defpoints
 62
     0
440
 16777216
100
AcDbPoint
 10
1372.436540742891
 20
357.8317157769063
 30
0.0
  0
ENDBLK
  5
1BA
330
1AD
100
AcDbEntity
  8
0
100
AcDbBlockEnd
  0
BLOCK
  5
1BD
330
1BC
100
AcDbEntity
  8
0
100
AcDbBlockBegin
  2
*D14
 70
     1
 10
0.0
 20
0.0
 30
0.0
  3
*D14
  1

  0
LINE
  5
1BE
330
1BC
100
AcDbEntity
  8
AM_5
440
 16777216
100
AcDbLine
 10
1326.18654074099
 20
437.8317157769063
 30
0.0
 11
1374.43654074289
 21
437.8317157769063
 31
0.0
  0
LINE
  5
1BF
330
1BC
100
AcDbEntity
  8
AM_5
440
 16777216
100
AcDbLine
 10
1303.436540742891
 20
365.8317157769063
 30
0.0
 11
1374.43654074289
 21
365.8317157769063
 31
0.0
  0
LINE
  5
1C0
330
1BC
100
AcDbEntity
  8
AM_5
440
 16777216
100
AcDbLine
 10
1372.436540742891
 20
432.8317157769062
 30
0.0
 11
1372.436540742891
 21
370.8317157769063
 31
0.0
  0
SOLID
  5
1C1
330
1BC
100
AcDbEntity
  8
AM_5
440
 16777216
100
AcDbTrace
 10
1371.603207409557
 20
432.8317157769062
 30
0.0
 11
1373.269874076224
 21
432.8317157769062
 31
0.0
 12
1372.436540742891
 22
437.8317157769063
 32
0.0
 13
1372.436540742891
 23
437.8317157769063
 33
0.0
  0
SOLID
  5
1C2
330
1BC
100
AcDbEntity
  8
AM_5
440
 16777216
100
AcDbTrace
 10
1371.603207409557
 20
370.8317157769063
 30
0.0
 11
1373.269874076224
 21
370.8317157769063
 31
0.0
 12
1372.436540742891
 22
365.8317157769063
 32
0.0
 13
1372.436540742891
 23
365.8317157769063
 33
0.0
  0
MTEXT
  5
1C3
330
1BC
100
AcDbEntity
  8
AM_5
 62
     3
440
 16777216
100
AcDbMText
 10
1365.935851766512
 20
401.8317157769065
 30
0.0
 40
7.0
 41
0.0
 71
     5
 72
     1
  1
72
 11
0.0000000000000001
 21
1.0
 31
0.0
 73
     1
 44
1.0
  0
POINT
  5
1C4
330
1BC
100
AcDbEntity
  8
Defpoints
 62
     0
440
 16777216
100
AcDbPoint
 10
1326.18654074099
 20
437.8317157769063
 30
0.0
  0
POINT
  5
1C5
330
1BC
100
AcDbEntity
  8
Defpoints
 62
     0
440
 16777216
100
AcDbPoint
 10
1303.436540742891
 20
365.8317157769063
 30
0.0
  0
POINT
  5
1C6
330
1BC
100
AcDbEntity
  8
Defpoints
 62
     0
440
 16777216
100
AcDbPoint
 10
1372.436540742891
 20
365.8317157769063
 30
0.0
  0
ENDBLK
  5
1C7
330
1BC
100
AcDbEntity
  8
0
100
AcDbBlockEnd
  0
BLOCK
  5
1CA
330
1C9
100
AcDbEntity
  8
0
100
AcDbBlockBegin
  2
*D15
 70
     1
 10
0.0
 20
0.0
 30
0.0
  3
*D15
  1

  0
LINE
  5
1CB
330
1C9
100
AcDbEntity
  8
AM_5
440
 16777216
100
AcDbLine
 10
1241.436540742891
 20
535.8317157769063
 30
0.0
 11
1374.436540742891
 21
535.8317157769062
 31
0.0
  0
LINE
  5
1CC
330
1C9
100
AcDbEntity
  8
AM_5
440
 16777216
100
AcDbLine
 10
1326.18654074099
 20
437.8317157769063
 30
0.0
 11
1374.43654074289
 21
437.8317157769063
 31
0.0
  0
LINE
  5
1CD
330
1C9
100
AcDbEntity
  8
AM_5
440
 16777216
100
AcDbLine
 10
1372.436540742891
 20
530.8317157769062
 30
0.0
 11
1372.436540742891
 21
442.8317157769063
 31
0.0
  0
SOLID
  5
1CE
330
1C9
100
AcDbEntity
  8
AM_5
440
 16777216
100
AcDbTrace
 10
1371.603207409557
 20
530.8317157769062
 30
0.0
 11
1373.269874076224
 21
530.8317157769062
 31
0.0
 12
1372.436540742891
 22
535.8317157769062
 32
0.0
 13
1372.436540742891
 23
535.8317157769062
 33
0.0
  0
SOLID
  5
1CF
330
1C9
100
AcDbEntity
  8
AM_5
440
 16777216
100
AcDbTrace
 10
1371.603207409557
 20
442.8317157769063
 30
0.0
 11
1373.269874076224
 21
442.8317157769063
 31
0.0
 12
1372.436540742891
 22
437.8317157769063
 32
0.0
 13
1372.436540742891
 23
437.8317157769063
 33
0.0
  0
MTEXT
  5
1D0
330
1C9
100
AcDbEntity
  8
AM_5
 62
     3
440
 16777216
100
AcDbMText
 10
1365.936540742891
 20
486.8317157769064
 30
0.0
 40
7.0
 41
0.0
 71
     5
 72
     1
  1
98
 11
0.0000000000000001
 21
1.0
 31
0.0
 73
     1
 44
1.0
  0
POINT
  5
1D1
330
1C9
100
AcDbEntity
  8
Defpoints
 62
     0
440
 16777216
100
AcDbPoint
 10
1241.436540742891
 20
535.8317157769063
 30
0.0
  0
POINT
  5
1D2
330
1C9
100
AcDbEntity
  8
Defpoints
 62
     0
440
 16777216
100
AcDbPoint
 10
1326.18654074099
 20
437.8317157769063
 30
0.0
  0
POINT
  5
1D3
330
1C9
100
AcDbEntity
  8
Defpoints
 62
     0
440
 16777216
100
AcDbPoint
 10
1372.436540742891
 20
437.8317157769063
 30
0.0
  0
ENDBLK
  5
1D4
330
1C9
100
AcDbEntity
  8
0
100
AcDbBlockEnd
  0
BLOCK
  5
1D7
330
1D6
100
AcDbEntity
  8
0
100
AcDbBlockBegin
  2
*D16
 70
     1
 10
0.0
 20
0.0
 30
0.0
  3
*D16
  1

  0
LINE
  5
1D8
330
1D6
100
AcDbEntity
  8
AM_5
440
 16777216
100
AcDbLine
 10
1303.436540742891
 20
416.3317157769062
 30
0.0
 11
1358.43654074289
 21
416.3317157769062
 31
0.0
  0
LINE
  5
1D9
330
1D6
100
AcDbEntity
  8
AM_5
440
 16777216
100
AcDbLine
 10
1322.436540742891
 20
437.8317157769063
 30
0.0
 11
1358.43654074289
 21
437.8317157769063
 31
0.0
  0
LINE
  5
1DA
330
1D6
100
AcDbEntity
  8
AM_5
440
 16777216
100
AcDbLine
 10
1356.436540742891
 20
421.3317157769063
 30
0.0
 11
1356.436540742891
 21
432.8317157769062
 31
0.0
  0
SOLID
  5
1DB
330
1D6
100
AcDbEntity
  8
AM_5
440
 16777216
100
AcDbTrace
 10
1355.603207409557
 20
421.3317157769063
 30
0.0
 11
1357.269874076224
 21
421.3317157769063
 31
0.0
 12
1356.436540742891
 22
416.3317157769062
 32
0.0
 13
1356.436540742891
 23
416.3317157769062
 33
0.0
  0
SOLID
  5
1DC
330
1D6
100
AcDbEntity
  8
AM_5
440
 16777216
100
AcDbTrace
 10
1355.603207409557
 20
432.8317157769062
 30
0.0
 11
1357.269874076224
 21
432.8317157769062
 31
0.0
 12
1356.436540742891
 22
437.8317157769063
 32
0.0
 13
1356.436540742891
 23
437.8317157769063
 33
0.0
  0
MTEXT
  5
1DD
330
1D6
100
AcDbEntity
  8
AM_5
 62
     3
440
 16777216
100
AcDbMText
 10
1349.935851766512
 20
427.0817157769065
 30
0.0
 40
7.0
 41
0.0
 71
     5
 72
     1
  1
21.5
 11
0.0000000000000001
 21
1.0
 31
0.0
 73
     1
 44
1.0
  0
POINT
  5
1DE
330
1D6
100
AcDbEntity
  8
Defpoints
 62
     0
440
 16777216
100
AcDbPoint
 10
1303.436540742891
 20
416.3317157769062
 30
0.0
  0
POINT
  5
1DF
330
1D6
100
AcDbEntity
  8
Defpoints
 62
     0
440
 16777216
100
AcDbPoint
 10
1322.436540742891
 20
437.8317157769063
 30
0.0
  0
POINT
  5
1E0
330
1D6
100
AcDbEntity
  8
Defpoints
 62
     0
440
 16777216
100
AcDbPoint
 10
1356.436540742891
 20
437.8317157769063
 30
0.0
  0
ENDBLK
  5
1E1
330
1D6
100
AcDbEntity
  8
0
100
AcDbBlockEnd
  0
BLOCK
  5
1E4
330
1E3
100
AcDbEntity
  8
0
100
AcDbBlockBegin
  2
*D17
 70
     1
 10
0.0
 20
0.0
 30
0.0
  3
*D17
  1

  0
LINE
  5
1E5
330
1E3
100
AcDbEntity
  8
AM_5
440
 16777216
100
AcDbLine
 10
1322.436540742891
 20
437.8317157769063
 30
0.0
 11
1358.43654074289
 21
437.8317157769063
 31
0.0
  0
LINE
  5
1E6
330
1E3
100
AcDbEntity
  8
AM_5
440
 16777216
100
AcDbLine
 10
1303.436540742891
 20
483.8317157769064
 30
0.0
 11
1358.43654074289
 21
483.8317157769064
 31
0.0
  0
LINE
  5
1E7
330
1E3
100
AcDbEntity
  8
AM_5
440
 16777216
100
AcDbLine
 10
1356.436540742891
 20
442.8317157769063
 30
0.0
 11
1356.436540742891
 21
478.8317157769064
 31
0.0
  0
SOLID
  5
1E8
330
1E3
100
AcDbEntity
  8
AM_5
440
 16777216
100
AcDbTrace
 10
1355.603207409557
 20
442.8317157769063
 30
0.0
 11
1357.269874076224
 21
442.8317157769063
 31
0.0
 12
1356.436540742891
 22
437.8317157769063
 32
0.0
 13
1356.436540742891
 23
437.8317157769063
 33
0.0
  0
SOLID
  5
1E9
330
1E3
100
AcDbEntity
  8
AM_5
440
 16777216
100
AcDbTrace
 10
1355.603207409557
 20
478.8317157769064
 30
0.0
 11
1357.269874076224
 21
478.8317157769064
 31
0.0
 12
1356.436540742891
 22
483.8317157769064
 32
0.0
 13
1356.436540742891
 23
483.8317157769064
 33
0.0
  0
MTEXT
  5
1EA
330
1E3
100
AcDbEntity
  8
AM_5
 62
     3
440
 16777216
100
AcDbMText
 10
1349.936540742891
 20
460.8317157769065
 30
0.0
 40
7.0
 41
0.0
 71
     5
 72
     1
  1
46
 11
0.0000000000000001
 21
1.0
 31
0.0
 73
     1
 44
1.0
  0
POINT
  5
1EB
330
1E3
100
AcDbEntity
  8
Defpoints
 62
     0
440
 16777216
100
AcDbPoint
 10
1322.436540742891
 20
437.8317157769063
 30
0.0
  0
POINT
  5
1EC
330
1E3
100
AcDbEntity
  8
Defpoints
 62
     0
440
 16777216
100
AcDbPoint
 10
1303.436540742891
 20
483.8317157769064
 30
0.0
  0
POINT
  5
1ED
330
1E3
100
AcDbEntity
  8
Defpoints
 62
     0
440
 16777216
100
AcDbPoint
 10
1356.436540742891
 20
483.8317157769064
 30
0.0
  0
ENDBLK
  5
1EE
330
1E3
100
AcDbEntity
  8
0
100
AcDbBlockEnd
  0
BLOCK
  5
267
330
266
100
AcDbEntity
  8
0
100
AcDbBlockBegin
  2
*D18
 70
     1
 10
0.0
 20
0.0
 30
0.0
  3
*D18
  1

  0
LINE
  5
268
330
266
100
AcDbEntity
  8
AM_5
440
 16777216
100
AcDbLine
 10
1303.436540742891
 20
346.4317157769063
 30
0.0
 11
1303.436540742891
 21
278.8317157769063
 31
0.0
  0
LINE
  5
269
330
266
100
AcDbEntity
  8
AM_5
440
 16777216
100
AcDbLine
 10
1238.436540742891
 20
300.8317157769063
 30
0.0
 11
1238.436540742891
 21
278.8317157769063
 31
0.0
  0
LINE
  5
26A
330
266
100
AcDbEntity
  8
AM_5
440
 16777216
100
AcDbLine
 10
1298.436540742891
 20
280.8317157769063
 30
0.0
 11
1243.43654074289
 21
280.8317157769063
 31
0.0
  0
SOLID
  5
26B
330
266
100
AcDbEntity
  8
AM_5
440
 16777216
100
AcDbTrace
 10
1298.436540742891
 20
281.6650491102397
 30
0.0
 11
1298.436540742891
 21
279.998382443573
 31
0.0
 12
1303.436540742891
 22
280.8317157769063
 32
0.0
 13
1303.436540742891
 23
280.8317157769063
 33
0.0
  0
SOLID
  5
26C
330
266
100
AcDbEntity
  8
AM_5
440
 16777216
100
AcDbTrace
 10
1243.43654074289
 20
281.6650491102397
 30
0.0
 11
1243.43654074289
 21
279.998382443573
 31
0.0
 12
1238.436540742891
 22
280.8317157769063
 32
0.0
 13
1238.436540742891
 23
280.8317157769063
 33
0.0
  0
MTEXT
  5
26D
330
266
100
AcDbEntity
  8
AM_5
 62
     3
440
 16777216
100
AcDbMText
 10
1270.93654074289
 20
287.3803963306904
 30
0.0
 40
7.0
 41
0.0
 71
     5
 72
     1
  1
Dornmaß
 73
     1
 44
1.0
  0
POINT
  5
26E
330
266
100
AcDbEntity
  8
Defpoints
 62
     0
440
 16777216
100
AcDbPoint
 10
1303.436540742891
 20
346.4317157769063
 30
0.0
  0
POINT
  5
26F
330
266
100
AcDbEntity
  8
Defpoints
 62
     0
440
 16777216
100
AcDbPoint
 10
1238.436540742891
 20
300.8317157769063
 30
0.0
  0
POINT
  5
270
330
266
100
AcDbEntity
  8
Defpoints
 62
     0
440
 16777216
100
AcDbPoint
 10
1238.436540742891
 20
280.8317157769063
 30
0.0
  0
ENDBLK
  5
271
330
266
100
AcDbEntity
  8
0
100
AcDbBlockEnd
  0
BLOCK
  5
22D
330
22C
100
AcDbEntity
  8
0
100
AcDbBlockBegin
  2
*D19
 70
     1
 10
0.0
 20
0.0
 30
0.0
  3
*D19
  1

  0
LINE
  5
22E
330
22C
100
AcDbEntity
  8
AM_5
440
 16777216
100
AcDbLine
 10
1241.43654074289
 20
224.9227722709194
 30
0.0
 11
1255.967899796466
 21
224.9227722709194
 31
0.0
  0
LINE
  5
22F
330
22C
100
AcDbEntity
  8
AM_5
440
 16777216
100
AcDbLine
 10
1241.43654074289
 20
228.9227722709194
 30
0.0
 11
1255.967899796466
 21
228.9227722709194
 31
0.0
  0
LINE
  5
230
330
22C
100
AcDbEntity
  8
AM_5
440
 16777216
100
AcDbLine
 10
1253.967899796466
 20
219.9227722709193
 30
0.0
 11
1253.967899796466
 21
214.9227722709194
 31
0.0
  0
LINE
  5
231
330
22C
100
AcDbEntity
  8
AM_5
440
 16777216
100
AcDbLine
 10
1253.967899796466
 20
233.9227722709193
 30
0.0
 11
1253.967899796466
 21
257.5200163654076
 31
0.0
  0
LINE
  5
232
330
22C
100
AcDbEntity
  8
AM_5
440
 16777216
100
AcDbLine
 10
1253.967899796466
 20
224.9227722709194
 30
0.0
 11
1253.967899796466
 21
228.9227722709194
 31
0.0
  0
SOLID
  5
233
330
22C
100
AcDbEntity
  8
AM_5
440
 16777216
100
AcDbTrace
 10
1253.134566463133
 20
219.9227722709193
 30
0.0
 11
1254.8012331298
 21
219.9227722709193
 31
0.0
 12
1253.967899796466
 22
224.9227722709194
 32
0.0
 13
1253.967899796466
 23
224.9227722709194
 33
0.0
  0
SOLID
  5
234
330
22C
100
AcDbEntity
  8
AM_5
440
 16777216
100
AcDbTrace
 10
1253.134566463133
 20
233.9227722709193
 30
0.0
 11
1254.8012331298
 21
233.9227722709193
 31
0.0
 12
1253.967899796466
 22
228.9227722709194
 32
0.0
 13
1253.967899796466
 23
228.9227722709194
 33
0.0
  0
MTEXT
  5
235
330
22C
100
AcDbEntity
  8
AM_5
 62
     3
440
 16777216
100
AcDbMText
 10
1247.117899796467
 20
248.2213943181637
 30
0.0
 40
7.0
 41
0.0
 71
     5
 72
     1
  1
4(1)
 11
0.0000000000000001
 21
1.0
 31
0.0
 73
     1
 44
1.0
  0
POINT
  5
236
330
22C
100
AcDbEntity
  8
Defpoints
 62
     0
440
 16777216
100
AcDbPoint
 10
1241.43654074289
 20
224.9227722709194
 30
0.0
  0
POINT
  5
237
330
22C
100
AcDbEntity
  8
Defpoints
 62
     0
440
 16777216
100
AcDbPoint
 10
1241.43654074289
 20
228.9227722709194
 30
0.0
  0
POINT
  5
238
330
22C
100
AcDbEntity
  8
Defpoints
 62
     0
440
 16777216
100
AcDbPoint
 10
1253.967899796466
 20
228.9227722709194
 30
0.0
  0
ENDBLK
  5
239
330
22C
100
AcDbEntity
  8
0
100
AcDbBlockEnd
  0
BLOCK
  5
184
330
183
100
AcDbEntity
  8
0
100
AcDbBlockBegin
  2
*D20
 70
     1
 10
0.0
 20
0.0
 30
0.0
  3
*D20
  1

  0
LINE
  5
185
330
183
100
AcDbEntity
  8
AM_5
440
 16777216
100
AcDbLine
 10
1232.636540742891
 20
522.8317157769063
 30
0.0
 11
1184.642384334478
 21
522.8317157769063
 31
0.0
  0
LINE
  5
186
330
183
100
AcDbEntity
  8
AM_5
440
 16777216
100
AcDbLine
 10
1238.436540742891
 20
535.8317157769063
 30
0.0
 11
1184.642384334478
 21
535.8317157769063
 31
0.0
  0
LINE
  5
187
330
183
100
AcDbEntity
  8
AM_5
440
 16777216
100
AcDbLine
 10
1186.642384334478
 20
517.8317157769063
 30
0.0
 11
1186.642384334478
 21
512.8317157769063
 31
0.0
  0
LINE
  5
188
330
183
100
AcDbEntity
  8
AM_5
440
 16777216
100
AcDbLine
 10
1186.642384334478
 20
540.8317157769062
 30
0.0
 11
1186.642384334478
 21
545.8317157769063
 31
0.0
  0
LINE
  5
189
330
183
100
AcDbEntity
  8
AM_5
440
 16777216
100
AcDbLine
 10
1186.642384334478
 20
522.8317157769063
 30
0.0
 11
1186.642384334478
 21
535.8317157769063
 31
0.0
  0
SOLID
  5
18A
330
183
100
AcDbEntity
  8
AM_5
440
 16777216
100
AcDbTrace
 10
1185.809051001145
 20
517.8317157769063
 30
0.0
 11
1187.475717667812
 21
517.8317157769063
 31
0.0
 12
1186.642384334478
 22
522.8317157769063
 32
0.0
 13
1186.642384334478
 23
522.8317157769063
 33
0.0
  0
SOLID
  5
18B
330
183
100
AcDbEntity
  8
AM_5
440
 16777216
100
AcDbTrace
 10
1185.809051001145
 20
540.8317157769062
 30
0.0
 11
1187.475717667812
 21
540.8317157769062
 31
0.0
 12
1186.642384334478
 22
535.8317157769063
 32
0.0
 13
1186.642384334478
 23
535.8317157769063
 33
0.0
  0
MTEXT
  5
18C
330
183
100
AcDbEntity
  8
AM_5
 62
     3
440
 16777216
100
AcDbMText
 10
1180.142384334478
 20
529.3317157769064
 30
0.0
 40
7.0
 41
0.0
 71
     5
 72
     1
  1
13
 11
0.0000000000000001
 21
1.0
 31
0.0
 73
     1
 44
1.0
  0
POINT
  5
18D
330
183
100
AcDbEntity
  8
Defpoints
 62
     0
440
 16777216
100
AcDbPoint
 10
1232.636540742891
 20
522.8317157769063
 30
0.0
  0
POINT
  5
18E
330
183
100
AcDbEntity
  8
Defpoints
 62
     0
440
 16777216
100
AcDbPoint
 10
1238.436540742891
 20
535.8317157769063
 30
0.0
  0
POINT
  5
18F
330
183
100
AcDbEntity
  8
Defpoints
 62
     0
440
 16777216
100
AcDbPoint
 10
1186.642384334478
 20
535.8317157769063
 30
0.0
  0
ENDBLK
  5
190
330
183
100
AcDbEntity
  8
0
100
AcDbBlockEnd
  0
BLOCK
  5
274
330
273
100
AcDbEntity
  8
0
100
AcDbBlockBegin
  2
*D21
 70
     1
 10
0.0
 20
0.0
 30
0.0
  3
*D21
  1

  0
LINE
  5
275
330
273
100
AcDbEntity
  8
AM_5
440
 16777216
100
AcDbLine
 10
1238.436540742891
 20
535.8317157769063
 30
0.0
 11
1168.642384334478
 21
535.8317157769063
 31
0.0
  0
LINE
  5
276
330
273
100
AcDbEntity
  8
AM_5
440
 16777216
100
AcDbLine
 10
1238.436540742891
 20
300.8317157769063
 30
0.0
 11
1168.642384334478
 21
300.8317157769063
 31
0.0
  0
LINE
  5
277
330
273
100
AcDbEntity
  8
AM_5
440
 16777216
100
AcDbLine
 10
1170.642384334478
 20
530.8317157769063
 30
0.0
 11
1170.642384334478
 21
305.8317157769063
 31
0.0
  0
SOLID
  5
278
330
273
100
AcDbEntity
  8
AM_5
440
 16777216
100
AcDbTrace
 10
1169.809051001145
 20
530.8317157769063
 30
0.0
 11
1171.475717667811
 21
530.8317157769063
 31
0.0
 12
1170.642384334478
 22
535.8317157769063
 32
0.0
 13
1170.642384334478
 23
535.8317157769063
 33
0.0
  0
SOLID
  5
279
330
273
100
AcDbEntity
  8
AM_5
440
 16777216
100
AcDbTrace
 10
1169.809051001145
 20
305.8317157769063
 30
0.0
 11
1171.475717667811
 21
305.8317157769063
 31
0.0
 12
1170.642384334478
 22
300.8317157769063
 32
0.0
 13
1170.642384334478
 23
300.8317157769063
 33
0.0
  0
MTEXT
  5
27A
330
273
100
AcDbEntity
  8
AM_5
 62
     3
440
 16777216
100
AcDbMText
 10
1164.1416953581
 20
418.3317157769065
 30
0.0
 40
7.0
 41
0.0
 71
     5
 72
     1
  1
235
 11
0.0000000000000001
 21
1.0
 31
0.0
 73
     1
 44
1.0
  0
POINT
  5
27B
330
273
100
AcDbEntity
  8
Defpoints
 62
     0
440
 16777216
100
AcDbPoint
 10
1238.436540742891
 20
535.8317157769063
 30
0.0
  0
POINT
  5
27C
330
273
100
AcDbEntity
  8
Defpoints
 62
     0
440
 16777216
100
AcDbPoint
 10
1238.436540742891
 20
300.8317157769063
 30
0.0
  0
POINT
  5
27D
330
273
100
AcDbEntity
  8
Defpoints
 62
     0
440
 16777216
100
AcDbPoint
 10
1170.642384334478
 20
300.8317157769063
 30
0.0
  0
ENDBLK
  5
27E
330
273
100
AcDbEntity
  8
0
100
AcDbBlockEnd
  0
BLOCK
  5
281
330
280
100
AcDbEntity
  8
0
100
AcDbBlockBegin
  2
*D22
 70
     1
 10
0.0
 20
0.0
 30
0.0
  3
*D22
  1

  0
LINE
  5
282
330
280
100
AcDbEntity
  8
AM_5
440
 16777216
100
AcDbLine
 10
1232.636540742891
 20
522.8317157769063
 30
0.0
 11
1184.642384334478
 21
522.8317157769063
 31
0.0
  0
LINE
  5
283
330
280
100
AcDbEntity
  8
AM_5
440
 16777216
100
AcDbLine
 10
1232.636540742891
 20
313.8317157769063
 30
0.0
 11
1184.642384334478
 21
313.8317157769063
 31
0.0
  0
LINE
  5
284
330
280
100
AcDbEntity
  8
AM_5
440
 16777216
100
AcDbLine
 10
1186.642384334478
 20
517.8317157769063
 30
0.0
 11
1186.642384334478
 21
318.8317157769063
 31
0.0
  0
SOLID
  5
285
330
280
100
AcDbEntity
  8
AM_5
440
 16777216
100
AcDbTrace
 10
1185.809051001145
 20
517.8317157769063
 30
0.0
 11
1187.475717667811
 21
517.8317157769063
 31
0.0
 12
1186.642384334478
 22
522.8317157769063
 32
0.0
 13
1186.642384334478
 23
522.8317157769063
 33
0.0
  0
SOLID
  5
286
330
280
100
AcDbEntity
  8
AM_5
440
 16777216
100
AcDbTrace
 10
1185.809051001145
 20
318.8317157769063
 30
0.0
 11
1187.475717667811
 21
318.8317157769063
 31
0.0
 12
1186.642384334478
 22
313.8317157769063
 32
0.0
 13
1186.642384334478
 23
313.8317157769063
 33
0.0
  0
MTEXT
  5
287
330
280
100
AcDbEntity
  8
AM_5
 62
     3
440
 16777216
100
AcDbMText
 10
1180.1416953581
 20
418.3317157769065
 30
0.0
 40
7.0
 41
0.0
 71
     5
 72
     1
  1
209
 11
0.0000000000000001
 21
1.0
 31
0.0
 73
     1
 44
1.0
  0
POINT
  5
288
330
280
100
AcDbEntity
  8
Defpoints
 62
     0
440
 16777216
100
AcDbPoint
 10
1232.636540742891
 20
522.8317157769063
 30
0.0
  0
POINT
  5
289
330
280
100
AcDbEntity
  8
Defpoints
 62
     0
440
 16777216
100
AcDbPoint
 10
1232.636540742891
 20
313.8317157769063
 30
0.0
  0
POINT
  5
28A
330
280
100
AcDbEntity
  8
Defpoints
 62
     0
440
 16777216
100
AcDbPoint
 10
1186.642384334478
 20
313.8317157769063
 30
0.0
  0
ENDBLK
  5
28B
330
280
100
AcDbEntity
  8
0
100
AcDbBlockEnd
  0
BLOCK
  5
193
330
192
100
AcDbEntity
  8
0
100
AcDbBlockBegin
  2
*D23
 70
     1
 10
0.0
 20
0.0
 30
0.0
  3
*D23
  1

  0
LINE
  5
194
330
192
100
AcDbEntity
  8
AM_5
440
 16777216
100
AcDbLine
 10
1238.436540742891
 20
535.8317157769063
 30
0.0
 11
1200.436540742891
 21
535.8317157769063
 31
0.0
  0
LINE
  5
195
330
192
100
AcDbEntity
  8
AM_5
440
 16777216
100
AcDbLine
 10
1226.43654074289
 20
482.8317157769064
 30
0.0
 11
1200.43654074289
 21
482.8317157769064
 31
0.0
  0
LINE
  5
196
330
192
100
AcDbEntity
  8
AM_5
440
 16777216
100
AcDbLine
 10
1202.436540742891
 20
530.8317157769063
 30
0.0
 11
1202.43654074289
 21
487.8317157769064
 31
0.0
  0
SOLID
  5
197
330
192
100
AcDbEntity
  8
AM_5
440
 16777216
100
AcDbTrace
 10
1201.603207409557
 20
530.8317157769063
 30
0.0
 11
1203.269874076224
 21
530.8317157769063
 31
0.0
 12
1202.436540742891
 22
535.8317157769063
 32
0.0
 13
1202.436540742891
 23
535.8317157769063
 33
0.0
  0
SOLID
  5
198
330
192
100
AcDbEntity
  8
AM_5
440
 16777216
100
AcDbTrace
 10
1201.603207409557
 20
487.8317157769064
 30
0.0
 11
1203.269874076224
 21
487.8317157769064
 31
0.0
 12
1202.43654074289
 22
482.8317157769064
 32
0.0
 13
1202.43654074289
 23
482.8317157769064
 33
0.0
  0
MTEXT
  5
199
330
192
100
AcDbEntity
  8
AM_5
 62
     3
440
 16777216
100
AcDbMText
 10
1195.936540742891
 20
509.3317157769066
 30
0.0
 40
7.0
 41
0.0
 71
     5
 72
     1
  1
53
 11
0.0000000000000001
 21
1.0
 31
0.0
 73
     1
 44
1.0
  0
POINT
  5
19A
330
192
100
AcDbEntity
  8
Defpoints
 62
     0
440
 16777216
100
AcDbPoint
 10
1238.436540742891
 20
535.8317157769063
 30
0.0
  0
POINT
  5
19B
330
192
100
AcDbEntity
  8
Defpoints
 62
     0
440
 16777216
100
AcDbPoint
 10
1226.43654074289
 20
482.8317157769064
 30
0.0
  0
POINT
  5
19C
330
192
100
AcDbEntity
  8
Defpoints
 62
     0
440
 16777216
100
AcDbPoint
 10
1202.43654074289
 20
482.8317157769064
 30
0.0
  0
ENDBLK
  5
19D
330
192
100
AcDbEntity
  8
0
100
AcDbBlockEnd
  0
BLOCK
  5
11E
330
11D
100
AcDbEntity
  8
0
100
AcDbBlockBegin
  2
*D24
 70
     1
 10
0.0
 20
0.0
 30
0.0
  3
*D24
  1

  0
LINE
  5
11F
330
11D
100
AcDbEntity
  8
AM_5
440
 16777216
100
AcDbLine
 10
1238.436540742891
 20
482.8317157769062
 30
0.0
 11
1238.436540742891
 21
508.7129875345803
 31
0.0
  0
LINE
  5
120
330
11D
100
AcDbEntity
  8
AM_5
440
 16777216
100
AcDbLine
 10
1226.43654074289
 20
482.8317157769064
 30
0.0
 11
1226.43654074289
 21
508.7129875345803
 31
0.0
  0
LINE
  5
121
330
11D
100
AcDbEntity
  8
AM_5
440
 16777216
100
AcDbLine
 10
1243.43654074289
 20
506.7129875345804
 30
0.0
 11
1248.436540742891
 21
506.7129875345804
 31
0.0
  0
LINE
  5
122
330
11D
100
AcDbEntity
  8
AM_5
440
 16777216
100
AcDbLine
 10
1221.436540742891
 20
506.7129875345804
 30
0.0
 11
1216.43654074289
 21
506.7129875345804
 31
0.0
  0
LINE
  5
123
330
11D
100
AcDbEntity
  8
AM_5
440
 16777216
100
AcDbLine
 10
1238.436540742891
 20
506.7129875345804
 30
0.0
 11
1226.43654074289
 21
506.7129875345804
 31
0.0
  0
SOLID
  5
124
330
11D
100
AcDbEntity
  8
AM_5
440
 16777216
100
AcDbTrace
 10
1243.43654074289
 20
507.5463208679137
 30
0.0
 11
1243.43654074289
 21
505.8796542012471
 31
0.0
 12
1238.436540742891
 22
506.7129875345804
 32
0.0
 13
1238.436540742891
 23
506.7129875345804
 33
0.0
  0
SOLID
  5
125
330
11D
100
AcDbEntity
  8
AM_5
440
 16777216
100
AcDbTrace
 10
1221.436540742891
 20
507.5463208679137
 30
0.0
 11
1221.436540742891
 21
505.8796542012471
 31
0.0
 12
1226.43654074289
 22
506.7129875345804
 32
0.0
 13
1226.43654074289
 23
506.7129875345804
 33
0.0
  0
MTEXT
  5
126
330
11D
100
AcDbEntity
  8
AM_5
 62
     3
440
 16777216
100
AcDbMText
 10
1232.43654074289
 20
513.2136765109584
 30
0.0
 40
7.0
 41
0.0
 71
     5
 72
     1
  1
12
 73
     1
 44
1.0
  0
POINT
  5
127
330
11D
100
AcDbEntity
  8
Defpoints
 62
     0
440
 16777216
100
AcDbPoint
 10
1238.436540742891
 20
482.8317157769062
 30
0.0
  0
POINT
  5
128
330
11D
100
AcDbEntity
  8
Defpoints
 62
     0
440
 16777216
100
AcDbPoint
 10
1226.43654074289
 20
482.8317157769064
 30
0.0
  0
POINT
  5
129
330
11D
100
AcDbEntity
  8
Defpoints
 62
     0
440
 16777216
100
AcDbPoint
 10
1226.43654074289
 20
506.7129875345804
 30
0.0
  0
ENDBLK
  5
12A
330
11D
100
AcDbEntity
  8
0
100
AcDbBlockEnd
  0
BLOCK
  5
15D
330
15C
100
AcDbEntity
  8
0
100
AcDbBlockBegin
  2
*D25
 70
     1
 10
0.0
 20
0.0
 30
0.0
  3
*D25
  1

  0
LINE
  5
15E
330
15C
100
AcDbEntity
  8
AM_5
440
 16777216
100
AcDbLine
 10
1216.436540742891
 20
400.8317157769061
 30
0.0
 11
1200.43654074289
 21
400.8317157769061
 31
0.0
  0
LINE
  5
15F
330
15C
100
AcDbEntity
  8
AM_5
440
 16777216
100
AcDbLine
 10
1227.436540742891
 20
365.8317157769062
 30
0.0
 11
1200.43654074289
 21
365.8317157769062
 31
0.0
  0
LINE
  5
160
330
15C
100
AcDbEntity
  8
AM_5
440
 16777216
100
AcDbLine
 10
1202.43654074289
 20
395.8317157769062
 30
0.0
 11
1202.43654074289
 21
370.8317157769062
 31
0.0
  0
SOLID
  5
161
330
15C
100
AcDbEntity
  8
AM_5
440
 16777216
100
AcDbTrace
 10
1201.603207409557
 20
395.8317157769062
 30
0.0
 11
1203.269874076224
 21
395.8317157769062
 31
0.0
 12
1202.43654074289
 22
400.8317157769061
 32
0.0
 13
1202.43654074289
 23
400.8317157769061
 33
0.0
  0
SOLID
  5
162
330
15C
100
AcDbEntity
  8
AM_5
440
 16777216
100
AcDbTrace
 10
1201.603207409557
 20
370.8317157769062
 30
0.0
 11
1203.269874076224
 21
370.8317157769062
 31
0.0
 12
1202.43654074289
 22
365.8317157769062
 32
0.0
 13
1202.43654074289
 23
365.8317157769062
 33
0.0
  0
MTEXT
  5
163
330
15C
100
AcDbEntity
  8
AM_5
 62
     3
440
 16777216
100
AcDbMText
 10
1195.936540742891
 20
383.3317157769064
 30
0.0
 40
7.0
 41
0.0
 71
     5
 72
     1
  1
35
 11
0.0000000000000001
 21
1.0
 31
0.0
 73
     1
 44
1.0
  0
POINT
  5
164
330
15C
100
AcDbEntity
  8
Defpoints
 62
     0
440
 16777216
100
AcDbPoint
 10
1216.436540742891
 20
400.8317157769061
 30
0.0
  0
POINT
  5
165
330
15C
100
AcDbEntity
  8
Defpoints
 62
     0
440
 16777216
100
AcDbPoint
 10
1227.436540742891
 20
365.8317157769062
 30
0.0
  0
POINT
  5
166
330
15C
100
AcDbEntity
  8
Defpoints
 62
     0
440
 16777216
100
AcDbPoint
 10
1202.43654074289
 20
365.8317157769062
 30
0.0
  0
ENDBLK
  5
167
330
15C
100
AcDbEntity
  8
0
100
AcDbBlockEnd
  0
BLOCK
  5
16A
330
169
100
AcDbEntity
  8
0
100
AcDbBlockBegin
  2
*D26
 70
     1
 10
0.0
 20
0.0
 30
0.0
  3
*D26
  1

  0
LINE
  5
16B
330
169
100
AcDbEntity
  8
AM_5
440
 16777216
100
AcDbLine
 10
1226.436540742891
 20
450.8317157769062
 30
0.0
 11
1200.43654074289
 21
450.8317157769062
 31
0.0
  0
LINE
  5
16C
330
169
100
AcDbEntity
  8
AM_5
440
 16777216
100
AcDbLine
 10
1227.436540742891
 20
400.8317157769061
 30
0.0
 11
1200.43654074289
 21
400.8317157769061
 31
0.0
  0
LINE
  5
16D
330
169
100
AcDbEntity
  8
AM_5
440
 16777216
100
AcDbLine
 10
1202.43654074289
 20
445.8317157769061
 30
0.0
 11
1202.43654074289
 21
405.8317157769062
 31
0.0
  0
SOLID
  5
16E
330
169
100
AcDbEntity
  8
AM_5
440
 16777216
100
AcDbTrace
 10
1201.603207409557
 20
445.8317157769061
 30
0.0
 11
1203.269874076224
 21
445.8317157769061
 31
0.0
 12
1202.43654074289
 22
450.8317157769062
 32
0.0
 13
1202.43654074289
 23
450.8317157769062
 33
0.0
  0
SOLID
  5
16F
330
169
100
AcDbEntity
  8
AM_5
440
 16777216
100
AcDbTrace
 10
1201.603207409557
 20
405.8317157769062
 30
0.0
 11
1203.269874076224
 21
405.8317157769062
 31
0.0
 12
1202.43654074289
 22
400.8317157769061
 32
0.0
 13
1202.43654074289
 23
400.8317157769061
 33
0.0
  0
MTEXT
  5
170
330
169
100
AcDbEntity
  8
AM_5
 62
     3
440
 16777216
100
AcDbMText
 10
1195.936540742891
 20
425.8317157769064
 30
0.0
 40
7.0
 41
0.0
 71
     5
 72
     1
  1
50
 11
0.0000000000000001
 21
1.0
 31
0.0
 73
     1
 44
1.0
  0
POINT
  5
171
330
169
100
AcDbEntity
  8
Defpoints
 62
     0
440
 16777216
100
AcDbPoint
 10
1226.436540742891
 20
450.8317157769062
 30
0.0
  0
POINT
  5
172
330
169
100
AcDbEntity
  8
Defpoints
 62
     0
440
 16777216
100
AcDbPoint
 10
1227.436540742891
 20
400.8317157769061
 30
0.0
  0
POINT
  5
173
330
169
100
AcDbEntity
  8
Defpoints
 62
     0
440
 16777216
100
AcDbPoint
 10
1202.43654074289
 20
400.8317157769061
 30
0.0
  0
ENDBLK
  5
174
330
169
100
AcDbEntity
  8
0
100
AcDbBlockEnd
  0
BLOCK
  5
177
330
176
100
AcDbEntity
  8
0
100
AcDbBlockBegin
  2
*D27
 70
     1
 10
0.0
 20
0.0
 30
0.0
  3
*D27
  1

  0
LINE
  5
178
330
176
100
AcDbEntity
  8
AM_5
440
 16777216
100
AcDbLine
 10
1226.436540742891
 20
450.8317157769062
 30
0.0
 11
1200.43654074289
 21
450.8317157769062
 31
0.0
  0
LINE
  5
179
330
176
100
AcDbEntity
  8
AM_5
440
 16777216
100
AcDbLine
 10
1226.43654074289
 20
482.8317157769064
 30
0.0
 11
1200.43654074289
 21
482.8317157769064
 31
0.0
  0
LINE
  5
17A
330
176
100
AcDbEntity
  8
AM_5
440
 16777216
100
AcDbLine
 10
1202.43654074289
 20
455.8317157769062
 30
0.0
 11
1202.43654074289
 21
477.8317157769064
 31
0.0
  0
SOLID
  5
17B
330
176
100
AcDbEntity
  8
AM_5
440
 16777216
100
AcDbTrace
 10
1201.603207409557
 20
455.8317157769062
 30
0.0
 11
1203.269874076224
 21
455.8317157769062
 31
0.0
 12
1202.43654074289
 22
450.8317157769062
 32
0.0
 13
1202.43654074289
 23
450.8317157769062
 33
0.0
  0
SOLID
  5
17C
330
176
100
AcDbEntity
  8
AM_5
440
 16777216
100
AcDbTrace
 10
1201.603207409557
 20
477.8317157769064
 30
0.0
 11
1203.269874076224
 21
477.8317157769064
 31
0.0
 12
1202.43654074289
 22
482.8317157769064
 32
0.0
 13
1202.43654074289
 23
482.8317157769064
 33
0.0
  0
MTEXT
  5
17D
330
176
100
AcDbEntity
  8
AM_5
 62
     3
440
 16777216
100
AcDbMText
 10
1195.935851766513
 20
466.8317157769065
 30
0.0
 40
7.0
 41
0.0
 71
     5
 72
     1
  1
32
 11
0.0000000000000001
 21
1.0
 31
0.0
 73
     1
 44
1.0
  0
POINT
  5
17E
330
176
100
AcDbEntity
  8
Defpoints
 62
     0
440
 16777216
100
AcDbPoint
 10
1226.436540742891
 20
450.8317157769062
 30
0.0
  0
POINT
  5
17F
330
176
100
AcDbEntity
  8
Defpoints
 62
     0
440
 16777216
100
AcDbPoint
 10
1226.43654074289
 20
482.8317157769064
 30
0.0
  0
POINT
  5
180
330
176
100
AcDbEntity
  8
Defpoints
 62
     0
440
 16777216
100
AcDbPoint
 10
1202.43654074289
 20
482.8317157769064
 30
0.0
  0
ENDBLK
  5
181
330
176
100
AcDbEntity
  8
0
100
AcDbBlockEnd
  0
BLOCK
  5
10D
330
10C
100
AcDbEntity
  8
0
100
AcDbBlockBegin
  2
*D28
 70
     1
 10
0.0
 20
0.0
 30
0.0
  3
*D28
  1

  0
LINE
  5
10E
330
10C
100
AcDbEntity
  8
AM_5
440
 16777216
100
AcDbLine
 10
1307.936540742891
 20
442.3317157769063
 30
0.0
 11
1307.936540742891
 21
464.3317157769063
 31
0.0
  0
LINE
  5
10F
330
10C
100
AcDbEntity
  8
AM_5
440
 16777216
100
AcDbLine
 10
1298.93654074289
 20
442.3317157769063
 30
0.0
 11
1298.93654074289
 21
464.3317157769063
 31
0.0
  0
LINE
  5
110
330
10C
100
AcDbEntity
  8
AM_5
440
 16777216
100
AcDbLine
 10
1312.936540742891
 20
462.3317157769063
 30
0.0
 11
1317.936540742891
 21
462.3317157769063
 31
0.0
  0
LINE
  5
111
330
10C
100
AcDbEntity
  8
AM_5
440
 16777216
100
AcDbLine
 10
1293.936540742891
 20
462.3317157769063
 30
0.0
 11
1270.918719723212
 21
462.3317157769063
 31
0.0
  0
LINE
  5
112
330
10C
100
AcDbEntity
  8
AM_5
440
 16777216
100
AcDbLine
 10
1307.936540742891
 20
462.3317157769063
 30
0.0
 11
1298.93654074289
 21
462.3317157769063
 31
0.0
  0
SOLID
  5
113
330
10C
100
AcDbEntity
  8
AM_5
440
 16777216
100
AcDbTrace
 10
1312.936540742891
 20
463.1650491102396
 30
0.0
 11
1312.936540742891
 21
461.4983824435729
 31
0.0
 12
1307.936540742891
 22
462.3317157769063
 32
0.0
 13
1307.936540742891
 23
462.3317157769063
 33
0.0
  0
SOLID
  5
114
330
10C
100
AcDbEntity
  8
AM_5
440
 16777216
100
AcDbTrace
 10
1293.936540742891
 20
463.1650491102396
 30
0.0
 11
1293.936540742891
 21
461.4983824435729
 31
0.0
 12
1298.93654074289
 22
462.3317157769063
 32
0.0
 13
1298.93654074289
 23
462.3317157769063
 33
0.0
  0
MTEXT
  5
115
330
10C
100
AcDbEntity
  8
AM_5
 62
     3
440
 16777216
100
AcDbMText
 10
1279.927630233051
 20
468.8317157769063
 30
0.0
 40
7.0
 41
0.0
 71
     5
 72
     1
  1
{\Famgdt;o}9
 73
     1
 44
1.0
  0
POINT
  5
116
330
10C
100
AcDbEntity
  8
Defpoints
 62
     0
440
 16777216
100
AcDbPoint
 10
1307.936540742891
 20
442.3317157769063
 30
0.0
  0
POINT
  5
117
330
10C
100
AcDbEntity
  8
Defpoints
 62
     0
440
 16777216
100
AcDbPoint
 10
1298.93654074289
 20
442.3317157769063
 30
0.0
  0
POINT
  5
118
330
10C
100
AcDbEntity
  8
Defpoints
 62
     0
440
 16777216
100
AcDbPoint
 10
1298.93654074289
 20
462.3317157769063
 30
0.0
  0
ENDBLK
  5
119
330
10C
100
AcDbEntity
  8
0
100
AcDbBlockEnd
  0
BLOCK
  5
72
330
71
100
AcDbEntity
  8
0
100
AcDbBlockBegin
  2
_DotSmall
 70
     0
 10
0.0
 20
0.0
 30
0.0
  3
_DotSmall
  1

  0
LWPOLYLINE
  5
73
330
71
100
AcDbEntity
  8
0
  6
ByBlock
 62
     0
100
AcDbPolyline
 90
        2
 70
     1
 43
0.5
 10
-0.0625
 20
0.0
 42
1.0
 10
0.0625
 20
0.0
 42
1.0
  0
ENDBLK
  5
74
330
71
100
AcDbEntity
  8
0
100
AcDbBlockEnd
  0
BLOCK
  5
7E
330
7D
100
AcDbEntity
  8
0
100
AcDbBlockBegin
  2
*D30
 70
     1
 10
0.0
 20
0.0
 30
0.0
  3
*D30
  1

  0
LINE
  5
7F
330
7D
100
AcDbEntity
  8
AM_5
440
 16777216
100
AcDbLine
 10
1238.436540742891
 20
365.8317157769062
 30
0.0
 11
1238.436540742891
 21
346.78409881272
 31
0.0
  0
LINE
  5
80
330
7D
100
AcDbEntity
  8
AM_5
440
 16777216
100
AcDbLine
 10
1227.436540742891
 20
365.8317157769062
 30
0.0
 11
1227.436540742891
 21
346.78409881272
 31
0.0
  0
LINE
  5
81
330
7D
100
AcDbEntity
  8
AM_5
440
 16777216
100
AcDbLine
 10
1243.436540742891
 20
348.78409881272
 30
0.0
 11
1248.436540742891
 21
348.78409881272
 31
0.0
  0
LINE
  5
82
330
7D
100
AcDbEntity
  8
AM_5
440
 16777216
100
AcDbLine
 10
1227.436540742891
 20
348.78409881272
 30
0.0
 11
1222.436540742891
 21
348.78409881272
 31
0.0
  0
LINE
  5
83
330
7D
100
AcDbEntity
  8
AM_5
440
 16777216
100
AcDbLine
 10
1238.436540742891
 20
348.78409881272
 30
0.0
 11
1227.436540742891
 21
348.78409881272
 31
0.0
  0
SOLID
  5
84
330
7D
100
AcDbEntity
  8
AM_5
440
 16777216
100
AcDbTrace
 10
1243.436540742891
 20
349.6174321460533
 30
0.0
 11
1243.436540742891
 21
347.9507654793867
 31
0.0
 12
1238.436540742891
 22
348.78409881272
 32
0.0
 13
1238.436540742891
 23
348.78409881272
 33
0.0
  0
INSERT
  5
85
330
7D
100
AcDbEntity
  8
AM_5
440
 16777216
100
AcDbBlockReference
  2
_DotSmall
 10
1227.436540742891
 20
348.78409881272
 30
0.0
 41
5.0
 42
5.0
 43
5.0
  0
MTEXT
  5
86
330
7D
100
AcDbEntity
  8
AM_5
 62
     3
440
 16777216
100
AcDbMText
 10
1232.936540742891
 20
355.28409881272
 30
0.0
 40
7.0
 41
0.0
 71
     5
 72
     1
  1
11
 73
     1
 44
1.0
  0
POINT
  5
87
330
7D
100
AcDbEntity
  8
Defpoints
 62
     0
440
 16777216
100
AcDbPoint
 10
1238.436540742891
 20
365.8317157769062
 30
0.0
  0
POINT
  5
88
330
7D
100
AcDbEntity
  8
Defpoints
 62
     0
440
 16777216
100
AcDbPoint
 10
1227.436540742891
 20
365.8317157769062
 30
0.0
  0
POINT
  5
89
330
7D
100
AcDbEntity
  8
Defpoints
 62
     0
440
 16777216
100
AcDbPoint
 10
1227.436540742891
 20
348.78409881272
 30
0.0
  0
ENDBLK
  5
8A
330
7D
100
AcDbEntity
  8
0
100
AcDbBlockEnd
  0
BLOCK
  5
6A
330
69
100
AcDbEntity
  8
0
100
AcDbBlockBegin
  2
*D31
 70
     1
 10
0.0
 20
0.0
 30
0.0
  3
*D31
  1

  0
LINE
  5
6B
330
69
100
AcDbEntity
  8
AM_5
440
 16777216
100
AcDbLine
 10
1227.436540742891
 20
365.8317157769062
 30
0.0
 11
1227.436540742891
 21
346.7840988127191
 31
0.0
  0
LINE
  5
6C
330
69
100
AcDbEntity
  8
AM_5
440
 16777216
100
AcDbLine
 10
1223.436540742891
 20
378.8317157769062
 30
0.0
 11
1223.436540742891
 21
346.7840988127191
 31
0.0
  0
LINE
  5
6D
330
69
100
AcDbEntity
  8
AM_5
440
 16777216
100
AcDbLine
 10
1227.436540742891
 20
348.7840988127191
 30
0.0
 11
1232.436540742891
 21
348.7840988127191
 31
0.0
  0
LINE
  5
6E
330
69
100
AcDbEntity
  8
AM_5
440
 16777216
100
AcDbLine
 10
1218.436540742891
 20
348.7840988127191
 30
0.0
 11
1203.936540742891
 21
348.7840988127191
 31
0.0
  0
LINE
  5
6F
330
69
100
AcDbEntity
  8
AM_5
440
 16777216
100
AcDbLine
 10
1227.436540742891
 20
348.7840988127191
 30
0.0
 11
1223.436540742891
 21
348.7840988127191
 31
0.0
  0
INSERT
  5
70
330
69
100
AcDbEntity
  8
AM_5
440
 16777216
100
AcDbBlockReference
  2
_DotSmall
 10
1227.436540742891
 20
348.7840988127191
 30
0.0
 41
5.0
 42
5.0
 43
5.0
 50
180.0
  0
SOLID
  5
75
330
69
100
AcDbEntity
  8
AM_5
440
 16777216
100
AcDbTrace
 10
1218.436540742891
 20
349.6174321460524
 30
0.0
 11
1218.436540742891
 21
347.9507654793858
 31
0.0
 12
1223.436540742891
 22
348.7840988127191
 32
0.0
 13
1223.436540742891
 23
348.7840988127191
 33
0.0
  0
MTEXT
  5
76
330
69
100
AcDbEntity
  8
AM_5
 62
     3
440
 16777216
100
AcDbMText
 10
1208.686540742891
 20
355.2840988127191
 30
0.0
 40
7.0
 41
0.0
 71
     5
 72
     1
  1
4
 73
     1
 44
1.0
  0
POINT
  5
77
330
69
100
AcDbEntity
  8
Defpoints
 62
     0
440
 16777216
100
AcDbPoint
 10
1227.436540742891
 20
365.8317157769062
 30
0.0
  0
POINT
  5
79
330
69
100
AcDbEntity
  8
Defpoints
 62
     0
440
 16777216
100
AcDbPoint
 10
1223.436540742891
 20
378.8317157769062
 30
0.0
  0
POINT
  5
7A
330
69
100
AcDbEntity
  8
Defpoints
 62
     0
440
 16777216
100
AcDbPoint
 10
1223.436540742891
 20
348.7840988127191
 30
0.0
  0
ENDBLK
  5
7B
330
69
100
AcDbEntity
  8
0
100
AcDbBlockEnd
  0
ENDSEC
  0
SECTION
  2
ENTITIES
  0
LINE
  5
5A
330
2
100
AcDbEntity
  8
AM_1
100
AcDbLine
 10
1453.025688772259
 20
495.2812395839655
 30
0.0
 11
1453.025688772259
 21
523.8317157769063
 31
0.0
  0
MTEXT
  5
5C
330
2
100
AcDbEntity
  8
AM_6
100
AcDbMText
 10
1395.808683918074
 20
183.6633076721823
 30
0.0
 40
7.0
 41
0.0
 71
     1
 72
     5
  1
DIN links gezeichnet\PDIN rechts spiegelbildlich
 73
     1
 44
1.0
1001
GENIUS_AMGTXT_16
1040
3.5
1040
0.12
  0
LINE
  5
5F
330
2
100
AcDbEntity
  8
AM_0
100
AcDbLine
 10
1223.436540742891
 20
219.1227722709193
 30
0.0
 11
1223.436540742891
 21
216.6227722709193
 31
0.0
  0
LINE
  5
60
330
2
100
AcDbEntity
  8
AM_1
100
AcDbLine
 10
1223.436540742891
 20
387.8317157769062
 30
0.0
 11
1223.436540742891
 21
378.8317157769062
 31
0.0
  0
LINE
  5
61
330
2
100
AcDbEntity
  8
AM_0
100
AcDbLine
 10
1227.436540742891
 20
216.6227722709193
 30
0.0
 11
1223.436540742891
 21
216.6227722709193
 31
0.0
  0
LINE
  5
62
330
2
100
AcDbEntity
  8
AM_0
100
AcDbLine
 10
1227.436540742891
 20
219.1227722709193
 30
0.0
 11
1223.436540742891
 21
219.1227722709193
 31
0.0
  0
LINE
  5
63
330
2
100
AcDbEntity
  8
AM_0
100
AcDbLine
 10
1462.825688772259
 20
378.8317157769062
 30
0.0
 11
1465.325688772259
 21
378.8317157769062
 31
0.0
  0
LINE
  5
64
330
2
100
AcDbEntity
  8
AM_0
100
AcDbLine
 10
1462.825688772259
 20
387.8317157769062
 30
0.0
 11
1465.325688772259
 21
387.8317157769062
 31
0.0
  0
LINE
  5
65
330
2
100
AcDbEntity
  8
AM_0
100
AcDbLine
 10
1465.325688772259
 20
387.8317157769062
 30
0.0
 11
1465.325688772259
 21
378.8317157769061
 31
0.0
  0
LINE
  5
66
330
2
100
AcDbEntity
  8
AM_0
100
AcDbLine
 10
1462.825688772259
 20
387.8317157769062
 30
0.0
 11
1462.825688772259
 21
378.8317157769061
 31
0.0
  0
DIMENSION
  5
67
330
2
100
AcDbEntity
  8
AM_5
100
AcDbDimension
  2
*D31
 10
1223.436540742891
 20
348.7840988127191
 30
0.0
 11
1208.686540742891
 21
355.2840988127191
 31
0.0
 71
     5
 42
4.0
  3
AM_ISO
100
AcDbAlignedDimension
 13
1227.436540742891
 23
365.8317157769062
 33
0.0
 14
1223.436540742891
 24
378.8317157769062
 34
0.0
 50
0.0000000000001132
100
AcDbRotatedDimension
1001
ACAD
1000
DSTYLE
1002
{
1070
   343
1005
71
1070
   173
1070
     1
1070
   344
1005
0
1070
    40
1040
2.0
1002
}
  0
DIMENSION
  5
7C
330
2
100
AcDbEntity
  8
AM_5
100
AcDbDimension
  2
*D30
 10
1227.436540742891
 20
348.78409881272
 30
0.0
 11
1232.936540742891
 21
355.28409881272
 31
0.0
 71
     5
 42
11.0
  3
AM_ISO
100
AcDbAlignedDimension
 13
1238.436540742891
 23
365.8317157769062
 33
0.0
 14
1227.436540742891
 24
365.8317157769062
 34
0.0
 50
0.0000000000001132
100
AcDbRotatedDimension
1001
ACAD
1000
DSTYLE
1002
{
1070
   343
1005
0
1070
   173
1070
     1
1070
   344
1005
71
1070
    40
1040
2.0
1002
}
  0
LINE
  5
8B
330
2
100
AcDbEntity
  8
AM_0
100
AcDbLine
 10
1227.436540742891
 20
378.8317157769062
 30
0.0
 11
1223.436540742891
 21
378.8317157769062
 31
0.0
  0
LINE
  5
8C
330
2
100
AcDbEntity
  8
AM_0
100
AcDbLine
 10
1227.436540742891
 20
387.8317157769062
 30
0.0
 11
1223.436540742891
 21
387.8317157769062
 31
0.0
  0
CIRCLE
  5
8D
330
2
100
AcDbEntity
  8
AM_1
100
AcDbCircle
 10
1465.025688772259
 20
522.8317157769063
 30
0.0
 40
2.75
  0
LINE
  5
8E
330
2
100
AcDbEntity
  8
AM_3
100
AcDbLine
 10
1477.025688772259
 20
523.8317157769063
 30
0.0
 11
1477.025688772259
 21
535.8317157769063
 31
0.0
  0
LINE
  5
91
330
2
100
AcDbEntity
  8
AM_3
100
AcDbLine
 10
1453.025688772259
 20
523.8317157769063
 30
0.0
 11
1453.025688772259
 21
535.8317157769063
 31
0.0
  0
LINE
  5
92
330
2
100
AcDbEntity
  8
AM_5
100
AcDbLine
 10
1465.025688772259
 20
522.8317157769063
 30
0.0
 11
1429.972033935413
 21
557.8853706137526
 31
0.0
  0
ARC
  5
93
330
2
100
AcDbEntity
  8
AM_1
100
AcDbCircle
 10
1465.025688772259
 20
523.8317157769063
 30
0.0
 40
12.0
100
AcDbArc
 50
0.0
 51
180.0
  0
LINE
  5
94
330
2
100
AcDbEntity
  8
AM_7
100
AcDbLine
 10
1459.020125274863
 20
522.8317157769063
 30
0.0
 11
1470.990556520765
 21
522.8317157769063
 31
0.0
  0
LINE
  5
97
330
2
100
AcDbEntity
  8
AM_3
100
AcDbLine
 10
1453.025688772259
 20
535.8317157769063
 30
0.0
 11
1477.025688772259
 21
535.8317157769063
 31
0.0
  0
LINE
  5
98
330
2
100
AcDbEntity
  8
AM_5
100
AcDbLine
 10
1429.972033935413
 20
557.8853706137526
 30
0.0
 11
1416.869103980031
 21
557.8853706137524
 31
0.0
  0
LINE
  5
99
330
2
100
AcDbEntity
  8
AM_1
100
AcDbLine
 10
1462.475688772258
 20
478.8317157769061
 30
0.0
 11
1473.225688772258
 21
478.8317157769061
 31
0.0
  0
DIMENSION
  5
9A
330
2
100
AcDbEntity
  8
AM_5
100
AcDbDimension
  2
*D5
 10
1459.225688772258
 20
493.3346280117973
 30
0.0
 11
1442.725688772258
 21
493.3346280117973
 31
0.0
 70
   128
  1
<>
 71
     5
 42
14.0
  3
AM_ISO
100
AcDbAlignedDimension
 13
1473.225688772258
 23
478.8317157769061
 33
0.0
 14
1459.225688772258
 24
482.8317157769062
 34
0.0
 50
180.0
100
AcDbRotatedDimension
1001
ACAD
1000
DSTYLE
1002
{
1070
    40
1040
2.0
1002
}
1001
GENIUS_GENDTOL_13
1000

1000
h7
1000

1040
0.0
  0
LINE
  5
AA
330
2
100
AcDbEntity
  8
AM_1
100
AcDbLine
 10
1459.225688772258
 20
482.8317157769062
 30
0.0
 11
1462.475688772258
 21
482.8317157769062
 31
0.0
  0
LINE
  5
AB
330
2
100
AcDbEntity
  8
AM_1
100
AcDbLine
 10
1462.475688772258
 20
454.8317157769061
 30
0.0
 11
1473.225688772258
 21
454.8317157769061
 31
0.0
  0
LINE
  5
AC
330
2
100
AcDbEntity
  8
AM_1
100
AcDbLine
 10
1459.225688772258
 20
450.8317157769063
 30
0.0
 11
1462.475688772258
 21
450.8317157769063
 31
0.0
  0
LINE
  5
AD
330
2
100
AcDbEntity
  8
AM_1
100
AcDbLine
 10
1462.475688772258
 20
482.8317157769062
 30
0.0
 11
1462.475688772258
 21
450.8317157769063
 31
0.0
  0
LINE
  5
AE
330
2
100
AcDbEntity
  8
AM_1
100
AcDbLine
 10
1459.225688772258
 20
482.8317157769062
 30
0.0
 11
1459.225688772258
 21
450.8317157769065
 31
0.0
  0
LINE
  5
AF
330
2
100
AcDbEntity
  8
AM_1
100
AcDbLine
 10
1473.225688772258
 20
478.8317157769061
 30
0.0
 11
1473.225688772258
 21
454.8317157769061
 31
0.0
  0
DIMENSION
  5
B0
330
2
100
AcDbEntity
  8
AM_5
100
AcDbDimension
  2
*D8
 10
1453.025688772259
 20
436.7316922570418
 30
0.0
 11
1426.167617906117
 21
443.5816922570419
 31
0.0
  1
6.2(3.2)
 71
     5
 42
6.199999999999135
  3
AM_ISO
100
AcDbAlignedDimension
 13
1459.225688772258
 23
450.8317157769063
 33
0.0
 14
1453.025688772259
 24
436.633387815433
 34
0.0
 50
0.0000000000002036
100
AcDbRotatedDimension
1001
ACAD
1000
DSTYLE
1002
{
1070
    40
1040
2.0
1002
}
  0
DIMENSION
  5
BF
330
2
100
AcDbEntity
  8
AM_5
100
AcDbDimension
  2
*D4
 10
1459.825688772259
 20
411.2097629102322
 30
0.0
 11
1441.780714025429
 21
417.7097629102322
 31
0.0
  1
<>
 71
     5
 42
8.5
  3
AM_ISO
100
AcDbAlignedDimension
 13
1468.325688772259
 23
400.8317157769065
 33
0.0
 14
1459.825688772259
 24
400.8317157769065
 34
0.0
 50
180.0
100
AcDbRotatedDimension
1001
ACAD
1000
DSTYLE
1002
{
1070
    40
1040
2.0
1002
}
1001
GENIUS_GENDTOL_13
1000

1000
h7
1000

1040
0.0
  0
LINE
  5
CE
330
2
100
AcDbEntity
  8
AM_1
100
AcDbLine
 10
1459.825688772259
 20
400.8317157769065
 30
0.0
 11
1468.325688772259
 21
400.8317157769065
 31
0.0
  0
LINE
  5
CF
330
2
100
AcDbEntity
  8
AM_7
100
AcDbLine
 10
1461.325688772258
 20
346.8317157769066
 30
0.0
 11
1467.325688772258
 21
346.8317157769066
 31
0.0
  0
LINE
  5
D0
330
2
100
AcDbEntity
  8
AM_7
100
AcDbLine
 10
1464.325688772258
 20
343.8317157769065
 30
0.0
 11
1464.325688772258
 21
349.8317157769065
 31
0.0
  0
CIRCLE
  5
D1
330
2
100
AcDbEntity
  8
AM_1
100
AcDbCircle
 10
1464.325688772258
 20
346.8317157769066
 30
0.0
 40
3.75
  0
CIRCLE
  5
D2
330
2
100
AcDbEntity
  8
AM_1
100
AcDbCircle
 10
1464.325688772258
 20
346.8317157769066
 30
0.0
 40
5.0
  0
LINE
  5
D3
330
2
100
AcDbEntity
  8
AM_1
100
AcDbLine
 10
1459.825688772259
 20
365.8317157769066
 30
0.0
 11
1468.325688772259
 21
365.8317157769066
 31
0.0
  0
LINE
  5
D4
330
2
100
AcDbEntity
  8
AM_1
100
AcDbLine
 10
1468.325688772259
 20
365.8317157769066
 30
0.0
 11
1468.325688772259
 21
400.8317157769065
 31
0.0
  0
LINE
  5
D5
330
2
100
AcDbEntity
  8
AM_1
100
AcDbLine
 10
1459.825688772259
 20
400.8317157769065
 30
0.0
 11
1459.825688772259
 21
365.8317157769066
 31
0.0
  0
DIMENSION
  5
D6
330
2
100
AcDbEntity
  8
AM_5
100
AcDbDimension
  2
*D6
 10
1453.025688772259
 20
358.2095838834366
 30
0.0
 11
1426.167617906117
 21
365.0595838834366
 31
0.0
  1
6.8(3.8)
 71
     5
 42
6.800000000000181
  3
AM_ISO
100
AcDbAlignedDimension
 13
1459.825688772259
 23
365.8317157769066
 33
0.0
 14
1453.025688772259
 24
365.8317157769066
 34
0.0
100
AcDbRotatedDimension
1001
ACAD
1000
DSTYLE
1002
{
1070
    40
1040
2.0
1002
}
1001
GENIUS_GENDTOL_13
1000

1000
h7
1000

1040
0.0
  0
LINE
  5
E5
330
2
100
AcDbEntity
  8
AM_1
100
AcDbLine
 10
1477.025688772259
 20
523.8317157769063
 30
0.0
 11
1477.025688772259
 21
495.2812395839655
 31
0.0
  0
CIRCLE
  5
E6
330
2
100
AcDbEntity
  8
AM_1
100
AcDbCircle
 10
1465.025688772259
 20
522.8317157769063
 30
0.0
 40
5.0
  0
LINE
  5
E7
330
2
100
AcDbEntity
  8
AM_7
100
AcDbLine
 10
1465.025688772259
 20
529.0624493518509
 30
0.0
 11
1465.025688772259
 21
516.8958127465414
 31
0.0
  0
LINE
  5
E8
330
2
100
AcDbEntity
  8
AM_1
100
AcDbLine
 10
1241.436540742891
 20
535.8317157769063
 30
0.0
 11
1238.436540742891
 21
535.8317157769063
 31
0.0
  0
LINE
  5
E9
330
2
100
AcDbEntity
  8
AM_7
100
AcDbLine
 10
1232.636540742891
 20
522.8317157769063
 30
0.0
 11
1247.636540742891
 21
522.8317157769063
 31
0.0
  0
DIMENSION
  5
EA
330
2
100
AcDbEntity
  8
AM_5
100
AcDbDimension
  2
*D1
 10
1238.436540742891
 20
555.8317157769063
 30
0.0
 11
1223.89156599606
 21
562.3317157769063
 31
0.0
  1
<>
 71
     5
 42
2.999999999999772
  3
AM_ISO
100
AcDbAlignedDimension
 13
1241.436540742891
 23
535.8317157769063
 33
0.0
 14
1238.436540742891
 24
535.8317157769063
 34
0.0
 50
180.0
100
AcDbRotatedDimension
1001
ACAD
1000
DSTYLE
1002
{
1070
    40
1040
2.0
1002
}
1001
GENIUS_GENDTOL_13
1000

1000
h7
1000

1040
0.0
  0
LINE
  5
F9
330
2
100
AcDbEntity
  8
AM_1
100
AcDbLine
 10
1325.43654074289
 20
500.8317157769063
 30
0.0
 11
1336.43654074289
 21
490.8317157769062
 31
0.0
  0
LINE
  5
FA
330
2
100
AcDbEntity
  8
AM_7
100
AcDbLine
 10
1300.436540742891
 20
483.8317157769064
 30
0.0
 11
1306.436540742891
 21
483.8317157769064
 31
0.0
  0
LINE
  5
FB
330
2
100
AcDbEntity
  8
AM_7
100
AcDbLine
 10
1303.436540742891
 20
480.8317157769064
 30
0.0
 11
1303.436540742891
 21
486.8317157769064
 31
0.0
  0
CIRCLE
  5
FC
330
2
100
AcDbEntity
  8
AM_1
100
AcDbCircle
 10
1303.436540742891
 20
483.8317157769063
 30
0.0
 40
5.0
  0
LINE
  5
FD
330
2
100
AcDbEntity
  8
AM_7
100
AcDbLine
 10
1319.43654074289
 20
437.8317157769063
 30
0.0
 11
1325.43654074289
 21
437.8317157769063
 31
0.0
  0
LINE
  5
FE
330
2
100
AcDbEntity
  8
AM_5
100
AcDbLine
 10
1319.43654074289
 20
437.8317157769063
 30
0.0
 11
1313.93654074289
 21
437.8317157769063
 31
0.0
  0
LINE
  5
FF
330
2
100
AcDbEntity
  8
AM_1
100
AcDbLine
 10
1307.936540742891
 20
442.3317157769063
 30
0.0
 11
1307.936540742891
 21
433.3317157769063
 31
0.0
  0
CIRCLE
  5
100
330
2
100
AcDbEntity
  8
AM_1
100
AcDbCircle
 10
1322.43654074099
 20
437.8317157769063
 30
0.0
 40
3.75
  0
LINE
  5
101
330
2
100
AcDbEntity
  8
AM_1
100
AcDbLine
 10
1303.436540742891
 20
433.3317157769063
 30
0.0
 11
1298.93654074289
 21
433.3317157769063
 31
0.0
  0
LINE
  5
102
330
2
100
AcDbEntity
  8
AM_1
100
AcDbLine
 10
1298.93654074289
 20
433.3317157769063
 30
0.0
 11
1298.93654074289
 21
442.3317157769063
 31
0.0
  0
LINE
  5
103
330
2
100
AcDbEntity
  8
AM_7
100
AcDbLine
 10
1303.436540742891
 20
448.3317157769063
 30
0.0
 11
1303.436540742891
 21
427.3317157769063
 31
0.0
  0
CIRCLE
  5
104
330
2
100
AcDbEntity
  8
AM_1
100
AcDbCircle
 10
1303.436540742891
 20
437.8317157769063
 30
0.0
 40
2.5
  0
LINE
  5
105
330
2
100
AcDbEntity
  8
AM_7
100
AcDbLine
 10
1281.43654074289
 20
437.8317157769063
 30
0.0
 11
1287.436540742891
 21
437.8317157769063
 31
0.0
  0
CIRCLE
  5
106
330
2
100
AcDbEntity
  8
AM_1
100
AcDbCircle
 10
1284.43654074479
 20
437.8317157769063
 30
0.0
 40
3.75
  0
LINE
  5
107
330
2
100
AcDbEntity
  8
AM_1
100
AcDbLine
 10
1307.936540742891
 20
433.3317157769063
 30
0.0
 11
1303.436540742891
 21
433.3317157769063
 31
0.0
  0
LINE
  5
108
330
2
100
AcDbEntity
  8
AM_1
100
AcDbLine
 10
1298.93654074289
 20
442.3317157769063
 30
0.0
 11
1307.936540742891
 21
442.3317157769063
 31
0.0
  0
LINE
  5
109
330
2
100
AcDbEntity
  8
AM_7
100
AcDbLine
 10
1292.93654074289
 20
437.8317157769063
 30
0.0
 11
1313.93654074289
 21
437.8317157769063
 31
0.0
  0
CIRCLE
  5
10A
330
2
100
AcDbEntity
  8
AM_1
100
AcDbCircle
 10
1303.436540742891
 20
437.8317157769063
 30
0.0
 40
10.5
  0
DIMENSION
  5
10B
330
2
100
AcDbEntity
  8
AM_5
100
AcDbDimension
  2
*D28
 10
1298.93654074289
 20
462.3317157769063
 30
0.0
 11
1279.927630233051
 21
468.8317157769063
 31
0.0
  1
{\Famgdt;o}<>
 71
     5
 42
9.0
  3
AM_ISO
100
AcDbAlignedDimension
 13
1307.936540742891
 23
442.3317157769063
 33
0.0
 14
1298.93654074289
 24
442.3317157769063
 34
0.0
 50
180.0
100
AcDbRotatedDimension
1001
ACAD
1000
DSTYLE
1002
{
1070
    40
1040
2.0
1002
}
1001
GENIUS_GENDTOL_13
1000

1000
h7
1000

1040
0.0
  0
LINE
  5
11A
330
2
100
AcDbEntity
  8
AM_1
100
AcDbLine
 10
1241.436540742891
 20
478.8317157769063
 30
0.0
 11
1244.236540742891
 21
478.8317157769063
 31
0.0
  0
LINE
  5
11B
330
2
100
AcDbEntity
  8
AM_1
100
AcDbLine
 10
1241.436540742891
 20
480.8317157769063
 30
0.0
 11
1260.43654074289
 21
480.8317157769063
 31
0.0
  0
DIMENSION
  5
11C
330
2
100
AcDbEntity
  8
AM_5
100
AcDbDimension
  2
*D24
 10
1226.43654074289
 20
506.7129875345804
 30
0.0
 11
1232.43654074289
 21
506.7129875345804
 31
0.0
 70
   128
  1
<>
 71
     5
 42
12.0
  3
AM_ISO
100
AcDbAlignedDimension
 13
1238.436540742891
 23
482.8317157769062
 33
0.0
 14
1226.43654074289
 24
482.8317157769064
 34
0.0
 50
180.0
100
AcDbRotatedDimension
1001
ACAD
1000
DSTYLE
1002
{
1070
    40
1040
2.0
1002
}
1001
GENIUS_GENDTOL_13
1000

1000
h7
1000

1040
0.0
  0
LINE
  5
12B
330
2
100
AcDbEntity
  8
AM_1
100
AcDbLine
 10
1238.436540742891
 20
482.8317157769062
 30
0.0
 11
1226.43654074289
 21
482.8317157769064
 31
0.0
  0
LINE
  5
12C
330
2
100
AcDbEntity
  8
AM_1
100
AcDbLine
 10
1226.436540742891
 20
478.8317157769061
 30
0.0
 11
1238.436540742891
 21
478.8317157769063
 31
0.0
  0
LINE
  5
12D
330
2
100
AcDbEntity
  8
AM_1
100
AcDbLine
 10
1241.436540742891
 20
454.8317157769063
 30
0.0
 11
1244.236540742891
 21
454.8317157769063
 31
0.0
  0
LINE
  5
12E
330
2
100
AcDbEntity
  8
AM_1
100
AcDbLine
 10
1260.43654074289
 20
452.8317157769063
 30
0.0
 11
1241.436540742891
 21
452.8317157769064
 31
0.0
  0
LINE
  5
12F
330
2
100
AcDbEntity
  8
AM_1
100
AcDbLine
 10
1238.436540742891
 20
454.8317157769063
 30
0.0
 11
1226.436540742891
 21
454.8317157769063
 31
0.0
  0
LINE
  5
130
330
2
100
AcDbEntity
  8
AM_1
100
AcDbLine
 10
1226.436540742891
 20
450.8317157769062
 30
0.0
 11
1238.436540742891
 21
450.8317157769063
 31
0.0
  0
LINE
  5
131
330
2
100
AcDbEntity
  8
AM_1
100
AcDbLine
 10
1226.43654074289
 20
482.8317157769064
 30
0.0
 11
1226.436540742891
 21
450.8317157769062
 31
0.0
  0
LINE
  5
132
330
2
100
AcDbEntity
  8
AM_1
100
AcDbLine
 10
1244.236540742891
 20
478.8317157769063
 30
0.0
 11
1244.236540742891
 21
454.8317157769063
 31
0.0
  0
LINE
  5
133
330
2
100
AcDbEntity
  8
AM_1
100
AcDbLine
 10
1260.43654074289
 20
452.8317157769063
 30
0.0
 11
1260.43654074289
 21
480.8317157769063
 31
0.0
  0
LINE
  5
134
330
2
100
AcDbEntity
  8
AM_1
100
AcDbLine
 10
1241.636540742891
 20
500.8317157769063
 30
0.0
 11
1325.43654074289
 21
500.8317157769063
 31
0.0
  0
LINE
  5
135
330
2
100
AcDbEntity
  8
AM_7
100
AcDbLine
 10
1300.436540742891
 20
416.3317157769062
 30
0.0
 11
1306.436540742891
 21
416.3317157769062
 31
0.0
  0
LINE
  5
136
330
2
100
AcDbEntity
  8
AM_7
100
AcDbLine
 10
1303.436540742891
 20
413.3317157769063
 30
0.0
 11
1303.436540742891
 21
419.3317157769063
 31
0.0
  0
DIMENSION
  5
137
330
2
100
AcDbEntity
  8
AM_5
100
AcDbDimension
  2
*D9
 10
1322.436540742891
 20
387.2246235560972
 30
0.0
 11
1303.436540742891
 21
393.7246235560972
 31
0.0
  1
<>
 71
     5
 42
38.0
  3
AM_ISO
100
AcDbAlignedDimension
 13
1284.436540742891
 23
391.5353813114673
 33
0.0
 14
1322.436540742891
 24
391.5353813114673
 34
0.0
100
AcDbRotatedDimension
1001
ACAD
1000
DSTYLE
1002
{
1070
    40
1040
2.0
1002
}
1001
GENIUS_GENDTOL_13
1000

1000
h7
1000

1040
0.0
  0
CIRCLE
  5
144
330
2
100
AcDbEntity
  8
AM_1
100
AcDbCircle
 10
1303.436540742891
 20
416.3317157790563
 30
0.0
 40
5.0
  0
LINE
  5
145
330
2
100
AcDbEntity
  8
AM_7
100
AcDbLine
 10
1319.43654074289
 20
357.8317157769063
 30
0.0
 11
1325.43654074289
 21
357.8317157769063
 31
0.0
  0
LINE
  5
146
330
2
100
AcDbEntity
  8
AM_1
100
AcDbLine
 10
1336.43654074289
 20
345.8317157769063
 30
0.0
 11
1325.43654074289
 21
335.8317157769063
 31
0.0
  0
LINE
  5
147
330
2
100
AcDbEntity
  8
AM_7
100
AcDbLine
 10
1322.436540742891
 20
354.8317157769063
 30
0.0
 11
1322.436540742891
 21
360.8317157769063
 31
0.0
  0
LINE
  5
148
330
2
100
AcDbEntity
  8
AM_1
100
AcDbLine
 10
1308.586540742375
 20
345.8317157861063
 30
0.0
 11
1308.586540742375
 21
358.8817157848014
 31
0.0
  0
CIRCLE
  5
149
330
2
100
AcDbEntity
  8
AM_1
100
AcDbCircle
 10
1322.43654074099
 20
357.8317157849065
 30
0.0
 40
3.75
  0
LINE
  5
14A
330
2
100
AcDbEntity
  8
AM_7
100
AcDbLine
 10
1281.43654074289
 20
357.8317157769063
 30
0.0
 11
1287.436540742891
 21
357.8317157769063
 31
0.0
  0
LINE
  5
14B
330
2
100
AcDbEntity
  8
AM_7
100
AcDbLine
 10
1284.436540742891
 20
354.8317157769063
 30
0.0
 11
1284.436540742891
 21
360.8317157769063
 31
0.0
  0
LINE
  5
14C
330
2
100
AcDbEntity
  8
AM_7
100
AcDbLine
 10
1303.436540742891
 20
374.4317157769064
 30
0.0
 11
1303.436540742891
 21
341.4317157769064
 31
0.0
  0
LINE
  5
14D
330
2
100
AcDbEntity
  8
AM_1
100
AcDbLine
 10
1298.286540743406
 20
358.8817157848014
 30
0.0
 11
1298.286540743406
 21
345.8317157861063
 31
0.0
  0
CIRCLE
  5
14E
330
2
100
AcDbEntity
  8
AM_1
100
AcDbCircle
 10
1284.43654074479
 20
357.8317157849067
 30
0.0
 40
3.75
  0
LINE
  5
14F
330
2
100
AcDbEntity
  8
AM_7
100
AcDbLine
 10
1298.436540742891
 20
345.8317157861063
 30
0.0
 11
1308.436540742891
 21
345.8317157861063
 31
0.0
  0
LINE
  5
150
330
2
100
AcDbEntity
  8
AM_7
100
AcDbLine
 10
1294.836540742891
 20
365.8317157769063
 30
0.0
 11
1312.036540742891
 21
365.8317157769063
 31
0.0
  0
ARC
  5
151
330
2
100
AcDbEntity
  8
AM_1
100
AcDbCircle
 10
1303.436540742891
 20
365.8317157841064
 30
0.0
 40
8.650144506598431
100
AcDbArc
 50
306.5387118574264
 51
233.4612881425736
  0
ARC
  5
152
330
2
100
AcDbEntity
  8
AM_1
100
AcDbCircle
 10
1303.436540742891
 20
345.8317157861063
 30
0.0
 40
5.149999999484999
100
AcDbArc
 50
180.0
 51
0.0
  0
LINE
  5
153
330
2
100
AcDbEntity
  8
AM_1
100
AcDbLine
 10
1238.436540742891
 20
400.8317157769062
 30
0.0
 11
1227.436540742891
 21
400.8317157769061
 31
0.0
  0
LINE
  5
154
330
2
100
AcDbEntity
  8
AM_1
100
AcDbLine
 10
1238.436540742891
 20
365.8317157769062
 30
0.0
 11
1227.436540742891
 21
365.8317157769062
 31
0.0
  0
LINE
  5
155
330
2
100
AcDbEntity
  8
AM_1
100
AcDbLine
 10
1227.436540742891
 20
400.8317157769061
 30
0.0
 11
1227.436540742891
 21
365.8317157769062
 31
0.0
  0
LINE
  5
156
330
2
100
AcDbEntity
  8
AM_1
100
AcDbLine
 10
1325.43654074289
 20
335.8317157769063
 30
0.0
 11
1241.636540742891
 21
335.8317157769063
 31
0.0
  0
LINE
  5
157
330
2
100
AcDbEntity
  8
AM_1
100
AcDbLine
 10
1241.436540742891
 20
351.4771610056264
 30
0.0
 11
1241.436540742891
 21
503.8348290266794
 31
0.0
  0
LINE
  5
158
330
2
100
AcDbEntity
  8
AM_7
100
AcDbLine
 10
1284.436540742891
 20
361.6317157769063
 30
0.0
 11
1284.436540742891
 21
440.8317157769062
 31
0.0
  0
LINE
  5
159
330
2
100
AcDbEntity
  8
AM_1
100
AcDbLine
 10
1336.43654074289
 20
490.8317157769062
 30
0.0
 11
1336.43654074289
 21
345.8317157769063
 31
0.0
  0
LINE
  5
15A
330
2
100
AcDbEntity
  8
AM_7
100
AcDbLine
 10
1322.436540742891
 20
361.6317157769063
 30
0.0
 11
1322.436540742891
 21
440.8317157769062
 31
0.0
  0
DIMENSION
  5
15B
330
2
100
AcDbEntity
  8
AM_5
100
AcDbDimension
  2
*D25
 10
1202.43654074289
 20
365.8317157769062
 30
0.0
 11
1195.936540742891
 21
383.3317157769064
 31
0.0
  1
<>
 71
     5
 42
35.0
  3
AM_ISO
100
AcDbAlignedDimension
 13
1216.436540742891
 23
400.8317157769061
 33
0.0
 14
1227.436540742891
 24
365.8317157769062
 34
0.0
 50
270.0
100
AcDbRotatedDimension
1001
ACAD
1000
DSTYLE
1002
{
1070
    40
1040
2.0
1002
}
1001
GENIUS_GENDTOL_13
1000

1000
h7
1000

1040
0.0
  0
DIMENSION
  5
168
330
2
100
AcDbEntity
  8
AM_5
100
AcDbDimension
  2
*D26
 10
1202.43654074289
 20
400.8317157769061
 30
0.0
 11
1195.936540742891
 21
425.8317157769064
 31
0.0
  1
<>
 71
     5
 42
50.0
  3
AM_ISO
100
AcDbAlignedDimension
 13
1226.436540742891
 23
450.8317157769062
 33
0.0
 14
1227.436540742891
 24
400.8317157769061
 34
0.0
 50
270.0
100
AcDbRotatedDimension
1001
ACAD
1000
DSTYLE
1002
{
1070
    40
1040
2.0
1002
}
1001
GENIUS_GENDTOL_13
1000

1000
h7
1000

1040
0.0
  0
DIMENSION
  5
175
330
2
100
AcDbEntity
  8
AM_5
100
AcDbDimension
  2
*D27
 10
1202.43654074289
 20
482.8317157769064
 30
0.0
 11
1195.935851766513
 21
466.8317157769065
 31
0.0
  1
<>
 71
     5
 42
32.00000000000023
  3
AM_ISO
100
AcDbAlignedDimension
 13
1226.436540742891
 23
450.8317157769062
 33
0.0
 14
1226.43654074289
 24
482.8317157769064
 34
0.0
 50
270.0
100
AcDbRotatedDimension
1001
ACAD
1000
DSTYLE
1002
{
1070
    40
1040
2.0
1002
}
1001
GENIUS_GENDTOL_13
1000

1000
h7
1000

1040
0.0
  0
DIMENSION
  5
182
330
2
100
AcDbEntity
  8
AM_5
100
AcDbDimension
  2
*D20
 10
1186.642384334478
 20
535.8317157769063
 30
0.0
 11
1186.642384334478
 21
529.3317157769064
 31
0.0
 70
   128
  1
<>
 71
     5
 42
13.0
  3
AM_ISO
100
AcDbAlignedDimension
 13
1232.636540742891
 23
522.8317157769063
 33
0.0
 14
1238.436540742891
 24
535.8317157769063
 34
0.0
 50
270.0
100
AcDbRotatedDimension
1001
ACAD
1000
DSTYLE
1002
{
1070
    40
1040
2.0
1002
}
1001
GENIUS_GENDTOL_13
1000

1000
h7
1000

1040
0.0
  0
DIMENSION
  5
191
330
2
100
AcDbEntity
  8
AM_5
100
AcDbDimension
  2
*D23
 10
1202.43654074289
 20
482.8317157769064
 30
0.0
 11
1195.936540742891
 21
509.3317157769066
 31
0.0
  1
<>
 71
     5
 42
52.99999999999982
  3
AM_ISO
100
AcDbAlignedDimension
 13
1238.436540742891
 23
535.8317157769063
 33
0.0
 14
1226.43654074289
 24
482.8317157769064
 34
0.0
 50
270.0
100
AcDbRotatedDimension
1001
ACAD
1000
DSTYLE
1002
{
1070
    40
1040
2.0
1002
}
1001
GENIUS_GENDTOL_13
1000

1000
h7
1000

1040
0.0
  0
LINE
  5
19E
330
2
100
AcDbEntity
  8
AM_1
100
AcDbLine
 10
1241.436540742891
 20
510.1652948709989
 30
0.0
 11
1241.436540742891
 21
535.8317157769063
 31
0.0
  0
DIMENSION
  5
19F
330
2
100
AcDbEntity
  8
AM_5
100
AcDbDimension
  2
*D12
 10
1388.436540742891
 20
535.8317157769062
 30
0.0
 11
1381.93654074289
 21
518.3317157769064
 31
0.0
  1
<>
 71
     5
 42
34.99999999999995
  3
AM_ISO
100
AcDbAlignedDimension
 13
1325.43654074289
 23
500.8317157769063
 33
0.0
 14
1241.436540742891
 24
535.8317157769063
 34
0.0
 50
90.0
100
AcDbRotatedDimension
1001
ACAD
1000
DSTYLE
1002
{
1070
    40
1040
2.0
1002
}
1001
GENIUS_GENDTOL_13
1000

1000
h7
1000

1040
0.0
  0
DIMENSION
  5
1AC
330
2
100
AcDbEntity
  8
AM_5
100
AcDbDimension
  2
*D13
 10
1372.436540742891
 20
357.8317157769063
 30
0.0
 11
1365.936540742891
 21
343.4317157769066
 31
0.0
  1
<>
 71
     5
 42
8.0
  3
AM_ISO
100
AcDbAlignedDimension
 13
1303.436540742891
 23
365.8317157769063
 33
0.0
 14
1322.436540742891
 24
357.8317157769063
 34
0.0
 50
90.0
100
AcDbRotatedDimension
1001
ACAD
1000
DSTYLE
1002
{
1070
    40
1040
2.0
1002
}
1001
GENIUS_GENDTOL_13
1000

1000
h7
1000

1040
0.0
  0
DIMENSION
  5
1BB
330
2
100
AcDbEntity
  8
AM_5
100
AcDbDimension
  2
*D14
 10
1372.436540742891
 20
365.8317157769063
 30
0.0
 11
1365.935851766512
 21
401.8317157769065
 31
0.0
  1
<>
 71
     5
 42
72.0
  3
AM_ISO
100
AcDbAlignedDimension
 13
1326.18654074099
 23
437.8317157769063
 33
0.0
 14
1303.436540742891
 24
365.8317157769063
 34
0.0
 50
90.0
100
AcDbRotatedDimension
1001
ACAD
1000
DSTYLE
1002
{
1070
    40
1040
2.0
1002
}
1001
GENIUS_GENDTOL_13
1000

1000
h7
1000

1040
0.0
  0
DIMENSION
  5
1C8
330
2
100
AcDbEntity
  8
AM_5
100
AcDbDimension
  2
*D15
 10
1372.436540742891
 20
437.8317157769063
 30
0.0
 11
1365.936540742891
 21
486.8317157769064
 31
0.0
  1
<>
 71
     5
 42
97.99999999999995
  3
AM_ISO
100
AcDbAlignedDimension
 13
1241.436540742891
 23
535.8317157769063
 33
0.0
 14
1326.18654074099
 24
437.8317157769063
 34
0.0
 50
90.0
100
AcDbRotatedDimension
1001
ACAD
1000
DSTYLE
1002
{
1070
    40
1040
2.0
1002
}
1001
GENIUS_GENDTOL_13
1000

1000
h7
1000

1040
0.0
  0
DIMENSION
  5
1D5
330
2
100
AcDbEntity
  8
AM_5
100
AcDbDimension
  2
*D16
 10
1356.436540742891
 20
437.8317157769063
 30
0.0
 11
1349.935851766512
 21
427.0817157769065
 31
0.0
  1
<>
 71
     5
 42
21.5
  3
AM_ISO
100
AcDbAlignedDimension
 13
1303.436540742891
 23
416.3317157769062
 33
0.0
 14
1322.436540742891
 24
437.8317157769063
 34
0.0
 50
90.0
100
AcDbRotatedDimension
1001
ACAD
1000
DSTYLE
1002
{
1070
    40
1040
2.0
1002
}
1001
GENIUS_GENDTOL_13
1000

1000
h7
1000

1040
0.0
  0
DIMENSION
  5
1E2
330
2
100
AcDbEntity
  8
AM_5
100
AcDbDimension
  2
*D17
 10
1356.436540742891
 20
483.8317157769064
 30
0.0
 11
1349.936540742891
 21
460.8317157769065
 31
0.0
  1
<>
 71
     5
 42
46.00000000000011
  3
AM_ISO
100
AcDbAlignedDimension
 13
1322.436540742891
 23
437.8317157769063
 33
0.0
 14
1303.436540742891
 24
483.8317157769064
 34
0.0
 50
90.0
100
AcDbRotatedDimension
1001
ACAD
1000
DSTYLE
1002
{
1070
    40
1040
2.0
1002
}
1001
GENIUS_GENDTOL_13
1000

1000
h7
1000

1040
0.0
  0
DIMENSION
  5
1EF
330
2
100
AcDbEntity
  8
AM_5
100
AcDbDimension
  2
*D7
 10
1388.436540742891
 20
335.8317157769063
 30
0.0
 11
1381.93654074289
 21
418.3317157769065
 31
0.0
  1
<>
 71
     5
 42
165.0
  3
AM_ISO
100
AcDbAlignedDimension
 13
1325.43654074289
 23
500.8317157769063
 33
0.0
 14
1325.43654074289
 24
335.8317157769063
 34
0.0
 50
90.0
100
AcDbRotatedDimension
1001
ACAD
1000
DSTYLE
1002
{
1070
    40
1040
2.0
1002
}
1001
GENIUS_GENDTOL_13
1000

1000
h7
1000

1040
0.0
  0
TEXT
  5
1FC
330
2
100
AcDbEntity
  8
AM_5
 62
     3
100
AcDbText
 10
1327.134099421986
 20
554.8013837021565
 30
0.0
 40
7.0
  1
Senkung DIN74-Am5
 72
     2
 11
1410.374048915647
 21
554.8013837021565
 31
0.0
100
AcDbText
  0
CIRCLE
  5
1FD
330
2
100
AcDbEntity
  8
AM_1
100
AcDbCircle
 10
1465.025688772259
 20
313.8317157769066
 30
0.0
 40
2.75
  0
LINE
  5
1FE
330
2
100
AcDbEntity
  8
AM_7
100
AcDbLine
 10
1465.025688772259
 20
320.062449351851
 30
0.0
 11
1465.025688772259
 21
307.8958127465414
 31
0.0
  0
LINE
  5
1FF
330
2
100
AcDbEntity
  8
AM_3
100
AcDbLine
 10
1477.025688772259
 20
312.8317157769065
 30
0.0
 11
1477.025688772259
 21
300.8317157769066
 31
0.0
  0
LINE
  5
200
330
2
100
AcDbEntity
  8
AM_3
100
AcDbLine
 10
1453.025688772259
 20
312.8317157769065
 30
0.0
 11
1453.025688772259
 21
300.8317157769066
 31
0.0
  0
CIRCLE
  5
201
330
2
100
AcDbEntity
  8
AM_1
100
AcDbCircle
 10
1465.025688772259
 20
313.8317157769066
 30
0.0
 40
5.0
  0
LINE
  5
202
330
2
100
AcDbEntity
  8
AM_3
100
AcDbLine
 10
1453.025688772259
 20
300.8317157769066
 30
0.0
 11
1477.025688772259
 21
300.8317157769066
 31
0.0
  0
ARC
  5
203
330
2
100
AcDbEntity
  8
AM_1
100
AcDbCircle
 10
1465.025688772259
 20
312.8317157769065
 30
0.0
 40
12.0
100
AcDbArc
 50
180.0
 51
0.0
  0
LINE
  5
204
330
2
100
AcDbEntity
  8
AM_7
100
AcDbLine
 10
1459.020125274863
 20
313.8317157769066
 30
0.0
 11
1470.990556520765
 21
313.8317157769066
 31
0.0
  0
TEXT
  5
205
330
2
100
AcDbEntity
  8
AM_5
 62
     3
100
AcDbText
 10
1457.385118812729
 20
268.2365512534179
 30
0.0
 40
7.0
  1
(20)
100
AcDbText
  0
DIMENSION
  5
206
330
2
100
AcDbEntity
  8
AM_5
100
AcDbDimension
  2
*D2
 10
1453.025688772259
 20
280.8317157769065
 30
0.0
 11
1465.025688772259
 21
287.3324047532845
 31
0.0
  1
<>
 71
     5
 42
24.0
  3
AM_ISO
100
AcDbAlignedDimension
 13
1477.025688772259
 23
300.8317157769066
 33
0.0
 14
1453.025688772259
 24
300.8317157769066
 34
0.0
100
AcDbRotatedDimension
1001
ACAD
1000
DSTYLE
1002
{
1070
    40
1040
2.0
1002
}
1001
GENIUS_GENDTOL_13
1000

1000
h7
1000

1040
0.0
  0
LINE
  5
213
330
2
100
AcDbEntity
  8
AM_7
100
AcDbLine
 10
1232.636540742891
 20
313.8317157769063
 30
0.0
 11
1247.636540742891
 21
313.8317157769063
 31
0.0
  0
LINE
  5
214
330
2
100
AcDbEntity
  8
AM_1
100
AcDbLine
 10
1241.436540742891
 20
300.8317157769063
 30
0.0
 11
1238.436540742891
 21
300.8317157769063
 31
0.0
  0
LINE
  5
215
330
2
100
AcDbEntity
  8
AM_1
100
AcDbLine
 10
1313.936540742891
 20
224.9227722709194
 30
0.0
 11
1313.936540742891
 21
225.6727722709194
 31
0.0
  0
LINE
  5
216
330
2
100
AcDbEntity
  8
AM_1
100
AcDbLine
 10
1313.93654074289
 20
210.9227722709194
 30
0.0
 11
1313.93654074289
 21
210.1727722709194
 31
0.0
  0
LINE
  5
217
330
2
100
AcDbEntity
  8
AM_1
100
AcDbLine
 10
1325.436540742891
 20
224.9227722709194
 30
0.0
 11
1325.436540742891
 21
210.9227722709192
 31
0.0
  0
LINE
  5
218
330
2
100
AcDbEntity
  8
AM_1
100
AcDbLine
 10
1335.43654074289
 20
224.9227722709194
 30
0.0
 11
1335.43654074289
 21
210.9227722709194
 31
0.0
  0
LINE
  5
219
330
2
100
AcDbEntity
  8
AM_1
100
AcDbLine
 10
1292.93654074289
 20
225.6727722709194
 30
0.0
 11
1292.93654074289
 21
224.9227722709194
 31
0.0
  0
LINE
  5
21A
330
2
100
AcDbEntity
  8
AM_1
100
AcDbLine
 10
1292.936540742891
 20
210.9227722709194
 30
0.0
 11
1292.936540742891
 21
210.1727722709194
 31
0.0
  0
LINE
  5
21B
330
2
100
AcDbEntity
  8
AM_7
100
AcDbLine
 10
1303.436540742891
 20
231.4227722709194
 30
0.0
 11
1303.436540742891
 21
204.4227722709194
 31
0.0
  0
LINE
  5
21C
330
2
100
AcDbEntity
  8
AM_1
100
AcDbLine
 10
1313.936540742891
 20
225.6727722709194
 30
0.0
 11
1292.93654074289
 21
225.6727722709194
 31
0.0
  0
LINE
  5
21D
330
2
100
AcDbEntity
  8
AM_1
100
AcDbLine
 10
1313.93654074289
 20
210.1727722709194
 30
0.0
 11
1292.936540742891
 21
210.1727722709194
 31
0.0
  0
LINE
  5
21E
330
2
100
AcDbEntity
  8
AM_1
100
AcDbLine
 10
1241.43654074289
 20
228.9227722709194
 30
0.0
 11
1238.436540742891
 21
228.9227722709194
 31
0.0
  0
LINE
  5
21F
330
2
100
AcDbEntity
  8
AM_1
100
AcDbLine
 10
1241.43654074289
 20
204.9227722709194
 30
0.0
 11
1238.436540742891
 21
204.9227722709194
 31
0.0
  0
LINE
  5
220
330
2
100
AcDbEntity
  8
AM_1
100
AcDbLine
 10
1241.43654074289
 20
228.9227722709194
 30
0.0
 11
1241.43654074289
 21
204.9227722709194
 31
0.0
  0
LINE
  5
221
330
2
100
AcDbEntity
  8
AM_1
100
AcDbLine
 10
1238.436540742891
 20
228.9227722709194
 30
0.0
 11
1238.436540742891
 21
204.9227722709194
 31
0.0
  0
LINE
  5
222
330
2
100
AcDbEntity
  8
AM_1
100
AcDbLine
 10
1226.43654074289
 20
222.7227722709194
 30
0.0
 11
1226.43654074289
 21
220.7227722709194
 31
0.0
  0
LINE
  5
223
330
2
100
AcDbEntity
  8
AM_1
100
AcDbLine
 10
1227.436540742891
 20
219.7227722709193
 30
0.0
 11
1227.436540742891
 21
213.6227722709193
 31
0.0
  0
LINE
  5
224
330
2
100
AcDbEntity
  8
AM_1
100
AcDbLine
 10
1227.43654074289
 20
219.7227722709194
 30
0.0
 11
1227.43654074289
 21
214.2227722709194
 31
0.0
  0
LINE
  5
225
330
2
100
AcDbEntity
  8
AM_1
100
AcDbLine
 10
1226.43654074289
 20
220.7227722709194
 30
0.0
 11
1238.436540742891
 21
208.7227722709194
 31
0.0
  0
LINE
  5
226
330
2
100
AcDbEntity
  8
AM_1
100
AcDbLine
 10
1238.436540742891
 20
222.7227722709194
 30
0.0
 11
1226.43654074289
 21
222.7227722709194
 31
0.0
  0
LINE
  5
227
330
2
100
AcDbEntity
  8
AM_1
100
AcDbLine
 10
1226.43654074289
 20
220.7227722709194
 30
0.0
 11
1238.436540742891
 21
220.7227722709194
 31
0.0
  0
LINE
  5
228
330
2
100
AcDbEntity
  8
AM_0
100
AcDbLine
 10
1233.536540742891
 20
213.6227722709193
 30
0.0
 11
1227.436540742891
 21
213.6227722709193
 31
0.0
  0
LINE
  5
229
330
2
100
AcDbEntity
  8
AM_1
100
AcDbLine
 10
1335.43654074289
 20
210.9227722709194
 30
0.0
 11
1241.43654074289
 21
210.9227722709194
 31
0.0
  0
LINE
  5
22A
330
2
100
AcDbEntity
  8
AM_1
100
AcDbLine
 10
1335.43654074289
 20
224.9227722709194
 30
0.0
 11
1241.43654074289
 21
224.9227722709194
 31
0.0
  0
DIMENSION
  5
22B
330
2
100
AcDbEntity
  8
AM_5
100
AcDbDimension
  2
*D19
 10
1253.967899796466
 20
228.9227722709194
 30
0.0
 11
1247.117899796467
 21
248.2213943181637
 31
0.0
  1
4(1)
 71
     5
 42
4.0
  3
AM_ISO
100
AcDbAlignedDimension
 13
1241.43654074289
 23
224.9227722709194
 33
0.0
 14
1241.43654074289
 24
228.9227722709194
 34
0.0
 50
90.0
100
AcDbRotatedDimension
1001
ACAD
1000
DSTYLE
1002
{
1070
    40
1040
2.0
1002
}
1001
GENIUS_GENDTOL_13
1000

1000
h7
1000

1040
0.0
  0
DIMENSION
  5
23A
330
2
100
AcDbEntity
  8
AM_5
100
AcDbDimension
  2
*D10
 10
1371.436540742891
 20
225.6727722709193
 30
0.0
 11
1364.93654074289
 21
245.4677470177501
 31
0.0
  1
<>
 71
     5
 42
15.5
  3
AM_ISO
100
AcDbAlignedDimension
 13
1313.93654074289
 23
210.1727722709194
 33
0.0
 14
1313.936540742891
 24
225.6727722709193
 34
0.0
 50
90.0
100
AcDbRotatedDimension
1001
ACAD
1000
DSTYLE
1002
{
1070
    40
1040
2.0
1002
}
  0
DIMENSION
  5
249
330
2
100
AcDbEntity
  8
AM_5
100
AcDbDimension
  2
*D3
 10
1355.43654074289
 20
224.9227722709193
 30
0.0
 11
1348.93654074289
 21
217.9227722709196
 31
0.0
  1
<>
 71
     5
 42
14.0
  3
AM_ISO
100
AcDbAlignedDimension
 13
1335.43654074289
 23
210.9227722709194
 33
0.0
 14
1335.43654074289
 24
224.9227722709194
 34
0.0
 50
90.0
100
AcDbRotatedDimension
1001
ACAD
1000
DSTYLE
1002
{
1070
    40
1040
2.0
1002
}
1001
GENIUS_GENDTOL_13
1000

1000
h7
1000

1040
0.0
  0
DIMENSION
  5
258
330
2
100
AcDbEntity
  8
AM_5
100
AcDbDimension
  2
*D11
 10
1303.436540742891
 20
280.8317157769063
 30
0.0
 11
1319.93654074289
 21
287.3317157769063
 31
0.0
  1
<>
 71
     5
 42
33.0
  3
AM_ISO
100
AcDbAlignedDimension
 13
1336.43654074289
 23
345.8317157769063
 33
0.0
 14
1303.436540742891
 24
346.4317157769063
 34
0.0
100
AcDbRotatedDimension
1001
ACAD
1000
DSTYLE
1002
{
1070
    40
1040
2.0
1002
}
  0
DIMENSION
  5
265
330
2
100
AcDbEntity
  8
AM_5
100
AcDbDimension
  2
*D18
 10
1238.436540742891
 20
280.8317157769063
 30
0.0
 11
1270.93654074289
 21
287.3803963306904
 31
0.0
  1
Dornmaß
 71
     5
 42
65.0
  3
AM_ISO
100
AcDbAlignedDimension
 13
1303.436540742891
 23
346.4317157769063
 33
0.0
 14
1238.436540742891
 24
300.8317157769063
 34
0.0
100
AcDbRotatedDimension
1001
ACAD
1000
DSTYLE
1002
{
1070
    40
1040
2.0
1002
}
  0
DIMENSION
  5
272
330
2
100
AcDbEntity
  8
AM_5
100
AcDbDimension
  2
*D21
 10
1170.642384334478
 20
300.8317157769063
 30
0.0
 11
1164.1416953581
 21
418.3317157769065
 31
0.0
  1
<>
 71
     5
 42
235.0
  3
AM_ISO
100
AcDbAlignedDimension
 13
1238.436540742891
 23
535.8317157769063
 33
0.0
 14
1238.436540742891
 24
300.8317157769063
 34
0.0
 50
270.0
100
AcDbRotatedDimension
1001
ACAD
1000
DSTYLE
1002
{
1070
    40
1040
2.0
1002
}
1001
GENIUS_GENDTOL_13
1000

1000
h7
1000

1040
0.0
  0
DIMENSION
  5
27F
330
2
100
AcDbEntity
  8
AM_5
100
AcDbDimension
  2
*D22
 10
1186.642384334478
 20
313.8317157769063
 30
0.0
 11
1180.1416953581
 21
418.3317157769065
 31
0.0
  1
<>
 71
     5
 42
208.9999999999999
  3
AM_ISO
100
AcDbAlignedDimension
 13
1232.636540742891
 23
522.8317157769063
 33
0.0
 14
1232.636540742891
 24
313.8317157769063
 34
0.0
 50
270.0
100
AcDbRotatedDimension
1001
ACAD
1000
DSTYLE
1002
{
1070
    40
1040
2.0
1002
}
1001
GENIUS_GENDTOL_13
1000

1000
h7
1000

1040
0.0
  0
LINE
  5
28C
330
2
100
AcDbEntity
  8
AM_1
100
AcDbLine
 10
1238.436540742891
 20
300.8317157769063
 30
0.0
 11
1238.436540742891
 21
535.8317157769063
 31
0.0
  0
LINE
  5
28D
330
2
100
AcDbEntity
  8
AM_1
100
AcDbLine
 10
1241.436540742891
 20
300.8317157769063
 30
0.0
 11
1241.436540742891
 21
345.8922695235894
 31
0.0
  0
LINE
  5
28E
330
2
100
AcDbEntity
  8
AM_1
100
AcDbLine
 10
1453.025688772259
 20
312.8317157769065
 30
0.0
 11
1453.025688772259
 21
491.4680037706016
 31
0.0
  0
LINE
  5
28F
330
2
100
AcDbEntity
  8
AM_1
100
AcDbLine
 10
1477.025688772259
 20
491.4680037706016
 30
0.0
 11
1477.025688772259
 21
312.8317157769065
 31
0.0
  0
ENDSEC
  0
SECTION
  2
OBJECTS
  0
DICTIONARY
  5
8
330
0
100
AcDbDictionary
281
     1
  3
ACAD_COLOR
350
40
  3
ACAD_GROUP
350
2D
  3
ACAD_LAYOUT
350
7
  3
ACAD_MATERIAL
350
15
  3
ACAD_MLEADERSTYLE
350
43
  3
ACAD_MLINESTYLE
350
2E
  3
ACAD_PLOTSETTINGS
350
2F
  3
ACAD_PLOTSTYLENAME
350
13
  3
ACAD_SCALELIST
350
41
  3
ACAD_TABLESTYLE
350
42
  3
ACAD_VISUALSTYLE
350
B
  3
ACDB_RECOMPOSE_DATA
350
2F6
  3
AcDbVariableDictionary
350
2ED
  3
AcmDictionary
350
2A0
  3
AMG
350
291
  0
DICTIONARY
  5
3
330
2
100
AcDbDictionary
280
     1
281
     1
  0
DICTIONARY
  5
40
102
{ACAD_REACTORS
330
8
102
}
330
8
100
AcDbDictionary
281
     1
  0
DICTIONARY
  5
2D
102
{ACAD_REACTORS
330
8
102
}
330
8
100
AcDbDictionary
281
     1
  0
DICTIONARY
  5
7
102
{ACAD_REACTORS
330
8
102
}
330
8
100
AcDbDictionary
281
     1
  3
Layout1
350
F
  3
Model
350
6
  0
DICTIONARY
  5
15
102
{ACAD_REACTORS
330
8
102
}
330
8
100
AcDbDictionary
281
     1
  3
ByBlock
350
38
  3
ByLayer
350
30
  3
Global
350
14
  0
DICTIONARY
  5
43
102
{ACAD_REACTORS
330
8
102
}
330
8
100
AcDbDictionary
281
     1
  0
DICTIONARY
  5
2E
102
{ACAD_REACTORS
330
8
102
}
330
8
100
AcDbDictionary
281
     1
  3
Standard
350
45
  0
DICTIONARY
  5
2F
102
{ACAD_REACTORS
330
8
102
}
330
8
100
AcDbDictionary
281
     1
  0
ACDBDICTIONARYWDFLT
  5
13
102
{ACAD_REACTORS
330
8
102
}
330
8
100
AcDbDictionary
281
     1
  3
Normal
350
12
100
AcDbDictionaryWithDefault
340
12
  0
DICTIONARY
  5
41
102
{ACAD_REACTORS
330
8
102
}
330
8
100
AcDbDictionary
281
     1
  3
A0
350
49
  3
A1
350
4A
  3
A2
350
4B
  3
A3
350
4C
  3
A4
350
4D
  3
A5
350
4E
  3
A6
350
4F
  3
A7
350
50
  3
A8
350
51
  3
A9
350
52
  3
B0
350
53
  3
B1
350
54
  3
B2
350
55
  3
B3
350
56
  3
B4
350
57
  3
B5
350
58
  3
B6
350
59
  0
DICTIONARY
  5
42
102
{ACAD_REACTORS
330
8
102
}
330
8
100
AcDbDictionary
281
     1
  3
Standard
350
46
  0
DICTIONARY
  5
B
102
{ACAD_REACTORS
330
8
102
}
330
8
100
AcDbDictionary
281
     1
  3
2dWireframe
350
A
  3
Realistic
350
47
  3
Wireframe
350
48
  0
XRECORD
  5
2F6
102
{ACAD_REACTORS
330
8
102
}
330
8
100
AcDbXrecord
280
     1
 90
        1
330
46
  0
DICTIONARY
  5
2ED
102
{ACAD_REACTORS
330
8
102
}
330
8
100
AcDbDictionary
281
     1
  3
CANNOSCALE
350
2F0
  3
CMLEADERSTYLE
350
2EF
  3
CTABLESTYLE
350
2EE
  3
XCLIPFRAME
350
2F1
  0
DICTIONARY
  5
2A0
102
{ACAD_REACTORS
330
8
102
}
330
8
100
AcDbDictionary
281
     1
  3
AcmStdDictionary
350
2A1
  0
DICTIONARY
  5
291
102
{ACAD_REACTORS
330
8
102
}
330
8
100
AcDbDictionary
281
     1
  3
AcMgSettings
350
299
  0
LAYOUT
  5
F
102
{ACAD_REACTORS
330
7
102
}
330
7
100
AcDbPlotSettings
  1

  2
C:\Programme\Acadm2000\plotters\DWF Classic.pc3
  4

  6

 40
0.0
 41
0.0
 42
0.0
 43
0.0
 44
0.0
 45
0.0
 46
0.0
 47
0.0
 48
0.0
 49
0.0
140
0.0
141
0.0
142
1.0
143
1.0
 70
   688
 72
     0
 73
     0
 74
     5
  7
BMH monochrome06032003.ctb
 75
    16
147
1.0
 76
     0
 77
     2
 78
   300
148
0.0
149
0.0
100
AcDbLayout
  1
Layout1
 70
     1
 71
     1
 10
0.0
 20
0.0
 11
420.0
 21
297.0
 12
0.0
 22
0.0
 32
0.0
 14
1.000000000000000E+20
 24
1.000000000000000E+20
 34
1.000000000000000E+20
 15
-1.000000000000000E+20
 25
-1.000000000000000E+20
 35
-1.000000000000000E+20
146
0.0
 13
0.0
 23
0.0
 33
0.0
 16
1.0
 26
0.0
 36
0.0
 17
0.0
 27
1.0
 37
0.0
 76
     0
330
C
  0
LAYOUT
  5
6
102
{ACAD_REACTORS
330
7
102
}
330
7
100
AcDbPlotSettings
  1

  2
Canon N2000.pc3
  4
A4
  6
AM_VIEW1
 40
5.873749732971191
 41
5.873747825622558
 42
5.873748779296875
 43
5.873748779296875
 44
209.9733276367187
 45
296.9259948730469
 46
6.0
 47
0.0
 48
1589.1050668731
 49
45.50231227719314
140
1969.1050668731
141
609.586207199066
142
1.0
143
1.978002894143569
 70
 11952
 72
     1
 73
     0
 74
     4
  7
BMH monochrome06032003.ctb
 75
     0
147
0.5055604331827723
 76
     0
 77
     2
 78
   300
148
-1589.1050668731
149
-45.50231227719314
100
AcDbLayout
  1
Model
 70
     1
 71
     0
 10
0.0
 20
0.0
 11
12.0
 21
9.0
 12
0.0
 22
0.0
 32
0.0
 14
0.0
 24
0.0
 34
0.0
 15
0.0
 25
0.0
 35
0.0
146
0.0
 13
0.0
 23
0.0
 33
0.0
 16
1.0
 26
0.0
 36
0.0
 17
0.0
 27
1.0
 37
0.0
 76
     0
330
2
  0
MATERIAL
  5
38
102
{ACAD_XDICTIONARY
360
39
102
}
102
{ACAD_REACTORS
330
15
102
}
330
15
100
AcDbMaterial
  1
ByBlock
 72
     0
 43
0.0008202099737533
 43
0.0
 43
0.0
 43
0.0
 43
0.0
 43
0.0008202099737533
 43
0.0
 43
0.0
 43
0.0
 43
0.0
 43
1.0
 43
0.0
 43
0.0
 43
0.0
 43
0.0
 43
1.0
 77
     0
 47
0.0008202099737533
 47
0.0
 47
0.0
 47
0.0
 47
0.0
 47
0.0008202099737533
 47
0.0
 47
0.0
 47
0.0
 47
0.0
 47
1.0
 47
0.0
 47
0.0
 47
0.0
 47
0.0
 47
1.0
171
     0
 49
0.0008202099737533
 49
0.0
 49
0.0
 49
0.0
 49
0.0
 49
0.0008202099737533
 49
0.0
 49
0.0
 49
0.0
 49
0.0
 49
1.0
 49
0.0
 49
0.0
 49
0.0
 49
0.0
 49
1.0
175
     0
142
0.0008202099737533
142
0.0
142
0.0
142
0.0
142
0.0
142
0.0008202099737533
142
0.0
142
0.0
142
0.0
142
0.0
142
1.0
142
0.0
142
0.0
142
0.0
142
0.0
142
1.0
179
     0
144
0.0008202099737533
144
0.0
144
0.0
144
0.0
144
0.0
144
0.0008202099737533
144
0.0
144
0.0
144
0.0
144
0.0
144
1.0
144
0.0
144
0.0
144
0.0
144
0.0
144
1.0
147
0.0008202099737533
147
0.0
147
0.0
147
0.0
147
0.0
147
0.0008202099737533
147
0.0
147
0.0
147
0.0
147
0.0
147
1.0
147
0.0
147
0.0
147
0.0
147
0.0
147
1.0
  0
MATERIAL
  5
30
102
{ACAD_XDICTIONARY
360
31
102
}
102
{ACAD_REACTORS
330
15
102
}
330
15
100
AcDbMaterial
  1
ByLayer
 72
     0
 43
0.0008202099737533
 43
0.0
 43
0.0
 43
0.0
 43
0.0
 43
0.0008202099737533
 43
0.0
 43
0.0
 43
0.0
 43
0.0
 43
1.0
 43
0.0
 43
0.0
 43
0.0
 43
0.0
 43
1.0
 77
     0
 47
0.0008202099737533
 47
0.0
 47
0.0
 47
0.0
 47
0.0
 47
0.0008202099737533
 47
0.0
 47
0.0
 47
0.0
 47
0.0
 47
1.0
 47
0.0
 47
0.0
 47
0.0
 47
0.0
 47
1.0
171
     0
 49
0.0008202099737533
 49
0.0
 49
0.0
 49
0.0
 49
0.0
 49
0.0008202099737533
 49
0.0
 49
0.0
 49
0.0
 49
0.0
 49
1.0
 49
0.0
 49
0.0
 49
0.0
 49
0.0
 49
1.0
175
     0
142
0.0008202099737533
142
0.0
142
0.0
142
0.0
142
0.0
142
0.0008202099737533
142
0.0
142
0.0
142
0.0
142
0.0
142
1.0
142
0.0
142
0.0
142
0.0
142
0.0
142
1.0
179
     0
144
0.0008202099737533
144
0.0
144
0.0
144
0.0
144
0.0
144
0.0008202099737533
144
0.0
144
0.0
144
0.0
144
0.0
144
1.0
144
0.0
144
0.0
144
0.0
144
0.0
144
1.0
147
0.0008202099737533
147
0.0
147
0.0
147
0.0
147
0.0
147
0.0008202099737533
147
0.0
147
0.0
147
0.0
147
0.0
147
1.0
147
0.0
147
0.0
147
0.0
147
0.0
147
1.0
  0
MATERIAL
  5
14
102
{ACAD_XDICTIONARY
360
16
102
}
102
{ACAD_REACTORS
330
15
102
}
330
15
100
AcDbMaterial
  1
Global
 72
     0
 43
0.0008202099737533
 43
0.0
 43
0.0
 43
0.0
 43
0.0
 43
0.0008202099737533
 43
0.0
 43
0.0
 43
0.0
 43
0.0
 43
1.0
 43
0.0
 43
0.0
 43
0.0
 43
0.0
 43
1.0
 77
     0
 47
0.0008202099737533
 47
0.0
 47
0.0
 47
0.0
 47
0.0
 47
0.0008202099737533
 47
0.0
 47
0.0
 47
0.0
 47
0.0
 47
1.0
 47
0.0
 47
0.0
 47
0.0
 47
0.0
 47
1.0
171
     0
 49
0.0008202099737533
 49
0.0
 49
0.0
 49
0.0
 49
0.0
 49
0.0008202099737533
 49
0.0
 49
0.0
 49
0.0
 49
0.0
 49
1.0
 49
0.0
 49
0.0
 49
0.0
 49
0.0
 49
1.0
175
     0
142
0.0008202099737533
142
0.0
142
0.0
142
0.0
142
0.0
142
0.0008202099737533
142
0.0
142
0.0
142
0.0
142
0.0
142
1.0
142
0.0
142
0.0
142
0.0
142
0.0
142
1.0
179
     0
144
0.0008202099737533
144
0.0
144
0.0
144
0.0
144
0.0
144
0.0008202099737533
144
0.0
144
0.0
144
0.0
144
0.0
144
1.0
144
0.0
144
0.0
144
0.0
144
0.0
144
1.0
147
0.0008202099737533
147
0.0
147
0.0
147
0.0
147
0.0
147
0.0008202099737533
147
0.0
147
0.0
147
0.0
147
0.0
147
1.0
147
0.0
147
0.0
147
0.0
147
0.0
147
1.0
  0
MLINESTYLE
  5
45
102
{ACAD_REACTORS
330
2E
102
}
330
2E
100
AcDbMlineStyle
  2
STANDARD
 70
     0
  3

 62
   256
 51
90.0
 52
90.0
 71
     2
 49
0.5
 62
   256
  6
BYLAYER
 49
-0.5
 62
   256
  6
BYLAYER
  0
ACDBPLACEHOLDER
  5
12
102
{ACAD_REACTORS
330
13
102
}
330
13
  0
SCALE
  5
49
102
{ACAD_REACTORS
330
41
102
}
330
41
100
AcDbScale
 70
     0
300
1:1
140
1.0
141
1.0
290
     1
  0
SCALE
  5
4A
102
{ACAD_REACTORS
330
41
102
}
330
41
100
AcDbScale
 70
     0
300
1:2
140
1.0
141
2.0
290
     0
  0
SCALE
  5
4B
102
{ACAD_REACTORS
330
41
102
}
330
41
100
AcDbScale
 70
     0
300
1:4
140
1.0
141
4.0
290
     0
  0
SCALE
  5
4C
102
{ACAD_REACTORS
330
41
102
}
330
41
100
AcDbScale
 70
     0
300
1:5
140
1.0
141
5.0
290
     0
  0
SCALE
  5
4D
102
{ACAD_REACTORS
330
41
102
}
330
41
100
AcDbScale
 70
     0
300
1:8
140
1.0
141
8.0
290
     0
  0
SCALE
  5
4E
102
{ACAD_REACTORS
330
41
102
}
330
41
100
AcDbScale
 70
     0
300
1:10
140
1.0
141
10.0
290
     0
  0
SCALE
  5
4F
102
{ACAD_REACTORS
330
41
102
}
330
41
100
AcDbScale
 70
     0
300
1:16
140
1.0
141
16.0
290
     0
  0
SCALE
  5
50
102
{ACAD_REACTORS
330
41
102
}
330
41
100
AcDbScale
 70
     0
300
1:20
140
1.0
141
20.0
290
     0
  0
SCALE
  5
51
102
{ACAD_REACTORS
330
41
102
}
330
41
100
AcDbScale
 70
     0
300
1:30
140
1.0
141
30.0
290
     0
  0
SCALE
  5
52
102
{ACAD_REACTORS
330
41
102
}
330
41
100
AcDbScale
 70
     0
300
1:40
140
1.0
141
40.0
290
     0
  0
SCALE
  5
53
102
{ACAD_REACTORS
330
41
102
}
330
41
100
AcDbScale
 70
     0
300
1:50
140
1.0
141
50.0
290
     0
  0
SCALE
  5
54
102
{ACAD_REACTORS
330
41
102
}
330
41
100
AcDbScale
 70
     0
300
1:100
140
1.0
141
100.0
290
     0
  0
SCALE
  5
55
102
{ACAD_REACTORS
330
41
102
}
330
41
100
AcDbScale
 70
     0
300
2:1
140
2.0
141
1.0
290
     0
  0
SCALE
  5
56
102
{ACAD_REACTORS
330
41
102
}
330
41
100
AcDbScale
 70
     0
300
4:1
140
4.0
141
1.0
290
     0
  0
SCALE
  5
57
102
{ACAD_REACTORS
330
41
102
}
330
41
100
AcDbScale
 70
     0
300
8:1
140
8.0
141
1.0
290
     0
  0
SCALE
  5
58
102
{ACAD_REACTORS
330
41
102
}
330
41
100
AcDbScale
 70
     0
300
10:1
140
10.0
141
1.0
290
     0
  0
SCALE
  5
59
102
{ACAD_REACTORS
330
41
102
}
330
41
100
AcDbScale
 70
     0
300
100:1
140
100.0
141
1.0
290
     0
  0
TABLESTYLE
  5
46
102
{ACAD_XDICTIONARY
360
2F2
102
}
102
{ACAD_REACTORS
330
42
102
}
330
42
100
AcDbTableStyle
  3
Standard
 70
     0
 71
     0
 40
1.5
 41
1.5
280
     0
281
     0
  7
STANDARD
140
4.5
170
     2
 62
     0
 63
     7
283
     0
274
    -2
284
     1
 64
     0
275
    -2
285
     1
 65
     0
276
    -2
286
     1
 66
     0
277
    -2
287
     1
 67
     0
278
    -2
288
     1
 68
     0
279
    -2
289
     1
 69
     0
  7
STANDARD
140
6.0
170
     5
 62
     0
 63
     7
283
     0
274
    -2
284
     1
 64
     0
275
    -2
285
     1
 65
     0
276
    -2
286
     1
 66
     0
277
    -2
287
     1
 67
     0
278
    -2
288
     1
 68
     0
279
    -2
289
     1
 69
     0
  7
STANDARD
140
4.5
170
     5
 62
     0
 63
     7
283
     0
274
    -2
284
     1
 64
     0
275
    -2
285
     1
 65
     0
276
    -2
286
     1
 66
     0
277
    -2
287
     1
 67
     0
278
    -2
288
     1
 68
     0
279
    -2
289
     1
 69
     0
  0
VISUALSTYLE
  5
A
102
{ACAD_XDICTIONARY
360
2F7
102
}
102
{ACAD_REACTORS
330
B
102
}
330
B
100
AcDbVisualStyle
  2
2dWireframe
 70
     4
 71
     0
 72
     2
 73
     0
 90
        0
 40
-0.6
 41
-30.0
 62
     5
 63
     7
421
 16777215
 74
     1
 91
        4
 64
     7
 65
   257
 75
     1
175
     1
 42
1.0
 92
        0
 66
   257
 43
1.0
 76
     1
 77
     6
 78
     2
 67
     7
 79
     5
170
     0
171
     0
290
     0
174
     0
 93
        1
 44
0.0
173
     0
291
     0
 45
0.0
1001
ACAD
1000
AcDbSavedByObjectVersion
1070
     0
  0
VISUALSTYLE
  5
47
102
{ACAD_XDICTIONARY
360
2FD
102
}
102
{ACAD_REACTORS
330
B
102
}
330
B
100
AcDbVisualStyle
  2
Realistic
 70
     8
 71
     2
 72
     3
 73
     0
 90
        2
 40
-0.6
 41
30.0
 62
     5
 63
     7
421
 16777215
 74
     0
 91
        0
 64
     7
 65
   257
 75
     1
175
     1
 42
1.0
 92
        8
 66
   257
 43
1.0
 76
     1
 77
     6
 78
     2
 67
     7
 79
     3
170
     0
171
     0
290
     0
174
     0
 93
       13
 44
0.0
173
     0
291
     0
 45
0.0
1001
ACAD
1000
AcDbSavedByObjectVersion
1070
     0
  0
VISUALSTYLE
  5
48
102
{ACAD_XDICTIONARY
360
2FF
102
}
102
{ACAD_REACTORS
330
B
102
}
330
B
100
AcDbVisualStyle
  2
Wireframe
 70
     5
 71
     0
 72
     2
 73
     0
 90
        0
 40
-0.6
 41
-30.0
 62
     5
 63
     7
421
 16777215
 74
     1
 91
        4
 64
     7
 65
   257
 75
     1
175
     1
 42
1.0
 92
        0
 66
   257
 43
1.0
 76
     1
 77
     6
 78
     2
 67
     7
 79
     3
170
     0
171
     0
290
     0
174
     0
 93
        1
 44
0.0
173
     0
291
     0
 45
0.0
1001
ACAD
1000
AcDbSavedByObjectVersion
1070
     0
  0
DICTIONARYVAR
  5
2F0
102
{ACAD_REACTORS
330
2ED
102
}
330
2ED
100
DictionaryVariables
280
     0
  1
1:1
  0
DICTIONARYVAR
  5
2EF
102
{ACAD_REACTORS
330
2ED
102
}
330
2ED
100
DictionaryVariables
280
     0
  1
STANDARD
  0
DICTIONARYVAR
  5
2EE
102
{ACAD_REACTORS
330
2ED
102
}
330
2ED
100
DictionaryVariables
280
     0
  1
STANDARD
  0
DICTIONARYVAR
  5
2F1
102
{ACAD_REACTORS
330
2ED
102
}
330
2ED
100
DictionaryVariables
280
     0
  1
2
  0
DICTIONARY
  5
2A1
102
{ACAD_REACTORS
330
2A0
102
}
330
2A0
100
AcDbDictionary
281
     1
  0
DICTIONARY
  5
299
102
{ACAD_REACTORS
330
291
102
}
330
291
100
AcDbDictionary
281
     1
  3
DWGSETTINGS
350
298
  3
FEM
350
29A
  3
Shaft
350
29B
  3
TRANSSETTINGS
350
29C
  0
DICTIONARY
  5
39
330
38
100
AcDbDictionary
280
     1
281
     1
  3
ACAD_XREC_ROUNDTRIP
360
2FB
  3
BUMPTILE
360
3A
  3
DIFFUSETILE
360
3B
  3
OPACITYTILE
360
3C
  3
REFLECTIONTILE
360
3D
  3
REFRACTIONTILE
360
3E
  3
SPECULARTILE
360
3F
  0
DICTIONARY
  5
31
330
30
100
AcDbDictionary
280
     1
281
     1
  3
ACAD_XREC_ROUNDTRIP
360
2FA
  3
BUMPTILE
360
32
  3
DIFFUSETILE
360
33
  3
OPACITYTILE
360
34
  3
REFLECTIONTILE
360
35
  3
REFRACTIONTILE
360
36
  3
SPECULARTILE
360
37
  0
DICTIONARY
  5
16
330
14
100
AcDbDictionary
280
     1
281
     1
  3
ACAD_XREC_ROUNDTRIP
360
2F9
  3
BUMPTILE
360
17
  3
DIFFUSETILE
360
18
  3
OPACITYTILE
360
19
  3
REFLECTIONTILE
360
1A
  3
REFRACTIONTILE
360
1B
  3
SPECULARTILE
360
1C
  0
DICTIONARY
  5
2F2
330
46
100
AcDbDictionary
280
     1
281
     1
  3
ACAD_ROUNDTRIP_2008_TABLESTYLE_CELLSTYLEMAP
360
2F3
  3
ACAD_XREC_ROUNDTRIP
360
2FC
  0
DICTIONARY
  5
2F7
330
A
100
AcDbDictionary
280
     1
281
     1
  3
ACAD_XREC_ROUNDTRIP
360
2F8
  0
DICTIONARY
  5
2FD
330
47
100
AcDbDictionary
280
     1
281
     1
  3
ACAD_XREC_ROUNDTRIP
360
2FE
  0
DICTIONARY
  5
2FF
330
48
100
AcDbDictionary
280
     1
281
     1
  3
ACAD_XREC_ROUNDTRIP
360
300
  0
XRECORD
  5
2FB
102
{ACAD_REACTORS
330
39
102
}
330
39
100
AcDbXrecord
280
     1
102
MATERIAL
148
0.0
149
0.0
149
0.0
 93
        0
 94
      127
282
     0
 72
     0
 77
     0
171
     0
175
     0
179
     0
273
     0
  0
XRECORD
  5
3A
102
{ACAD_REACTORS
330
39
102
}
330
39
100
AcDbXrecord
280
     1
270
     1
271
     1
  0
XRECORD
  5
3B
102
{ACAD_REACTORS
330
39
102
}
330
39
100
AcDbXrecord
280
     1
270
     1
271
     1
  0
XRECORD
  5
3C
102
{ACAD_REACTORS
330
39
102
}
330
39
100
AcDbXrecord
280
     1
270
     1
271
     1
  0
XRECORD
  5
3D
102
{ACAD_REACTORS
330
39
102
}
330
39
100
AcDbXrecord
280
     1
270
     1
271
     1
  0
XRECORD
  5
3E
102
{ACAD_REACTORS
330
39
102
}
330
39
100
AcDbXrecord
280
     1
270
     1
271
     1
  0
XRECORD
  5
3F
102
{ACAD_REACTORS
330
39
102
}
330
39
100
AcDbXrecord
280
     1
270
     1
271
     1
  0
XRECORD
  5
2FA
102
{ACAD_REACTORS
330
31
102
}
330
31
100
AcDbXrecord
280
     1
102
MATERIAL
148
0.0
149
0.0
149
0.0
 93
        0
 94
      127
282
     0
 72
     0
 77
     0
171
     0
175
     0
179
     0
273
     0
  0
XRECORD
  5
32
102
{ACAD_REACTORS
330
31
102
}
330
31
100
AcDbXrecord
280
     1
270
     1
271
     1
  0
XRECORD
  5
33
102
{ACAD_REACTORS
330
31
102
}
330
31
100
AcDbXrecord
280
     1
270
     1
271
     1
  0
XRECORD
  5
34
102
{ACAD_REACTORS
330
31
102
}
330
31
100
AcDbXrecord
280
     1
270
     1
271
     1
  0
XRECORD
  5
35
102
{ACAD_REACTORS
330
31
102
}
330
31
100
AcDbXrecord
280
     1
270
     1
271
     1
  0
XRECORD
  5
36
102
{ACAD_REACTORS
330
31
102
}
330
31
100
AcDbXrecord
280
     1
270
     1
271
     1
  0
XRECORD
  5
37
102
{ACAD_REACTORS
330
31
102
}
330
31
100
AcDbXrecord
280
     1
270
     1
271
     1
  0
XRECORD
  5
2F9
102
{ACAD_REACTORS
330
16
102
}
330
16
100
AcDbXrecord
280
     1
102
MATERIAL
148
0.0
149
0.0
149
0.0
 93
        0
 94
      127
282
     0
 72
     0
 77
     0
171
     0
175
     0
179
     0
273
     0
  0
XRECORD
  5
17
102
{ACAD_REACTORS
330
16
102
}
330
16
100
AcDbXrecord
280
     1
270
     1
271
     1
  0
XRECORD
  5
18
102
{ACAD_REACTORS
330
16
102
}
330
16
100
AcDbXrecord
280
     1
270
     1
271
     1
  0
XRECORD
  5
19
102
{ACAD_REACTORS
330
16
102
}
330
16
100
AcDbXrecord
280
     1
270
     1
271
     1
  0
XRECORD
  5
1A
102
{ACAD_REACTORS
330
16
102
}
330
16
100
AcDbXrecord
280
     1
270
     1
271
     1
  0
XRECORD
  5
1B
102
{ACAD_REACTORS
330
16
102
}
330
16
100
AcDbXrecord
280
     1
270
     1
271
     1
  0
XRECORD
  5
1C
102
{ACAD_REACTORS
330
16
102
}
330
16
100
AcDbXrecord
280
     1
270
     1
271
     1
  0
CELLSTYLEMAP
  5
2F3
102
{ACAD_REACTORS
330
2F2
102
}
330
2F2
100
AcDbCellStyleMap
 90
        3
300
CELLSTYLE
  1
TABLEFORMAT_BEGIN
 90
        5
170
     1
 91
        0
 92
    32768
 62
   257
 93
        1
300
CONTENTFORMAT
  1
CONTENTFORMAT_BEGIN
 90
        0
 91
        0
 92
      512
 93
        0
300

 40
0.0
140
1.0
 94
        5
 62
     0
340
1F
144
6.0
309
CONTENTFORMAT_END
171
     1
301
MARGIN
  1
CELLMARGIN_BEGIN
 40
1.5
 40
1.5
 40
1.5
 40
1.5
 40
4.5
 40
4.5
309
CELLMARGIN_END
 94
        6
 95
        1
302
GRIDFORMAT
  1
GRIDFORMAT_BEGIN
 90
        0
 91
        1
 62
     0
 92
       -2
340
0
 93
        0
 40
1.125
309
GRIDFORMAT_END
 95
        2
302
GRIDFORMAT
  1
GRIDFORMAT_BEGIN
 90
        0
 91
        1
 62
     0
 92
       -2
340
0
 93
        0
 40
1.125
309
GRIDFORMAT_END
 95
        4
302
GRIDFORMAT
  1
GRIDFORMAT_BEGIN
 90
        0
 91
        1
 62
     0
 92
       -2
340
0
 93
        0
 40
1.125
309
GRIDFORMAT_END
 95
        8
302
GRIDFORMAT
  1
GRIDFORMAT_BEGIN
 90
        0
 91
        1
 62
     0
 92
       -2
340
0
 93
        0
 40
1.125
309
GRIDFORMAT_END
 95
       16
302
GRIDFORMAT
  1
GRIDFORMAT_BEGIN
 90
        0
 91
        1
 62
     0
 92
       -2
340
0
 93
        0
 40
1.125
309
GRIDFORMAT_END
 95
       32
302
GRIDFORMAT
  1
GRIDFORMAT_BEGIN
 90
        0
 91
        1
 62
     0
 92
       -2
340
0
 93
        0
 40
1.125
309
GRIDFORMAT_END
309
TABLEFORMAT_END
  1
CELLSTYLE_BEGIN
 90
        1
 91
        1
300
_TITLE
309
CELLSTYLE_END
300
CELLSTYLE
  1
TABLEFORMAT_BEGIN
 90
        5
170
     1
 91
        0
 92
        0
 62
   257
 93
        1
300
CONTENTFORMAT
  1
CONTENTFORMAT_BEGIN
 90
        0
 91
        0
 92
      512
 93
        0
300

 40
0.0
140
1.0
 94
        5
 62
     0
340
1F
144
4.5
309
CONTENTFORMAT_END
171
     1
301
MARGIN
  1
CELLMARGIN_BEGIN
 40
1.5
 40
1.5
 40
1.5
 40
1.5
 40
4.5
 40
4.5
309
CELLMARGIN_END
 94
        6
 95
        1
302
GRIDFORMAT
  1
GRIDFORMAT_BEGIN
 90
        0
 91
        1
 62
     0
 92
       -2
340
0
 93
        0
 40
1.125
309
GRIDFORMAT_END
 95
        2
302
GRIDFORMAT
  1
GRIDFORMAT_BEGIN
 90
        0
 91
        1
 62
     0
 92
       -2
340
0
 93
        0
 40
1.125
309
GRIDFORMAT_END
 95
        4
302
GRIDFORMAT
  1
GRIDFORMAT_BEGIN
 90
        0
 91
        1
 62
     0
 92
       -2
340
0
 93
        0
 40
1.125
309
GRIDFORMAT_END
 95
        8
302
GRIDFORMAT
  1
GRIDFORMAT_BEGIN
 90
        0
 91
        1
 62
     0
 92
       -2
340
0
 93
        0
 40
1.125
309
GRIDFORMAT_END
 95
       16
302
GRIDFORMAT
  1
GRIDFORMAT_BEGIN
 90
        0
 91
        1
 62
     0
 92
       -2
340
0
 93
        0
 40
1.125
309
GRIDFORMAT_END
 95
       32
302
GRIDFORMAT
  1
GRIDFORMAT_BEGIN
 90
        0
 91
        1
 62
     0
 92
       -2
340
0
 93
        0
 40
1.125
309
GRIDFORMAT_END
309
TABLEFORMAT_END
  1
CELLSTYLE_BEGIN
 90
        2
 91
        1
300
_HEADER
309
CELLSTYLE_END
300
CELLSTYLE
  1
TABLEFORMAT_BEGIN
 90
        5
170
     1
 91
        0
 92
        0
 62
   257
 93
        1
300
CONTENTFORMAT
  1
CONTENTFORMAT_BEGIN
 90
        0
 91
        0
 92
      512
 93
        0
300

 40
0.0
140
1.0
 94
        2
 62
     0
340
1F
144
4.5
309
CONTENTFORMAT_END
171
     1
301
MARGIN
  1
CELLMARGIN_BEGIN
 40
1.5
 40
1.5
 40
1.5
 40
1.5
 40
4.5
 40
4.5
309
CELLMARGIN_END
 94
        6
 95
        1
302
GRIDFORMAT
  1
GRIDFORMAT_BEGIN
 90
        0
 91
        1
 62
     0
 92
       -2
340
0
 93
        0
 40
1.125
309
GRIDFORMAT_END
 95
        2
302
GRIDFORMAT
  1
GRIDFORMAT_BEGIN
 90
        0
 91
        1
 62
     0
 92
       -2
340
0
 93
        0
 40
1.125
309
GRIDFORMAT_END
 95
        4
302
GRIDFORMAT
  1
GRIDFORMAT_BEGIN
 90
        0
 91
        1
 62
     0
 92
       -2
340
0
 93
        0
 40
1.125
309
GRIDFORMAT_END
 95
        8
302
GRIDFORMAT
  1
GRIDFORMAT_BEGIN
 90
        0
 91
        1
 62
     0
 92
       -2
340
0
 93
        0
 40
1.125
309
GRIDFORMAT_END
 95
       16
302
GRIDFORMAT
  1
GRIDFORMAT_BEGIN
 90
        0
 91
        1
 62
     0
 92
       -2
340
0
 93
        0
 40
1.125
309
GRIDFORMAT_END
 95
       32
302
GRIDFORMAT
  1
GRIDFORMAT_BEGIN
 90
        0
 91
        1
 62
     0
 92
       -2
340
0
 93
        0
 40
1.125
309
GRIDFORMAT_END
309
TABLEFORMAT_END
  1
CELLSTYLE_BEGIN
 90
        3
 91
        2
300
_DATA
309
CELLSTYLE_END
  0
XRECORD
  5
2FC
102
{ACAD_REACTORS
330
2F2
102
}
330
2F2
100
AcDbXrecord
280
     1
102
ACAD_ROUNDTRIP_PRE2007_TABLESTYLE
 90
      512
 91
        0
  1

 92
      512
 93
        0
  2

 94
      512
 95
        0
  3

  0
XRECORD
  5
2F8
102
{ACAD_REACTORS
330
2F7
102
}
330
2F7
100
AcDbXrecord
280
     1
102
RTVSPropertyOp0
 70
     1
102
RTVSPropertyOp1
 70
     1
102
RTVSPropertyOp2
 70
     1
102
RTVSPropertyOp3
 70
     1
102
RTVSPropertyOp4
 70
     1
102
RTVSPropertyOp5
 70
     1
102
RTVSPropertyOp6
 70
     1
102
RTVSPropertyOp7
 70
     1
102
RTVSPropertyOp8
 70
     1
102
RTVSPropertyOp9
 70
     1
102
RTVSPropertyOp10
 70
     1
102
RTVSPropertyOp11
 70
     1
102
RTVSPropertyOp12
 70
     1
102
RTVSPropertyOp13
 70
     1
102
RTVSPropertyOp14
 70
     1
102
RTVSPropertyOp15
 70
     1
102
RTVSPropertyOp16
 70
     1
102
RTVSPropertyOp17
 70
     1
102
RTVSPropertyOp18
 70
     1
102
RTVSPropertyOp19
 70
     1
102
RTVSPropertyOp20
 70
     1
102
RTVSPropertyOp21
 70
     1
102
RTVSPropertyOp22
 70
     1
102
RTVSPropertyOp23
 70
     1
102
RTVSPropertyOp24
 70
     1
102
RTVSPropertyOp25
 70
     1
102
RTVSPropertyOp26
 70
     1
102
RTVSPropertyOp27
 70
     1
102
RTVSPropertyOp28
 70
     1
102
RTVSPropertyOp29
 70
     1
102
RTVSPropertyOp30
 70
     1
102
RTVSPropertyOp31
 70
     1
102
RTVSPropertyOp32
 70
     1
  0
XRECORD
  5
2FE
102
{ACAD_REACTORS
330
2FD
102
}
330
2FD
100
AcDbXrecord
280
     1
102
RTVSPropertyOp0
 70
     1
102
RTVSPropertyOp1
 70
     1
102
RTVSPropertyOp2
 70
     1
102
RTVSPropertyOp3
 70
     1
102
RTVSPropertyOp4
 70
     1
102
RTVSPropertyOp5
 70
     1
102
RTVSPropertyOp6
 70
     1
102
RTVSPropertyOp7
 70
     1
102
RTVSPropertyOp8
 70
     1
102
RTVSPropertyOp9
 70
     1
102
RTVSPropertyOp10
 70
     1
102
RTVSPropertyOp11
 70
     1
102
RTVSPropertyOp12
 70
     1
102
RTVSPropertyOp13
 70
     1
102
RTVSPropertyOp14
 70
     1
102
RTVSPropertyOp15
 70
     1
102
RTVSPropertyOp16
 70
     1
102
RTVSPropertyOp17
 70
     1
102
RTVSPropertyOp18
 70
     1
102
RTVSPropertyOp19
 70
     1
102
RTVSPropertyOp20
 70
     1
102
RTVSPropertyOp21
 70
     1
102
RTVSPropertyOp22
 70
     1
102
RTVSPropertyOp23
 70
     1
102
RTVSPropertyOp24
 70
     1
102
RTVSPropertyOp25
 70
     1
102
RTVSPropertyOp26
 70
     1
102
RTVSPropertyOp27
 70
     1
102
RTVSPropertyOp28
 70
     1
102
RTVSPropertyOp29
 70
     1
102
RTVSPropertyOp30
 70
     1
102
RTVSPropertyOp31
 70
     1
102
RTVSPropertyOp32
 70
     1
  0
XRECORD
  5
300
102
{ACAD_REACTORS
330
2FF
102
}
330
2FF
100
AcDbXrecord
280
     1
102
RTVSPropertyOp0
 70
     1
102
RTVSPropertyOp1
 70
     1
102
RTVSPropertyOp2
 70
     1
102
RTVSPropertyOp3
 70
     1
102
RTVSPropertyOp4
 70
     1
102
RTVSPropertyOp5
 70
     1
102
RTVSPropertyOp6
 70
     1
102
RTVSPropertyOp7
 70
     1
102
RTVSPropertyOp8
 70
     1
102
RTVSPropertyOp9
 70
     1
102
RTVSPropertyOp10
 70
     1
102
RTVSPropertyOp11
 70
     1
102
RTVSPropertyOp12
 70
     1
102
RTVSPropertyOp13
 70
     1
102
RTVSPropertyOp14
 70
     1
102
RTVSPropertyOp15
 70
     1
102
RTVSPropertyOp16
 70
     1
102
RTVSPropertyOp17
 70
     1
102
RTVSPropertyOp18
 70
     1
102
RTVSPropertyOp19
 70
     1
102
RTVSPropertyOp20
 70
     1
102
RTVSPropertyOp21
 70
     1
102
RTVSPropertyOp22
 70
     1
102
RTVSPropertyOp23
 70
     1
102
RTVSPropertyOp24
 70
     1
102
RTVSPropertyOp25
 70
     1
102
RTVSPropertyOp26
 70
     1
102
RTVSPropertyOp27
 70
     1
102
RTVSPropertyOp28
 70
     1
102
RTVSPropertyOp29
 70
     1
102
RTVSPropertyOp30
 70
     1
102
RTVSPropertyOp31
 70
     1
102
RTVSPropertyOp32
 70
     1
  0
ENDSEC
  0
EOF
