  0
SECTION
  2
HEADER
  9
$ACADVER
  1
AC1018
  9
$ACADMAINTVER
 70
   104
  9
$DWGCODEPAGE
  3
ANSI_1252
  9
$INSBASE
 10
0.0
 20
0.0
 30
0.0
  9
$EXTMIN
 10
1175.788464485536
 20
106.2694513512087
 30
0.0
  9
$EXTMAX
 10
1944.360305644175
 20
576.5483764674026
 30
0.0
  9
$LIMMIN
 10
97.56622002158383
 20
123.8088583208174
  9
$LIMMAX
 10
477.5662200215838
 20
577.8288583208174
  9
$ORTHOMODE
 70
     1
  9
$REGENMODE
 70
     1
  9
$FILLMODE
 70
     1
  9
$QTEXTMODE
 70
     0
  9
$MIRRTEXT
 70
     1
  9
$LTSCALE
 40
2.0
  9
$ATTMODE
 70
     1
  9
$TEXTSIZE
 40
5.0
  9
$TRACEWID
 40
1.0
  9
$TEXTSTYLE
  7
STANDARD
  9
$CLAYER
  8
AM_3
  9
$CELTYPE
  6
ByLayer
  9
$CECOLOR
 62
   256
  9
$CELTSCALE
 40
1.0
  9
$DISPSILH
 70
     0
  9
$DIMSCALE
 40
1.0
  9
$DIMASZ
 40
2.5
  9
$DIMEXO
 40
0.0
  9
$DIMDLI
 40
10.0
  9
$DIMRND
 40
0.0
  9
$DIMDLE
 40
0.0
  9
$DIMEXE
 40
1.0
  9
$DIMTP
 40
0.1
  9
$DIMTM
 40
0.1
  9
$DIMTXT
 40
3.5
  9
$DIMCEN
 40
0.0
  9
$DIMTSZ
 40
0.0
  9
$DIMTOL
 70
     0
  9
$DIMLIM
 70
     0
  9
$DIMTIH
 70
     0
  9
$DIMTOH
 70
     0
  9
$DIMSE1
 70
     0
  9
$DIMSE2
 70
     0
  9
$DIMTAD
 70
     1
  9
$DIMZIN
 70
     8
  9
$DIMBLK
  1

  9
$DIMASO
 70
     1
  9
$DIMSHO
 70
     1
  9
$DIMPOST
  1

  9
$DIMAPOST
  1
"
  9
$DIMALT
 70
     0
  9
$DIMALTD
 70
     2
  9
$DIMALTF
 40
0.0393701
  9
$DIMLFAC
 40
1.0
  9
$DIMTOFL
 70
     1
  9
$DIMTVP
 40
0.0
  9
$DIMTIX
 70
     0
  9
$DIMSOXD
 70
     0
  9
$DIMSAH
 70
     0
  9
$DIMBLK1
  1

  9
$DIMBLK2
  1

  9
$DIMSTYLE
  2
AM_ISO
  9
$DIMCLRD
 70
   256
  9
$DIMCLRE
 70
   256
  9
$DIMCLRT
 70
     3
  9
$DIMTFAC
 40
0.71
  9
$DIMGAP
 40
1.5
  9
$DIMJUST
 70
     0
  9
$DIMSD1
 70
     0
  9
$DIMSD2
 70
     0
  9
$DIMTOLJ
 70
     0
  9
$DIMTZIN
 70
     0
  9
$DIMALTZ
 70
     0
  9
$DIMALTTZ
 70
     0
  9
$DIMUPT
 70
     0
  9
$DIMDEC
 70
     2
  9
$DIMTDEC
 70
     2
  9
$DIMALTU
 70
     2
  9
$DIMALTTD
 70
     2
  9
$DIMTXSTY
  7
STANDARD
  9
$DIMAUNIT
 70
     0
  9
$DIMADEC
 70
     0
  9
$DIMALTRND
 40
0.0
  9
$DIMAZIN
 70
     2
  9
$DIMDSEP
 70
    46
  9
$DIMATFIT
 70
     3
  9
$DIMFRAC
 70
     0
  9
$DIMLDRBLK
  1

  9
$DIMLUNIT
 70
     2
  9
$DIMLWD
 70
    -1
  9
$DIMLWE
 70
    -1
  9
$DIMTMOVE
 70
     0
  9
$LUNITS
 70
     2
  9
$LUPREC
 70
     2
  9
$SKETCHINC
 40
1.0
  9
$FILLETRAD
 40
5.0
  9
$AUNITS
 70
     0
  9
$AUPREC
 70
     0
  9
$MENU
  1
.
  9
$ELEVATION
 40
0.0
  9
$PELEVATION
 40
0.0
  9
$THICKNESS
 40
0.0
  9
$LIMCHECK
 70
     0
  9
$CHAMFERA
 40
5.0
  9
$CHAMFERB
 40
5.0
  9
$CHAMFERC
 40
20.0
  9
$CHAMFERD
 40
0.0
  9
$SKPOLY
 70
     0
  9
$TDCREATE
 40
2451778.520669884
  9
$TDUCREATE
 40
2451778.437336551
  9
$TDUPDATE
 40
2452949.359917708
  9
$TDUUPDATE
 40
2452949.276584375
  9
$TDINDWG
 40
0.8990137731
  9
$TDUSRTIMER
 40
0.8990136574
  9
$USRTIMER
 70
     1
  9
$ANGBASE
 50
0.0
  9
$ANGDIR
 70
     0
  9
$PDMODE
 70
     0
  9
$PDSIZE
 40
0.0
  9
$PLINEWID
 40
0.0
  9
$SPLFRAME
 70
     0
  9
$SPLINETYPE
 70
     6
  9
$SPLINESEGS
 70
     8
  9
$HANDSEED
  5
304
  9
$SURFTAB1
 70
     6
  9
$SURFTAB2
 70
     6
  9
$SURFTYPE
 70
     6
  9
$SURFU
 70
     6
  9
$SURFV
 70
     6
  9
$UCSBASE
  2

  9
$UCSNAME
  2

  9
$UCSORG
 10
0.0
 20
0.0
 30
0.0
  9
$UCSXDIR
 10
1.0
 20
0.0
 30
0.0
  9
$UCSYDIR
 10
0.0
 20
1.0
 30
0.0
  9
$UCSORTHOREF
  2

  9
$UCSORTHOVIEW
 70
     0
  9
$UCSORGTOP
 10
0.0
 20
0.0
 30
0.0
  9
$UCSORGBOTTOM
 10
0.0
 20
0.0
 30
0.0
  9
$UCSORGLEFT
 10
0.0
 20
0.0
 30
0.0
  9
$UCSORGRIGHT
 10
0.0
 20
0.0
 30
0.0
  9
$UCSORGFRONT
 10
0.0
 20
0.0
 30
0.0
  9
$UCSORGBACK
 10
0.0
 20
0.0
 30
0.0
  9
$PUCSBASE
  2

  9
$PUCSNAME
  2

  9
$PUCSORG
 10
0.0
 20
0.0
 30
0.0
  9
$PUCSXDIR
 10
1.0
 20
0.0
 30
0.0
  9
$PUCSYDIR
 10
0.0
 20
1.0
 30
0.0
  9
$PUCSORTHOREF
  2

  9
$PUCSORTHOVIEW
 70
     0
  9
$PUCSORGTOP
 10
0.0
 20
0.0
 30
0.0
  9
$PUCSORGBOTTOM
 10
0.0
 20
0.0
 30
0.0
  9
$PUCSORGLEFT
 10
0.0
 20
0.0
 30
0.0
  9
$PUCSORGRIGHT
 10
0.0
 20
0.0
 30
0.0
  9
$PUCSORGFRONT
 10
0.0
 20
0.0
 30
0.0
  9
$PUCSORGBACK
 10
0.0
 20
0.0
 30
0.0
  9
$USERI1
 70
     0
  9
$USERI2
 70
     0
  9
$USERI3
 70
     0
  9
$USERI4
 70
     0
  9
$USERI5
 70
     0
  9
$USERR1
 40
0.0
  9
$USERR2
 40
0.0
  9
$USERR3
 40
0.0
  9
$USERR4
 40
0.0
  9
$USERR5
 40
0.0
  9
$WORLDVIEW
 70
     1
  9
$SHADEDGE
 70
     3
  9
$SHADEDIF
 70
    70
  9
$TILEMODE
 70
     1
  9
$MAXACTVP
 70
    64
  9
$PINSBASE
 10
0.0
 20
0.0
 30
0.0
  9
$PLIMCHECK
 70
     0
  9
$PEXTMIN
 10
1.000000000000000E+20
 20
1.000000000000000E+20
 30
1.000000000000000E+20
  9
$PEXTMAX
 10
-1.000000000000000E+20
 20
-1.000000000000000E+20
 30
-1.000000000000000E+20
  9
$PLIMMIN
 10
0.0
 20
0.0
  9
$PLIMMAX
 10
420.0
 20
297.0
  9
$UNITMODE
 70
     0
  9
$VISRETAIN
 70
     1
  9
$PLINEGEN
 70
     0
  9
$PSLTSCALE
 70
     1
  9
$TREEDEPTH
 70
  3020
  9
$CMLSTYLE
  2
Standard
  9
$CMLJUST
 70
     0
  9
$CMLSCALE
 40
20.0
  9
$PROXYGRAPHICS
 70
     1
  9
$MEASUREMENT
 70
     1
  9
$CELWEIGHT
370
    -1
  9
$ENDCAPS
280
     0
  9
$JOINSTYLE
280
     0
  9
$LWDISPLAY
290
     0
  9
$INSUNITS
 70
     4
  9
$HYPERLINKBASE
  1

  9
$STYLESHEET
  1

  9
$XEDIT
290
     1
  9
$CEPSNTYPE
380
     0
  9
$PSTYLEMODE
290
     1
  9
$FINGERPRINTGUID
  2
{ED38E436-6BF3-4D4D-9156-E6AB8DEBF1FE}
  9
$VERSIONGUID
  2
{E5FACF5A-99E0-4674-B965-D3F03CF6D0E0}
  9
$EXTNAMES
290
     1
  9
$PSVPSCALE
 40
0.0
  9
$OLESTARTUP
290
     0
  9
$SORTENTS
280
   127
  9
$INDEXCTL
280
     0
  9
$HIDETEXT
280
     1
  9
$XCLIPFRAME
290
     0
  9
$HALOGAP
280
     0
  9
$OBSCOLOR
 70
   257
  9
$OBSLTYPE
280
     0
  9
$INTERSECTIONDISPLAY
280
     0
  9
$INTERSECTIONCOLOR
 70
   257
  9
$DIMASSOC
280
     1
  9
$PROJECTNAME
  1

  0
ENDSEC
  0
SECTION
  2
CLASSES
  0
CLASS
  1
ACDBDICTIONARYWDFLT
  2
AcDbDictionaryWithDefault
  3
ObjectDBX Classes
 90
        0
 91
        1
280
     0
281
     0
  0
CLASS
  1
AMGSETTINGSOBJ
  2
AmgSettingsObj
  3
"AcadM|Product Description: AutoCAD Mechanical|Company: Autodesk, Inc."
 90
     1024
 91
        4
280
     0
281
     0
  0
CLASS
  1
AMGOBJPROPCFG
  2
AmgObjPropCfg
  3
"AmgLay|Product Description: AutoCAD Mechanical|Company: Autodesk, Inc."
 90
     1025
 91
        1
280
     0
281
     0
  0
CLASS
  1
ACME_DOCUMENT
  2
AcMeDbDoc
  3
AcMeServices
 90
     1024
 91
        0
280
     0
281
     0
  0
CLASS
  1
ACMESCOPE
  2
AcMeScope
  3
AcMeServices
 90
     1024
 91
        1
280
     0
281
     0
  0
CLASS
  1
ACMECOMMANDHISTORY
  2
AcMeCommandHistory
  3
AcMeServices
 90
     1024
 91
        0
280
     0
281
     0
  0
CLASS
  1
DICTIONARYVAR
  2
AcDbDictionaryVar
  3
ObjectDBX Classes
 90
        0
 91
        4
280
     0
281
     0
  0
CLASS
  1
ACIMSYSVARMAN
  2
AcImSysVarManager
  3
AcMeServices
 90
     1024
 91
        3
280
     0
281
     0
  0
CLASS
  1
ACIMREALSYSVAR
  2
AcImRealSysVar
  3
AcMeServices
 90
     1024
 91
        1
280
     0
281
     0
  0
CLASS
  1
ACIMINTSYSVAR
  2
AcImIntSysVar
  3
AcMeServices
 90
     1024
 91
       25
280
     0
281
     0
  0
CLASS
  1
ACMEDRAWINGMAN
  2
AcMeDrawingMan
  3
AcMeServices
 90
     1024
 91
        0
280
     0
281
     0
  0
CLASS
  1
ACMEVIEW
  2
AcMeView
  3
AcMeServices
 90
     1024
 91
        0
280
     0
281
     0
  0
CLASS
  1
ACDBENTITYCACHE
  2
AcMeEntityCache
  3
AcMeServices
 90
     1024
 91
        0
280
     0
281
     0
  0
CLASS
  1
GSMANAGER
  2
AcMeGSManager
  3
AcMeServices
 90
     1024
 91
        0
280
     0
281
     0
  0
CLASS
  1
AMDTINTERNALREACTOR
  2
AmdtInternalReactor
  3
AcMeServices
 90
     1024
 91
        1
280
     0
281
     0
  0
CLASS
  1
ACMESTATEMGR
  2
AcMeStateMgr
  3
AcMeServices
 90
     1024
 91
        1
280
     0
281
     0
  0
CLASS
  1
ACME_DATABASE
  2
AcMeDbDatabase
  3
AcMeServices
 90
     1024
 91
        0
280
     0
281
     0
  0
CLASS
  1
ACRFINSADJUSTERMGR
  2
AcRfInsAdjusterMgr
  3
AcMeServices
 90
     1024
 91
        0
280
     0
281
     0
  0
CLASS
  1
ACMDATADICTIONARY
  2
AcmDataDictionary
  3
"AcmSymBB|Product Description: AutoCAD Mechanical|Company: Autodesk, Inc."
 90
     1024
 91
        1
280
     0
281
     0
  0
CLASS
  1
ACMDATAENTRYBLOCK
  2
AcmDataEntryBlock
  3
AcmSymBB|Product Description: AutoCAD Mechanical|Company: Autodesk, Inc.
 90
     1024
 91
        1
280
     0
281
     0
  0
CLASS
  1
LAYER_INDEX
  2
AcDbLayerIndex
  3
ObjectDBX Classes
 90
        0
 91
        0
280
     0
281
     0
  0
CLASS
  1
IDBUFFER
  2
AcDbIdBuffer
  3
ObjectDBX Classes
 90
        0
 91
        0
280
     0
281
     0
  0
CLASS
  1
ACAMGFILTERDAT
  2
AcAmgFilterDat
  3
"AcadM|Product Description: AutoCAD Mechanical|Company: Autodesk, Inc."
 90
     1024
 91
        0
280
     0
281
     0
  0
CLASS
  1
ACMDIMBREAKPERSREACTOR
  2
AcmDimBreakPersReactor
  3
AmgDim|Product Description: AutoCAD Mechanical|Company: Autodesk, Inc.
 90
     4095
 91
        2
280
     0
281
     0
  0
CLASS
  1
ACGREFMASTER
  2
AcGrefMaster
  3
AcAttribServices
 90
     1024
 91
        1
280
     0
281
     0
  0
CLASS
  1
ACGREFACADMASTER
  2
AcGrefacadMaster
  3
AcGrefServices
 90
     1024
 91
        0
280
     0
281
     0
  0
CLASS
  1
AMIMASTER
  2
AmiMaster
  3
AmiServices
 90
     1024
 91
        0
280
     0
281
     0
  0
CLASS
  1
ACIMSTRSYSVAR
  2
AcImStrSysVar
  3
AcMeServices
 90
     1024
 91
        1
280
     0
281
     0
  0
CLASS
  1
ACMSTANDARDDIN
  2
AcmStandardDIN
  3
"Amdt_StdImp|Product Description: AutoCAD Mechanical|Company: Autodesk, Inc."
 90
     1024
 91
        1
280
     0
281
     0
  0
CLASS
  1
AMDTEDGESTANDARDDIN
  2
AmdtEdgeStdDIN
  3
"Amdt_StdImp|Product Description: AutoCAD Mechanical|Company: Autodesk, Inc."
 90
     1024
 91
        1
280
     0
281
     0
  0
CLASS
  1
ACMSURFSTANDARDDIN
  2
AcmSurfTextStdDIN
  3
"Amdt_StdImp|Product Description: AutoCAD Mechanical|Company: Autodesk, Inc."
 90
     1024
 91
        1
280
     0
281
     0
  0
CLASS
  1
ACMFCFSTANDARDDIN
  2
AcmFCFStdDIN
  3
"Amdt_StdImp|Product Description: AutoCAD Mechanical|Company: Autodesk, Inc."
 90
     1024
 91
        1
280
     0
281
     0
  0
CLASS
  1
ACMWELDSTANDARDDIN
  2
AcmWeldingStdDIN
  3
"Amdt_StdImp|Product Description: AutoCAD Mechanical|Company: Autodesk, Inc."
 90
     1024
 91
        1
280
     0
281
     0
  0
CLASS
  1
ACMIDSTANDARDDIN
  2
AcmIdStdDIN
  3
"Amdt_StdImp|Product Description: AutoCAD Mechanical|Company: Autodesk, Inc."
 90
     1024
 91
        1
280
     0
281
     0
  0
CLASS
  1
ACMDATUMSTANDARDDIN
  2
AcmDatumStdDIN
  3
"Amdt_StdImp|Product Description: AutoCAD Mechanical|Company: Autodesk, Inc."
 90
     1024
 91
        1
280
     0
281
     0
  0
CLASS
  1
ACMBOMSTANDARDDIN
  2
AcmBOMStdDIN
  3
"Amdt_StdImp|Product Description: AutoCAD Mechanical|Company: Autodesk, Inc."
 90
     1024
 91
        1
280
     0
281
     0
  0
CLASS
  1
ACMDETAILSTANDARDDIN
  2
AmdtDetailSymStdDIN
  3
"Amdt_StdImp|Product Description: AutoCAD Mechanical|Company: Autodesk, Inc."
 90
     1024
 91
        1
280
     0
281
     0
  0
CLASS
  1
ACMSECTIONSTANDARDDIN
  2
AmdtSectionSymStdDIN
  3
"Amdt_StdImp|Product Description: AutoCAD Mechanical|Company: Autodesk, Inc."
 90
     1024
 91
        1
280
     0
281
     0
  0
CLASS
  1
ACMCENTERLINESTANDARDDIN
  2
AmdtCenterLineStdDIN
  3
"Amdt_StdImp|Product Description: AutoCAD Mechanical|Company: Autodesk, Inc."
 90
     1024
 91
        1
280
     0
281
     0
  0
CLASS
  1
ACMNOTESTANDARDDIN
  2
AmdtNoteStdDIN
  3
"Amdt_StdImp|Product Description: AutoCAD Mechanical|Company: Autodesk, Inc."
 90
     1024
 91
        1
280
     0
281
     0
  0
CLASS
  1
ACAMGLAYSTD
  2
AcAmgLayStd
  3
"AmgLay|Product Description: AutoCAD Mechanical|Company: Autodesk, Inc."
 90
     1024
 91
        1
280
     0
281
     0
  0
CLASS
  1
ACAMGDIMSTD
  2
AcAmgDimStd
  3
"AmgDim|Product Description: AutoCAD Mechanical|Company: Autodesk, Inc."
 90
     1024
 91
        1
280
     0
281
     0
  0
CLASS
  1
ACAMGHOLECHARTSTDDIN
  2
AcAmgHoleChartStdDIN
  3
AmgDim|Product Description: AutoCAD Mechanical|Company: Autodesk, Inc.
 90
     1024
 91
        1
280
     0
281
     0
  0
CLASS
  1
ACAMGTITLESTD
  2
AcAmgTitleStd
  3
"AmgTitle|Product Description: AutoCAD Mechanical|Company: Autodesk, Inc."
 90
     4095
 91
        1
280
     0
281
     0
  0
CLASS
  1
MATERIAL
  2
AcDbMaterial
  3
ObjectDBX Classes
 90
     1153
 91
        3
280
     0
281
     0
  0
CLASS
  1
VISUALSTYLE
  2
AcDbVisualStyle
  3
ObjectDBX Classes
 90
     4095
 91
        3
280
     0
281
     0
  0
CLASS
  1
TABLESTYLE
  2
AcDbTableStyle
  3
ObjectDBX Classes
 90
     4095
 91
        1
280
     0
281
     0
  0
CLASS
  1
SCALE
  2
AcDbScale
  3
ObjectDBX Classes
 90
     1153
 91
       33
280
     0
281
     0
  0
CLASS
  1
MLEADERSTYLE
  2
AcDbMLeaderStyle
  3
ACDB_MLEADERSTYLE_CLASS
 90
     4095
 91
        0
280
     0
281
     0
  0
CLASS
  1
AM_DRAWING_MGR
  2
AcDmDwgMgr
  3
AcMechDwgViewMgmt
 90
     1024
 91
        1
280
     0
281
     0
  0
CLASS
  1
AM_DWG_DOCUMENT
  2
AcDmDwgDocument
  3
AcMechDwgViewMgmt
 90
     1024
 91
        1
280
     0
281
     0
  0
CLASS
  1
AM_DWG_SHEET
  2
AcDmSheet
  3
AcMechDwgViewMgmt
 90
     1024
 91
        1
280
     0
281
     0
  0
CLASS
  1
AM_VIEWDIMPARMAP
  2
AcDmViewDimParMap
  3
AcMechDwgViewMgmt
 90
     1024
 91
        1
280
     0
281
     0
  0
CLASS
  1
AM_DWGMGR_NAME
  2
AcDmDwgMgrName
  3
AcMechDwgViewMgmt
 90
     1024
 91
        1
280
     0
281
     0
  0
CLASS
  1
AMDTMENUSTATEMGR
  2
AmdtMenuStateMgr
  3
McadcomServices
 90
     1024
 91
        0
280
     0
281
     0
  0
CLASS
  1
AMDTMCOMMENUSTATE
  2
AmdtMcomMenuState
  3
McadcomServices
 90
     1024
 91
        0
280
     0
281
     0
  0
CLASS
  1
MAPIAMMOUDLE
  2
MApiAmModule
  3
MApiAmServices
 90
     1024
 91
        0
280
     0
281
     0
  0
CLASS
  1
AMDTADMENUSTATE
  2
AmdtAdMenuState
  3
DesignerServices
 90
     1024
 91
        0
280
     0
281
     0
  0
CLASS
  1
ADAPPL
  2
AcAdAppl
  3
DesignerServices
 90
     1024
 91
        1
280
     0
281
     0
  0
CLASS
  1
DEPMGR
  2
AcAdDepMgr
  3
DesignerServices
 90
     1024
 91
        1
280
     0
281
     0
  0
CLASS
  1
PARAMMGR
  2
AcAdParamMgr
  3
DesignerServices
 90
     1024
 91
        1
280
     0
281
     0
  0
CLASS
  1
PARAMSCOPE
  2
AcAdParamScope
  3
DesignerServices
 90
     1024
 91
        1
280
     0
281
     0
  0
CLASS
  1
NAMEDAPPL
  2
AcAdNamedAppl
  3
DesignerServices
 90
     1024
 91
        1
280
     0
281
     0
  0
CLASS
  1
AMDTDMMENUSTATE
  2
AmdtDmMenuState
  3
AcMechDwgViewMgmt
 90
     1024
 91
        0
280
     0
281
     0
  0
CLASS
  1
AMDTAMMENUSTATE
  2
AmdtAmMenuState
  3
DesignerAssemblies
 90
     1024
 91
        0
280
     0
281
     0
  0
CLASS
  1
ACAMPROJECT
  2
AcAmProject
  3
DesignerAssemblies
 90
     1024
 91
        0
280
     0
281
     0
  0
CLASS
  1
ACAMGRCOMPDEF
  2
AcAmGrCompDef
  3
DesignerAssemblies
 90
     1024
 91
        0
280
     0
281
     0
  0
CLASS
  1
ACCMCONTEXT
  2
AcCmContext
  3
DesignerAssemblies
 90
     1024
 91
        0
280
     0
281
     0
  0
CLASS
  1
ACAMCOMPDEF
  2
AcAmCompDef
  3
DesignerAssemblies
 90
     1024
 91
        0
280
     0
281
     0
  0
CLASS
  1
ACAMCOMPDEFMGR
  2
AcAmCompDefMgr
  3
DesignerAssemblies
 90
     1024
 91
        0
280
     0
281
     0
  0
CLASS
  1
AMCONTEXTMGR
  2
AcAmContextMgr
  3
DesignerAssemblies
 90
     1024
 91
        0
280
     0
281
     0
  0
CLASS
  1
ACAMCONTEXTMODELER
  2
AcAmContextModeler
  3
DesignerAssemblies
 90
     1024
 91
        0
280
     0
281
     0
  0
CLASS
  1
ACRFATTGENMGR
  2
AcRfAttGeneralMgr
  3
AcAttribServices
 90
     1024
 91
        0
280
     0
281
     0
  0
CLASS
  1
ACRFOBJATTMGR
  2
AcRfObjAttGroupMgr
  3
AcAttribServices
 90
     1024
 91
        0
280
     0
281
     0
  0
CLASS
  1
ACRFMCADAPIATTHOLDER
  2
AcRfMCADAPIAttHolder
  3
AcAttribServices
 90
     1024
 91
        0
280
     0
281
     0
  0
CLASS
  1
AMDTSYSATTR
  2
AmdtSystemAttribute
  3
AcAttribServices
 90
     1024
 91
        0
280
     0
281
     0
  0
CLASS
  1
ACMTHREADLINESTANDARDDIN
  2
AmdtThreadLineStdDIN
  3
"Amdt_StdImp|Product Description: AutoCAD Mechanical|Company: Autodesk, Inc."
 90
     1024
 91
        1
280
     0
281
     0
  0
CLASS
  1
ACMTAPERSTANDARDDIN
  2
AcmTaperStdDIN
  3
"Amdt_StdImp|Product Description: AutoCAD Mechanical|Company: Autodesk, Inc."
 90
     1024
 91
        1
280
     0
281
     0
  0
CLASS
  1
ACMANOOTATIONVIEWSTANDARDDIN
  2
AmdtAnViewStdDIN
  3
"Amdt_StdImp|Product Description: AutoCAD Mechanical|Company: Autodesk, Inc."
 90
     1024
 91
        1
280
     0
281
     0
  0
CLASS
  1
CATALOGSTATE
  2
AcAmCatalogState
  3
DesignerAssemblies
 90
     1024
 91
        0
280
     0
281
     0
  0
CLASS
  1
ACAMGRCOMPDEFSET
  2
AcAmGrCompDefSet
  3
DesignerAssemblies
 90
     1024
 91
        0
280
     0
281
     0
  0
CLASS
  1
AMDTBROWSERDBTAB
  2
AmdtBrowserDbTab
  3
McadcomServices
 90
     1024
 91
        0
280
     0
281
     0
  0
CLASS
  1
CBROWSERAPPOBJECT
  2
CBrowserAppObject
  3
McadcomServices
 90
     1024
 91
        0
280
     0
281
     0
  0
CLASS
  1
DM_PLACEHOLDER
  2
AcDmSelsetPlaceholder
  3
AcMechDwgViewMgmt
 90
     1024
 91
        0
280
     0
281
     0
  0
CLASS
  1
CELLSTYLEMAP
  2
AcDbCellStyleMap
  3
ObjectDBX Classes
 90
     1152
 91
        1
280
     0
281
     0
  0
ENDSEC
  0
SECTION
  2
TABLES
  0
TABLE
  2
VPORT
  5
26
330
0
100
AcDbSymbolTable
 70
     1
  0
VPORT
  5
27
330
26
100
AcDbSymbolTableRecord
100
AcDbViewportTableRecord
  2
*Active
 70
     0
 10
0.0
 20
0.0
 11
1.0
 21
1.0
 12
1646.80076089481
 22
355.940531144602
 13
0.0
 23
0.0
 14
5.0
 24
5.0
 15
20.0
 25
20.0
 16
0.0
 26
0.0
 36
1.0
 17
0.0
 27
0.0
 37
0.0
 40
1056.763018087033
 41
1.689956331877729
 42
50.0
 43
0.0
 44
0.0
 50
0.0
 51
0.0
 71
    16
 72
 20000
 73
     1
 74
     0
 75
     0
 76
     0
 77
     0
 78
     0
281
     0
 65
     1
110
0.0
120
0.0
130
0.0
111
1.0
121
0.0
131
0.0
112
0.0
122
1.0
132
0.0
 79
     0
146
0.0
  0
ENDTAB
  0
TABLE
  2
LTYPE
  5
21
330
0
100
AcDbSymbolTable
 70
    14
  0
LTYPE
  5
22
330
21
100
AcDbSymbolTableRecord
100
AcDbLinetypeTableRecord
  2
ByBlock
 70
     0
  3

 72
    65
 73
     0
 40
0.0
  0
LTYPE
  5
23
330
21
100
AcDbSymbolTableRecord
100
AcDbLinetypeTableRecord
  2
ByLayer
 70
     0
  3

 72
    65
 73
     0
 40
0.0
  0
LTYPE
  5
12
330
21
100
AcDbSymbolTableRecord
100
AcDbLinetypeTableRecord
  2
Continuous
 70
     0
  3
Solid line
 72
    65
 73
     0
 40
0.0
  0
LTYPE
  5
44
330
21
100
AcDbSymbolTableRecord
100
AcDbLinetypeTableRecord
  2
AM_ISO02W050
 70
     0
  3
__ __ __ __ __ __ __ __ __ __ __ __ __ __ __
 72
    65
 73
     2
 40
7.5
 49
6.0
 74
     0
 49
-1.5
 74
     0
  0
LTYPE
  5
294
330
21
100
AcDbSymbolTableRecord
100
AcDbLinetypeTableRecord
  2
AM_ISO08W050
 70
     0
  3
____ . ____ . ____ . ____ . ____ . ____ . ____
 72
    65
 73
     4
 40
18.0
 49
12.0
 74
     0
 49
-1.5
 74
     0
 49
3.0
 74
     0
 49
-1.5
 74
     0
  0
LTYPE
  5
295
330
21
100
AcDbSymbolTableRecord
100
AcDbLinetypeTableRecord
  2
AM_ISO09W050
 70
     0
  3
_____ . . _____ . . _____ . . ____ .. ____
 72
    65
 73
     6
 40
22.5
 49
12.0
 74
     0
 49
-1.5
 74
     0
 49
3.0
 74
     0
 49
-1.5
 74
     0
 49
3.0
 74
     0
 49
-1.5
 74
     0
  0
LTYPE
  5
296
330
21
100
AcDbSymbolTableRecord
100
AcDbLinetypeTableRecord
  2
amconstr
 70
     0
  3
_______________________
 72
    65
 73
     2
 40
9999.0
 49
9999.0
 74
     0
 49
0.0
 74
     0
  0
LTYPE
  5
297
330
21
100
AcDbSymbolTableRecord
100
AcDbLinetypeTableRecord
  2
AM_ISO02W050x2
 70
     0
  3
 _ _ _ _ _ _ _ _ _ _ _ _
 72
    65
 73
     2
 40
3.75
 49
3.0
 74
     0
 49
-0.75
 74
     0
  0
LTYPE
  5
298
330
21
100
AcDbSymbolTableRecord
100
AcDbLinetypeTableRecord
  2
AM_ISO08W050x2
 70
     0
  3
__ . __ . __ . __ . __ . __
 72
    65
 73
     4
 40
9.0
 49
6.0
 74
     0
 49
-0.75
 74
     0
 49
1.5
 74
     0
 49
-0.75
 74
     0
  0
LTYPE
  5
299
330
21
100
AcDbSymbolTableRecord
100
AcDbLinetypeTableRecord
  2
amzigzag
 70
     0
  3
/\/-/\/-/\/-/\/-/\/-/\/
 72
    65
 73
     2
 40
11.0001
 49
0.0001
 74
     4
 75
   135
340
29A
 46
0.04
 50
0.0
 44
0.0
 45
0.0
 49
-11.0
 74
     0
  0
LTYPE
  5
2AC
330
21
100
AcDbSymbolTableRecord
100
AcDbLinetypeTableRecord
  2
ACDINWELD
 70
     0
  3
_ _ _ _ _
 72
    65
 73
     2
 40
2.0
 49
2.0
 74
     0
 49
-1.0
 74
     0
  0
LTYPE
  5
2AF
330
21
100
AcDbSymbolTableRecord
100
AcDbLinetypeTableRecord
  2
ACDINTGB
 70
     0
  3
__ . . __ . .
 72
    65
 73
     6
 40
9.0
 49
4.0
 74
     0
 49
-1.0
 74
     0
 49
1.0
 74
     0
 49
-1.0
 74
     0
 49
1.0
 74
     0
 49
-1.0
 74
     0
  0
LTYPE
  5
2B0
330
21
100
AcDbSymbolTableRecord
100
AcDbLinetypeTableRecord
  2
ACDINTGL
 70
     0
  3
_ _ _ _ _
 72
    65
 73
     2
 40
3.0
 49
2.0
 74
     0
 49
-1.0
 74
     0
  0
LTYPE
  5
2B4
330
21
100
AcDbSymbolTableRecord
100
AcDbLinetypeTableRecord
  2
CENTER
 70
     0
  3
__ . __
 72
    65
 73
     4
 40
7.0
 49
4.0
 74
     0
 49
-1.0
 74
     0
 49
1.0
 74
     0
 49
-1.0
 74
     0
  0
LTYPE
  5
2F1
330
21
100
AcDbSymbolTableRecord
100
AcDbLinetypeTableRecord
  2
HIDDEN
 70
     0
  3
Verdeckt
 72
    65
 73
     2
 40
9.525
 49
6.349999999999999
 74
     0
 49
-3.174999999999999
 74
     0
  0
LTYPE
  5
2F2
330
21
100
AcDbSymbolTableRecord
100
AcDbLinetypeTableRecord
  2
PHANTOM2
 70
     0
  3
Phantom (.5x) ___ _ _ ___ _ _ ___ _ _ ___ _ _
 72
    65
 73
     6
 40
31.75
 49
15.875
 74
     0
 49
-3.174999999999999
 74
     0
 49
3.174999999999999
 74
     0
 49
-3.174999999999999
 74
     0
 49
3.174999999999999
 74
     0
 49
-3.174999999999999
 74
     0
  0
ENDTAB
  0
TABLE
  2
LAYER
  5
1D
330
0
100
AcDbSymbolTable
 70
     5
  0
LAYER
  5
5
330
1D
100
AcDbSymbolTableRecord
100
AcDbLayerTableRecord
  2
0
 70
     0
 62
     7
  6
Continuous
370
    -3
390
6
  0
LAYER
  5
9E
330
1D
100
AcDbSymbolTableRecord
100
AcDbLayerTableRecord
  2
Defpoints
 70
     0
 62
     7
  6
Continuous
290
     0
370
    -3
390
6
  0
LAYER
  5
6D
330
1D
100
AcDbSymbolTableRecord
100
AcDbLayerTableRecord
  2
AM_0
 70
     0
 62
     7
  6
Continuous
370
    50
390
6
  0
LAYER
  5
6B
330
1D
100
AcDbSymbolTableRecord
100
AcDbLayerTableRecord
  2
AM_5
 70
     0
 62
   110
  6
Continuous
370
    25
390
6
  0
LAYER
  5
43
330
1D
100
AcDbSymbolTableRecord
100
AcDbLayerTableRecord
  2
AM_3
 70
     0
 62
     1
  6
AM_ISO02W050
370
    25
390
6
  0
ENDTAB
  0
TABLE
  2
STYLE
  5
1E
330
0
100
AcDbSymbolTable
 70
     4
  0
STYLE
  5
1F
330
1E
100
AcDbSymbolTableRecord
100
AcDbTextStyleTableRecord
  2
STANDARD
 70
     0
 40
0.0
 41
1.0
 50
0.0
 71
     0
 42
5.0
  3
ISOCP.SHX
  4

  0
STYLE
  5
29A
330
1E
100
AcDbSymbolTableRecord
100
AcDbTextStyleTableRecord
  2

 70
     1
 40
0.0
 41
1.0
 50
0.0
 71
     0
 42
2.5
  3
ltypeshp.shx
  4

  0
STYLE
  5
2A6
330
1E
100
AcDbSymbolTableRecord
100
AcDbTextStyleTableRecord
  2
ACDINTS
 70
     0
 40
1.0
 41
1.0
 50
0.0
 71
     0
 42
2.5
  3
isocp.shx
  4

  0
STYLE
  5
2AA
330
1E
100
AcDbSymbolTableRecord
100
AcDbTextStyleTableRecord
  2
ACDINGDT
 70
     0
 40
0.0
 41
1.0
 50
0.0
 71
     0
 42
2.5
  3
amgdt.shx
  4

  0
ENDTAB
  0
TABLE
  2
VIEW
  5
24
330
0
100
AcDbSymbolTable
 70
     1
  0
VIEW
  5
16
330
24
100
AcDbSymbolTableRecord
100
AcDbViewTableRecord
  2
AM_VIEW1
 70
     0
 40
227.01
 10
258.4747003000061
 20
464.3238583208174
 41
321.8169605568446
 11
0.0
 21
0.0
 31
1.0
 12
0.0
 22
0.0
 32
0.0
 42
50.0
 43
0.0
 44
0.0
 50
0.0
 71
    16
281
     0
 72
     0
  0
ENDTAB
  0
TABLE
  2
UCS
  5
25
330
0
100
AcDbSymbolTable
 70
     0
  0
ENDTAB
  0
TABLE
  2
APPID
  5
28
330
0
100
AcDbSymbolTable
 70
     4
  0
APPID
  5
29
330
28
100
AcDbSymbolTableRecord
100
AcDbRegAppTableRecord
  2
ACAD
 70
     0
  0
APPID
  5
A2
330
28
100
AcDbSymbolTableRecord
100
AcDbRegAppTableRecord
  2
GENIUS_GENDTOL_13
 70
     0
  0
APPID
  5
70
330
28
100
AcDbSymbolTableRecord
100
AcDbRegAppTableRecord
  2
GENIUS_AMGTXT_16
 70
     0
  0
APPID
  5
2D0
330
28
100
AcDbSymbolTableRecord
100
AcDbRegAppTableRecord
  2
ACATTRIBSERVICES
 70
     0
  0
ENDTAB
  0
TABLE
  2
DIMSTYLE
  5
2A
330
0
100
AcDbSymbolTable
 70
     7
100
AcDbDimStyleTable
 71
     1
340
2B
  0
DIMSTYLE
105
2B
102
{ACAD_REACTORS
330
254
330
261
330
272
330
27F
330
203
330
228
330
246
330
237
330
1F4
330
1E0
330
1B0
330
1CD
330
177
330
186
330
14D
330
15A
330
10F
330
11D
330
E6
330
167
330
140
330
C5
330
131
330
196
330
1C0
330
102
330
1A3
330
B6
330
A4
330
92
102
}
330
2A
100
AcDbSymbolTableRecord
100
AcDbDimStyleTableRecord
  2
AM_ISO
 70
     0
  4
"
 41
2.5
 42
0.0
 43
10.0
 44
1.0
 47
0.1
 48
0.1
 73
     0
 74
     0
 77
     1
 78
     8
 79
     2
140
3.5
141
0.0
143
0.0393701
146
0.71
147
1.5
172
     1
176
   256
177
   256
178
     3
271
     2
272
     2
283
     0
340
1F
371
    -1
372
    -1
  0
DIMSTYLE
105
2B9
330
2A
100
AcDbSymbolTableRecord
100
AcDbDimStyleTableRecord
  2
AM_ISO$3
 70
     0
  4
"
 41
2.5
 42
0.0
 43
10.0
 44
1.0
 47
0.1
 48
0.1
 73
     0
 77
     1
 78
     8
 79
     2
140
3.5
141
0.0
143
0.0393701
146
0.71
147
1.5
176
   256
177
   256
178
     3
271
     2
272
     2
283
     0
288
     1
289
     0
340
1F
371
    -1
372
    -1
  0
DIMSTYLE
105
2BA
330
2A
100
AcDbSymbolTableRecord
100
AcDbDimStyleTableRecord
  2
AM_ISO$4
 70
     0
  4
"
 41
2.5
 42
0.0
 43
10.0
 44
1.0
 47
0.1
 48
0.1
 73
     0
 77
     1
 78
     8
 79
     2
140
3.5
141
0.0
143
0.0393701
146
0.71
147
1.5
176
   256
177
   256
178
     3
271
     2
272
     2
283
     0
288
     1
289
     0
340
1F
371
    -1
372
    -1
  0
DIMSTYLE
105
2BB
330
2A
100
AcDbSymbolTableRecord
100
AcDbDimStyleTableRecord
  2
AM_ISO$6
 70
     0
  4
"
 41
2.5
 42
0.0
 43
10.0
 44
1.0
 47
0.1
 48
0.1
 73
     0
 74
     0
 78
     8
 79
     2
140
3.5
141
0.0
143
0.0393701
146
0.71
147
1.5
172
     1
176
   256
177
   256
178
     3
271
     2
272
     2
283
     0
340
1F
371
    -1
372
    -1
  0
DIMSTYLE
105
2BC
330
2A
100
AcDbSymbolTableRecord
100
AcDbDimStyleTableRecord
  2
AM_ISO$7
 70
     0
  4
"
 41
2.5
 42
0.0
 43
10.0
 44
1.0
 47
0.1
 48
0.1
 73
     0
 74
     0
 77
     1
 78
     8
 79
     2
140
5.0
141
0.0
143
0.0393701
146
0.71
147
1.5
172
     1
176
   256
177
   256
178
     3
271
     2
272
     2
283
     0
340
1F
371
    -1
372
    -1
  0
DIMSTYLE
105
2BD
330
2A
100
AcDbSymbolTableRecord
100
AcDbDimStyleTableRecord
  2
AM_ISO$SF
 70
     0
  4
"
 41
2.5
 42
0.0
 43
10.0
 44
1.0
 47
0.1
 48
0.1
 73
     0
 74
     0
 75
     1
 76
     1
 77
     1
 78
     8
 79
     2
140
3.5
141
0.0
143
0.0393701
146
0.71
147
1.5
172
     1
176
   256
177
   256
178
     3
271
     2
272
     2
283
     0
340
1F
371
    -1
372
    -1
  0
DIMSTYLE
105
2BE
330
2A
100
AcDbSymbolTableRecord
100
AcDbDimStyleTableRecord
  2
AM_ISO$SH
 70
     0
  4
"
 41
2.5
 42
0.0
 43
10.0
 44
1.0
 47
0.1
 48
0.1
 73
     0
 74
     0
 75
     1
 76
     1
 77
     1
 78
     8
 79
     2
140
3.5
141
0.0
143
0.0393701
144
2.0
146
0.71
147
1.5
172
     1
173
     1
176
   256
177
   256
178
     3
271
     2
272
     2
283
     0
340
1F
343
2BF
371
    -1
372
    -1
  0
ENDTAB
  0
TABLE
  2
BLOCK_RECORD
  5
1
330
0
100
AcDbSymbolTable
 70
    31
  0
BLOCK_RECORD
  5
2
102
{ACAD_XDICTIONARY
360
3
102
}
330
1
100
AcDbSymbolTableRecord
100
AcDbBlockTableRecord
  2
*Model_Space
340
14
  0
BLOCK_RECORD
  5
19
330
1
100
AcDbSymbolTableRecord
100
AcDbBlockTableRecord
  2
*Paper_Space
340
1C
  0
BLOCK_RECORD
  5
2BF
330
1
100
AcDbSymbolTableRecord
100
AcDbBlockTableRecord
  2
GENAXEH
340
0
  0
BLOCK_RECORD
  5
103
330
1
100
AcDbSymbolTableRecord
100
AcDbBlockTableRecord
  2
*D1
340
0
  0
BLOCK_RECORD
  5
247
330
1
100
AcDbSymbolTableRecord
100
AcDbBlockTableRecord
  2
*D2
340
0
  0
BLOCK_RECORD
  5
1F5
330
1
100
AcDbSymbolTableRecord
100
AcDbBlockTableRecord
  2
*D3
340
0
  0
BLOCK_RECORD
  5
1CE
330
1
100
AcDbSymbolTableRecord
100
AcDbBlockTableRecord
  2
*D4
340
0
  0
BLOCK_RECORD
  5
262
330
1
100
AcDbSymbolTableRecord
100
AcDbBlockTableRecord
  2
*D5
340
0
  0
BLOCK_RECORD
  5
1C1
330
1
100
AcDbSymbolTableRecord
100
AcDbBlockTableRecord
  2
*D6
340
0
  0
BLOCK_RECORD
  5
1B3
330
1
100
AcDbSymbolTableRecord
100
AcDbBlockTableRecord
  2
*D7
340
0
  0
BLOCK_RECORD
  5
1A4
330
1
100
AcDbSymbolTableRecord
100
AcDbBlockTableRecord
  2
*D8
340
0
  0
BLOCK_RECORD
  5
197
330
1
100
AcDbSymbolTableRecord
100
AcDbBlockTableRecord
  2
*D9
340
0
  0
BLOCK_RECORD
  5
204
330
1
100
AcDbSymbolTableRecord
100
AcDbBlockTableRecord
  2
*D10
340
0
  0
BLOCK_RECORD
  5
229
330
1
100
AcDbSymbolTableRecord
100
AcDbBlockTableRecord
  2
*D11
340
0
  0
BLOCK_RECORD
  5
178
330
1
100
AcDbSymbolTableRecord
100
AcDbBlockTableRecord
  2
*D12
340
0
  0
BLOCK_RECORD
  5
280
330
1
100
AcDbSymbolTableRecord
100
AcDbBlockTableRecord
  2
*D13
340
0
  0
BLOCK_RECORD
  5
273
330
1
100
AcDbSymbolTableRecord
100
AcDbBlockTableRecord
  2
*D14
340
0
  0
BLOCK_RECORD
  5
16A
330
1
100
AcDbSymbolTableRecord
100
AcDbBlockTableRecord
  2
*D15
340
0
  0
BLOCK_RECORD
  5
E7
330
1
100
AcDbSymbolTableRecord
100
AcDbBlockTableRecord
  2
*D16
340
0
  0
BLOCK_RECORD
  5
15B
330
1
100
AcDbSymbolTableRecord
100
AcDbBlockTableRecord
  2
*D17
340
0
  0
BLOCK_RECORD
  5
14E
330
1
100
AcDbSymbolTableRecord
100
AcDbBlockTableRecord
  2
*D18
340
0
  0
BLOCK_RECORD
  5
141
330
1
100
AcDbSymbolTableRecord
100
AcDbBlockTableRecord
  2
*D19
340
0
  0
BLOCK_RECORD
  5
110
330
1
100
AcDbSymbolTableRecord
100
AcDbBlockTableRecord
  2
*D20
340
0
  0
BLOCK_RECORD
  5
11E
330
1
100
AcDbSymbolTableRecord
100
AcDbBlockTableRecord
  2
*D21
340
0
  0
BLOCK_RECORD
  5
132
330
1
100
AcDbSymbolTableRecord
100
AcDbBlockTableRecord
  2
*D22
340
0
  0
BLOCK_RECORD
  5
187
330
1
100
AcDbSymbolTableRecord
100
AcDbBlockTableRecord
  2
*D23
340
0
  0
BLOCK_RECORD
  5
1E1
330
1
100
AcDbSymbolTableRecord
100
AcDbBlockTableRecord
  2
*D24
340
0
  0
BLOCK_RECORD
  5
238
330
1
100
AcDbSymbolTableRecord
100
AcDbBlockTableRecord
  2
*D25
340
0
  0
BLOCK_RECORD
  5
A5
330
1
100
AcDbSymbolTableRecord
100
AcDbBlockTableRecord
  2
*D26
340
0
  0
BLOCK_RECORD
  5
93
330
1
100
AcDbSymbolTableRecord
100
AcDbBlockTableRecord
  2
*D27
340
0
  0
BLOCK_RECORD
  5
C6
330
1
100
AcDbSymbolTableRecord
100
AcDbBlockTableRecord
  2
*D28
340
0
  0
BLOCK_RECORD
  5
B7
330
1
100
AcDbSymbolTableRecord
100
AcDbBlockTableRecord
  2
*D29
340
0
  0
BLOCK_RECORD
  5
255
330
1
100
AcDbSymbolTableRecord
100
AcDbBlockTableRecord
  2
*D30
340
0
  0
ENDTAB
  0
ENDSEC
  0
SECTION
  2
BLOCKS
  0
BLOCK
  5
4
330
2
100
AcDbEntity
  8
0
100
AcDbBlockBegin
  2
*Model_Space
 70
     0
 10
0.0
 20
0.0
 30
0.0
  3
*Model_Space
  1

  0
ENDBLK
  5
13
330
2
100
AcDbEntity
  8
0
100
AcDbBlockEnd
  0
BLOCK
  5
1A
330
19
100
AcDbEntity
 67
     1
  8
0
100
AcDbBlockBegin
  2
*Paper_Space
 70
     0
 10
0.0
 20
0.0
 30
0.0
  3
*Paper_Space
  1

  0
ENDBLK
  5
1B
330
19
100
AcDbEntity
 67
     1
  8
0
100
AcDbBlockEnd
  0
BLOCK
  5
2C0
330
2BF
100
AcDbEntity
  8
0
100
AcDbBlockBegin
  2
GENAXEH
 70
     0
 10
0.0
 20
0.0
 30
0.0
  3
GENAXEH
  1

  0
LINE
  5
2C1
330
2BF
100
AcDbEntity
  8
0
100
AcDbLine
 10
-1.0
 20
0.0
 30
0.0
 11
1.0
 21
0.0
 31
0.0
  0
ENDBLK
  5
2C2
330
2BF
100
AcDbEntity
  8
0
100
AcDbBlockEnd
  0
BLOCK
  5
104
330
103
100
AcDbEntity
  8
0
100
AcDbBlockBegin
  2
*D1
 70
     1
 10
0.0
 20
0.0
 30
0.0
  3
*D1
  1

  0
LINE
  5
105
330
103
100
AcDbEntity
  8
AM_5
100
AcDbLine
 10
1299.232684984774
 20
397.6499810033438
 30
0.0
 11
1299.232684984774
 21
391.3392232479737
 31
0.0
  0
LINE
  5
106
330
103
100
AcDbEntity
  8
AM_5
100
AcDbLine
 10
1337.232684984774
 20
397.6499810033438
 30
0.0
 11
1337.232684984774
 21
391.3392232479737
 31
0.0
  0
LINE
  5
107
330
103
100
AcDbEntity
  8
AM_5
100
AcDbLine
 10
1304.232684984774
 20
393.3392232479737
 30
0.0
 11
1332.232684984774
 21
393.3392232479737
 31
0.0
  0
SOLID
  5
108
330
103
100
AcDbEntity
  8
AM_5
100
AcDbTrace
 10
1304.232684984774
 20
394.172556581307
 30
0.0
 11
1304.232684984774
 21
392.5058899146404
 31
0.0
 12
1299.232684984774
 22
393.3392232479737
 32
0.0
 13
1299.232684984774
 23
393.3392232479737
 33
0.0
  0
SOLID
  5
109
330
103
100
AcDbEntity
  8
AM_5
100
AcDbTrace
 10
1332.232684984774
 20
394.172556581307
 30
0.0
 11
1332.232684984774
 21
392.5058899146404
 31
0.0
 12
1337.232684984774
 22
393.3392232479737
 32
0.0
 13
1337.232684984774
 23
393.3392232479737
 33
0.0
  0
MTEXT
  5
10A
330
103
100
AcDbEntity
  8
AM_5
 62
     3
100
AcDbMText
 10
1318.232684984774
 20
399.8392232479737
 30
0.0
 40
7.0
 41
0.0
 71
     5
 72
     1
  1
38
 73
     1
 44
1.0
  0
POINT
  5
10B
330
103
100
AcDbEntity
  8
Defpoints
 62
     0
100
AcDbPoint
 10
1299.232684984774
 20
397.6499810033438
 30
0.0
  0
POINT
  5
10C
330
103
100
AcDbEntity
  8
Defpoints
 62
     0
100
AcDbPoint
 10
1337.232684984774
 20
397.6499810033438
 30
0.0
  0
POINT
  5
10D
330
103
100
AcDbEntity
  8
Defpoints
 62
     0
100
AcDbPoint
 10
1337.232684984774
 20
393.3392232479737
 30
0.0
  0
ENDBLK
  5
10E
330
103
100
AcDbEntity
  8
0
100
AcDbBlockEnd
  0
BLOCK
  5
248
330
247
100
AcDbEntity
  8
0
100
AcDbBlockBegin
  2
*D2
 70
     1
 10
0.0
 20
0.0
 30
0.0
  3
*D2
  1

  0
LINE
  5
249
330
247
100
AcDbEntity
  8
AM_5
100
AcDbLine
 10
1328.732684984774
 20
215.7373719627958
 30
0.0
 11
1388.232684984774
 21
215.7373719627958
 31
0.0
  0
LINE
  5
24A
330
247
100
AcDbEntity
  8
AM_5
100
AcDbLine
 10
1328.732684984775
 20
232.7373719627958
 30
0.0
 11
1388.232684984774
 21
232.7373719627958
 31
0.0
  0
LINE
  5
24B
330
247
100
AcDbEntity
  8
AM_5
100
AcDbLine
 10
1386.232684984774
 20
220.7373719627958
 30
0.0
 11
1386.232684984774
 21
227.7373719627958
 31
0.0
  0
LINE
  5
24C
330
247
100
AcDbEntity
  8
AM_5
100
AcDbLine
 10
1386.232684984774
 20
232.7373719627958
 30
0.0
 11
1386.232684984774
 21
257.327321456457
 31
0.0
  0
SOLID
  5
24D
330
247
100
AcDbEntity
  8
AM_5
100
AcDbTrace
 10
1385.399351651441
 20
220.7373719627958
 30
0.0
 11
1387.066018318108
 21
220.7373719627958
 31
0.0
 12
1386.232684984774
 22
215.7373719627958
 32
0.0
 13
1386.232684984774
 23
215.7373719627958
 33
0.0
  0
SOLID
  5
24E
330
247
100
AcDbEntity
  8
AM_5
100
AcDbTrace
 10
1385.399351651441
 20
227.7373719627958
 30
0.0
 11
1387.066018318108
 21
227.7373719627958
 31
0.0
 12
1386.232684984774
 22
232.7373719627958
 32
0.0
 13
1386.232684984774
 23
232.7373719627958
 33
0.0
  0
MTEXT
  5
24F
330
247
100
AcDbEntity
  8
AM_5
 62
     3
100
AcDbMText
 10
1379.732684984774
 20
247.5323467096266
 30
0.0
 40
7.0
 41
0.0
 71
     5
 72
     1
  1
15.5
 11
0.0000000000000001
 21
1.0
 31
0.0
 73
     1
 44
1.0
  0
POINT
  5
250
330
247
100
AcDbEntity
  8
Defpoints
 62
     0
100
AcDbPoint
 10
1328.732684984774
 20
215.7373719627958
 30
0.0
  0
POINT
  5
251
330
247
100
AcDbEntity
  8
Defpoints
 62
     0
100
AcDbPoint
 10
1328.732684984775
 20
232.7373719627958
 30
0.0
  0
POINT
  5
252
330
247
100
AcDbEntity
  8
Defpoints
 62
     0
100
AcDbPoint
 10
1386.232684984774
 20
232.7373719627958
 30
0.0
  0
ENDBLK
  5
253
330
247
100
AcDbEntity
  8
0
100
AcDbBlockEnd
  0
BLOCK
  5
1F6
330
1F5
100
AcDbEntity
  8
0
100
AcDbBlockBegin
  2
*D3
 70
     1
 10
0.0
 20
0.0
 30
0.0
  3
*D3
  1

  0
LINE
  5
1F7
330
1F5
100
AcDbEntity
  8
AM_5
100
AcDbLine
 10
1350.232684984775
 20
351.9463154687828
 30
0.0
 11
1350.232684984775
 21
284.9463154687828
 31
0.0
  0
LINE
  5
1F8
330
1F5
100
AcDbEntity
  8
AM_5
100
AcDbLine
 10
1318.232684984774
 20
352.5463154687829
 30
0.0
 11
1318.232684984774
 21
284.9463154687828
 31
0.0
  0
LINE
  5
1F9
330
1F5
100
AcDbEntity
  8
AM_5
100
AcDbLine
 10
1345.232684984774
 20
286.9463154687828
 30
0.0
 11
1323.232684984774
 21
286.9463154687828
 31
0.0
  0
SOLID
  5
1FA
330
1F5
100
AcDbEntity
  8
AM_5
100
AcDbTrace
 10
1345.232684984774
 20
287.7796488021161
 30
0.0
 11
1345.232684984774
 21
286.1129821354495
 31
0.0
 12
1350.232684984775
 22
286.9463154687828
 32
0.0
 13
1350.232684984775
 23
286.9463154687828
 33
0.0
  0
SOLID
  5
1FB
330
1F5
100
AcDbEntity
  8
AM_5
100
AcDbTrace
 10
1323.232684984774
 20
287.7796488021161
 30
0.0
 11
1323.232684984774
 21
286.1129821354495
 31
0.0
 12
1318.232684984774
 22
286.9463154687828
 32
0.0
 13
1318.232684984774
 23
286.9463154687828
 33
0.0
  0
MTEXT
  5
1FC
330
1F5
100
AcDbEntity
  8
AM_5
 62
     3
100
AcDbMText
 10
1334.232684984774
 20
293.4463154687828
 30
0.0
 40
7.0
 41
0.0
 71
     5
 72
     1
  1
33
 73
     1
 44
1.0
  0
POINT
  5
1FD
330
1F5
100
AcDbEntity
  8
Defpoints
 62
     0
100
AcDbPoint
 10
1350.232684984775
 20
351.9463154687828
 30
0.0
  0
POINT
  5
1FE
330
1F5
100
AcDbEntity
  8
Defpoints
 62
     0
100
AcDbPoint
 10
1318.232684984774
 20
352.5463154687829
 30
0.0
  0
POINT
  5
1FF
330
1F5
100
AcDbEntity
  8
Defpoints
 62
     0
100
AcDbPoint
 10
1318.232684984774
 20
286.9463154687828
 30
0.0
  0
ENDBLK
  5
200
330
1F5
100
AcDbEntity
  8
0
100
AcDbBlockEnd
  0
BLOCK
  5
1CF
330
1CE
100
AcDbEntity
  8
0
100
AcDbBlockBegin
  2
*D4
 70
     1
 10
0.0
 20
0.0
 30
0.0
  3
*D4
  1

  0
LINE
  5
1D0
330
1CE
100
AcDbEntity
  8
AM_5
100
AcDbLine
 10
1340.232684984774
 20
506.9463154687828
 30
0.0
 11
1404.232684984774
 21
506.9463154687828
 31
0.0
  0
LINE
  5
1D1
330
1CE
100
AcDbEntity
  8
AM_5
100
AcDbLine
 10
1256.232684984775
 20
541.9463154687828
 30
0.0
 11
1404.232684984774
 21
541.9463154687827
 31
0.0
  0
LINE
  5
1D2
330
1CE
100
AcDbEntity
  8
AM_5
100
AcDbLine
 10
1402.232684984774
 20
511.9463154687828
 30
0.0
 11
1402.232684984774
 21
536.9463154687827
 31
0.0
  0
SOLID
  5
1D3
330
1CE
100
AcDbEntity
  8
AM_5
100
AcDbTrace
 10
1401.399351651441
 20
511.9463154687828
 30
0.0
 11
1403.066018318108
 21
511.9463154687828
 31
0.0
 12
1402.232684984774
 22
506.9463154687828
 32
0.0
 13
1402.232684984774
 23
506.9463154687828
 33
0.0
  0
SOLID
  5
1D4
330
1CE
100
AcDbEntity
  8
AM_5
100
AcDbTrace
 10
1401.399351651441
 20
536.9463154687827
 30
0.0
 11
1403.066018318108
 21
536.9463154687827
 31
0.0
 12
1402.232684984774
 22
541.9463154687827
 32
0.0
 13
1402.232684984774
 23
541.9463154687827
 33
0.0
  0
MTEXT
  5
1D5
330
1CE
100
AcDbEntity
  8
AM_5
 62
     3
100
AcDbMText
 10
1395.732684984774
 20
524.4463154687829
 30
0.0
 40
7.0
 41
0.0
 71
     5
 72
     1
  1
35
 11
0.0000000000000001
 21
1.0
 31
0.0
 73
     1
 44
1.0
  0
POINT
  5
1D6
330
1CE
100
AcDbEntity
  8
Defpoints
 62
     0
100
AcDbPoint
 10
1340.232684984774
 20
506.9463154687828
 30
0.0
  0
POINT
  5
1D7
330
1CE
100
AcDbEntity
  8
Defpoints
 62
     0
100
AcDbPoint
 10
1256.232684984775
 20
541.9463154687828
 30
0.0
  0
POINT
  5
1D8
330
1CE
100
AcDbEntity
  8
Defpoints
 62
     0
100
AcDbPoint
 10
1402.232684984774
 20
541.9463154687827
 30
0.0
  0
ENDBLK
  5
1D9
330
1CE
100
AcDbEntity
  8
0
100
AcDbBlockEnd
  0
BLOCK
  5
263
330
262
100
AcDbEntity
  8
0
100
AcDbBlockBegin
  2
*D5
 70
     1
 10
0.0
 20
0.0
 30
0.0
  3
*D5
  1

  0
LINE
  5
264
330
262
100
AcDbEntity
  8
AM_5
100
AcDbLine
 10
1318.232684984774
 20
371.9463154687828
 30
0.0
 11
1388.232684984774
 21
371.9463154687828
 31
0.0
  0
LINE
  5
265
330
262
100
AcDbEntity
  8
AM_5
100
AcDbLine
 10
1337.232684984774
 20
363.9463154687828
 30
0.0
 11
1388.232684984774
 21
363.9463154687828
 31
0.0
  0
LINE
  5
266
330
262
100
AcDbEntity
  8
AM_5
100
AcDbLine
 10
1386.232684984774
 20
376.9463154687828
 30
0.0
 11
1386.232684984774
 21
381.9463154687828
 31
0.0
  0
LINE
  5
267
330
262
100
AcDbEntity
  8
AM_5
100
AcDbLine
 10
1386.232684984774
 20
358.9463154687828
 30
0.0
 11
1386.232684984774
 21
345.1463154687828
 31
0.0
  0
LINE
  5
268
330
262
100
AcDbEntity
  8
AM_5
100
AcDbLine
 10
1386.232684984774
 20
371.9463154687828
 30
0.0
 11
1386.232684984774
 21
363.9463154687828
 31
0.0
  0
SOLID
  5
269
330
262
100
AcDbEntity
  8
AM_5
100
AcDbTrace
 10
1385.399351651441
 20
376.9463154687828
 30
0.0
 11
1387.066018318108
 21
376.9463154687828
 31
0.0
 12
1386.232684984774
 22
371.9463154687828
 32
0.0
 13
1386.232684984774
 23
371.9463154687828
 33
0.0
  0
SOLID
  5
26A
330
262
100
AcDbEntity
  8
AM_5
100
AcDbTrace
 10
1385.399351651441
 20
358.9463154687828
 30
0.0
 11
1387.066018318108
 21
358.9463154687828
 31
0.0
 12
1386.232684984774
 22
363.9463154687828
 32
0.0
 13
1386.232684984774
 23
363.9463154687828
 33
0.0
  0
MTEXT
  5
26B
330
262
100
AcDbEntity
  8
AM_5
 62
     3
100
AcDbMText
 10
1379.732684984774
 20
349.546315468783
 30
0.0
 40
7.0
 41
0.0
 71
     5
 72
     1
  1
8
 11
0.0000000000000001
 21
1.0
 31
0.0
 73
     1
 44
1.0
  0
POINT
  5
26C
330
262
100
AcDbEntity
  8
Defpoints
 62
     0
100
AcDbPoint
 10
1318.232684984774
 20
371.9463154687828
 30
0.0
  0
POINT
  5
26D
330
262
100
AcDbEntity
  8
Defpoints
 62
     0
100
AcDbPoint
 10
1337.232684984774
 20
363.9463154687828
 30
0.0
  0
POINT
  5
26E
330
262
100
AcDbEntity
  8
Defpoints
 62
     0
100
AcDbPoint
 10
1386.232684984774
 20
363.9463154687828
 30
0.0
  0
ENDBLK
  5
26F
330
262
100
AcDbEntity
  8
0
100
AcDbBlockEnd
  0
BLOCK
  5
1C2
330
1C1
100
AcDbEntity
  8
0
100
AcDbBlockBegin
  2
*D6
 70
     1
 10
0.0
 20
0.0
 30
0.0
  3
*D6
  1

  0
LINE
  5
1C3
330
1C1
100
AcDbEntity
  8
AM_5
100
AcDbLine
 10
1318.232684984774
 20
443.9463154687827
 30
0.0
 11
1388.232684984774
 21
443.9463154687827
 31
0.0
  0
LINE
  5
1C4
330
1C1
100
AcDbEntity
  8
AM_5
100
AcDbLine
 10
1318.232684984774
 20
371.9463154687828
 30
0.0
 11
1388.232684984774
 21
371.9463154687828
 31
0.0
  0
LINE
  5
1C5
330
1C1
100
AcDbEntity
  8
AM_5
100
AcDbLine
 10
1386.232684984774
 20
438.9463154687827
 30
0.0
 11
1386.232684984774
 21
376.9463154687828
 31
0.0
  0
SOLID
  5
1C6
330
1C1
100
AcDbEntity
  8
AM_5
100
AcDbTrace
 10
1385.399351651441
 20
438.9463154687827
 30
0.0
 11
1387.066018318108
 21
438.9463154687827
 31
0.0
 12
1386.232684984774
 22
443.9463154687827
 32
0.0
 13
1386.232684984774
 23
443.9463154687827
 33
0.0
  0
SOLID
  5
1C7
330
1C1
100
AcDbEntity
  8
AM_5
100
AcDbTrace
 10
1385.399351651441
 20
376.9463154687828
 30
0.0
 11
1387.066018318108
 21
376.9463154687828
 31
0.0
 12
1386.232684984774
 22
371.9463154687828
 32
0.0
 13
1386.232684984774
 23
371.9463154687828
 33
0.0
  0
MTEXT
  5
1C8
330
1C1
100
AcDbEntity
  8
AM_5
 62
     3
100
AcDbMText
 10
1379.731996008397
 20
407.946315468783
 30
0.0
 40
7.0
 41
0.0
 71
     5
 72
     1
  1
72
 11
0.0000000000000001
 21
1.0
 31
0.0
 73
     1
 44
1.0
  0
POINT
  5
1C9
330
1C1
100
AcDbEntity
  8
Defpoints
 62
     0
100
AcDbPoint
 10
1318.232684984774
 20
443.9463154687827
 30
0.0
  0
POINT
  5
1CA
330
1C1
100
AcDbEntity
  8
Defpoints
 62
     0
100
AcDbPoint
 10
1318.232684984774
 20
371.9463154687828
 30
0.0
  0
POINT
  5
1CB
330
1C1
100
AcDbEntity
  8
Defpoints
 62
     0
100
AcDbPoint
 10
1386.232684984774
 20
371.9463154687828
 30
0.0
  0
ENDBLK
  5
1CC
330
1C1
100
AcDbEntity
  8
0
100
AcDbBlockEnd
  0
BLOCK
  5
1B4
330
1B3
100
AcDbEntity
  8
0
100
AcDbBlockBegin
  2
*D7
 70
     1
 10
0.0
 20
0.0
 30
0.0
  3
*D7
  1

  0
LINE
  5
1B5
330
1B3
100
AcDbEntity
  8
AM_5
100
AcDbLine
 10
1259.732684984775
 20
541.9463154687828
 30
0.0
 11
1388.232684984775
 21
541.9463154687827
 31
0.0
  0
LINE
  5
1B6
330
1B3
100
AcDbEntity
  8
AM_5
100
AcDbLine
 10
1318.232684984774
 20
443.9463154687827
 30
0.0
 11
1388.232684984774
 21
443.9463154687827
 31
0.0
  0
LINE
  5
1B7
330
1B3
100
AcDbEntity
  8
AM_5
100
AcDbLine
 10
1386.232684984775
 20
536.9463154687827
 30
0.0
 11
1386.232684984775
 21
510.4463154687827
 31
0.0
  0
SOLID
  5
1B8
330
1B3
100
AcDbEntity
  8
AM_5
100
AcDbTrace
 10
1385.399351651442
 20
536.9463154687827
 30
0.0
 11
1387.066018318108
 21
536.9463154687827
 31
0.0
 12
1386.232684984775
 22
541.9463154687827
 32
0.0
 13
1386.232684984775
 23
541.9463154687827
 33
0.0
  0
SOLID
  5
1B9
330
1B3
100
AcDbEntity
  8
AM_5
100
AcDbTrace
 10
1385.399351651441
 20
448.9463154687828
 30
0.0
 11
1387.066018318108
 21
448.9463154687828
 31
0.0
 12
1386.232684984774
 22
443.9463154687827
 32
0.0
 13
1386.232684984774
 23
443.9463154687827
 33
0.0
  0
MTEXT
  5
1BA
330
1B3
100
AcDbEntity
  8
AM_5
 62
     3
100
AcDbMText
 10
1379.732684984774
 20
492.9463154687829
 30
0.0
 40
7.0
 41
0.0
 71
     5
 72
     1
  1
98
 11
0.0000000000000001
 21
1.0
 31
0.0
 73
     1
 44
1.0
  0
POINT
  5
1BB
330
1B3
100
AcDbEntity
  8
Defpoints
 62
     0
100
AcDbPoint
 10
1256.232684984775
 20
541.9463154687828
 30
0.0
  0
POINT
  5
1BC
330
1B3
100
AcDbEntity
  8
Defpoints
 62
     0
100
AcDbPoint
 10
1318.232684984774
 20
443.9463154687827
 30
0.0
  0
POINT
  5
1BD
330
1B3
100
AcDbEntity
  8
Defpoints
 62
     0
100
AcDbPoint
 10
1386.232684984774
 20
443.9463154687827
 30
0.0
  0
LINE
  5
1BE
330
1B3
100
AcDbEntity
  8
AM_5
100
AcDbLine
 10
1386.232684984775
 20
503.4463154687828
 30
0.0
 11
1386.232684984774
 21
448.9463154687828
 31
0.0
  0
ENDBLK
  5
1BF
330
1B3
100
AcDbEntity
  8
0
100
AcDbBlockEnd
  0
BLOCK
  5
1A5
330
1A4
100
AcDbEntity
  8
0
100
AcDbBlockBegin
  2
*D8
 70
     1
 10
0.0
 20
0.0
 30
0.0
  3
*D8
  1

  0
LINE
  5
1A6
330
1A4
100
AcDbEntity
  8
AM_5
100
AcDbLine
 10
1318.232684984774
 20
422.4463154687827
 30
0.0
 11
1372.232684984775
 21
422.4463154687827
 31
0.0
  0
LINE
  5
1A7
330
1A4
100
AcDbEntity
  8
AM_5
100
AcDbLine
 10
1337.232684984774
 20
443.9463154687827
 30
0.0
 11
1372.232684984775
 21
443.9463154687827
 31
0.0
  0
LINE
  5
1A8
330
1A4
100
AcDbEntity
  8
AM_5
100
AcDbLine
 10
1370.232684984774
 20
427.4463154687828
 30
0.0
 11
1370.232684984774
 21
438.9463154687827
 31
0.0
  0
SOLID
  5
1A9
330
1A4
100
AcDbEntity
  8
AM_5
100
AcDbTrace
 10
1369.399351651441
 20
427.4463154687828
 30
0.0
 11
1371.066018318108
 21
427.4463154687828
 31
0.0
 12
1370.232684984774
 22
422.4463154687827
 32
0.0
 13
1370.232684984774
 23
422.4463154687827
 33
0.0
  0
SOLID
  5
1AA
330
1A4
100
AcDbEntity
  8
AM_5
100
AcDbTrace
 10
1369.399351651441
 20
438.9463154687827
 30
0.0
 11
1371.066018318108
 21
438.9463154687827
 31
0.0
 12
1370.232684984774
 22
443.9463154687827
 32
0.0
 13
1370.232684984774
 23
443.9463154687827
 33
0.0
  0
MTEXT
  5
1AB
330
1A4
100
AcDbEntity
  8
AM_5
 62
     3
100
AcDbMText
 10
1363.731996008397
 20
433.196315468783
 30
0.0
 40
7.0
 41
0.0
 71
     5
 72
     1
  1
21.5
 11
0.0000000000000001
 21
1.0
 31
0.0
 73
     1
 44
1.0
  0
POINT
  5
1AC
330
1A4
100
AcDbEntity
  8
Defpoints
 62
     0
100
AcDbPoint
 10
1318.232684984774
 20
422.4463154687827
 30
0.0
  0
POINT
  5
1AD
330
1A4
100
AcDbEntity
  8
Defpoints
 62
     0
100
AcDbPoint
 10
1337.232684984774
 20
443.9463154687827
 30
0.0
  0
POINT
  5
1AE
330
1A4
100
AcDbEntity
  8
Defpoints
 62
     0
100
AcDbPoint
 10
1370.232684984774
 20
443.9463154687827
 30
0.0
  0
ENDBLK
  5
1AF
330
1A4
100
AcDbEntity
  8
0
100
AcDbBlockEnd
  0
BLOCK
  5
198
330
197
100
AcDbEntity
  8
0
100
AcDbBlockBegin
  2
*D9
 70
     1
 10
0.0
 20
0.0
 30
0.0
  3
*D9
  1

  0
LINE
  5
199
330
197
100
AcDbEntity
  8
AM_5
100
AcDbLine
 10
1337.232684984774
 20
443.9463154687827
 30
0.0
 11
1372.232684984775
 21
443.9463154687827
 31
0.0
  0
LINE
  5
19A
330
197
100
AcDbEntity
  8
AM_5
100
AcDbLine
 10
1318.232684984774
 20
489.9463154687829
 30
0.0
 11
1372.232684984775
 21
489.9463154687829
 31
0.0
  0
LINE
  5
19B
330
197
100
AcDbEntity
  8
AM_5
100
AcDbLine
 10
1370.232684984774
 20
448.9463154687828
 30
0.0
 11
1370.232684984774
 21
484.9463154687829
 31
0.0
  0
SOLID
  5
19C
330
197
100
AcDbEntity
  8
AM_5
100
AcDbTrace
 10
1369.399351651441
 20
448.9463154687828
 30
0.0
 11
1371.066018318108
 21
448.9463154687828
 31
0.0
 12
1370.232684984774
 22
443.9463154687827
 32
0.0
 13
1370.232684984774
 23
443.9463154687827
 33
0.0
  0
SOLID
  5
19D
330
197
100
AcDbEntity
  8
AM_5
100
AcDbTrace
 10
1369.399351651441
 20
484.9463154687829
 30
0.0
 11
1371.066018318108
 21
484.9463154687829
 31
0.0
 12
1370.232684984774
 22
489.9463154687829
 32
0.0
 13
1370.232684984774
 23
489.9463154687829
 33
0.0
  0
MTEXT
  5
19E
330
197
100
AcDbEntity
  8
AM_5
 62
     3
100
AcDbMText
 10
1363.732684984774
 20
466.946315468783
 30
0.0
 40
7.0
 41
0.0
 71
     5
 72
     1
  1
46
 11
0.0000000000000001
 21
1.0
 31
0.0
 73
     1
 44
1.0
  0
POINT
  5
19F
330
197
100
AcDbEntity
  8
Defpoints
 62
     0
100
AcDbPoint
 10
1337.232684984774
 20
443.9463154687827
 30
0.0
  0
POINT
  5
1A0
330
197
100
AcDbEntity
  8
Defpoints
 62
     0
100
AcDbPoint
 10
1318.232684984774
 20
489.9463154687829
 30
0.0
  0
POINT
  5
1A1
330
197
100
AcDbEntity
  8
Defpoints
 62
     0
100
AcDbPoint
 10
1370.232684984774
 20
489.9463154687829
 30
0.0
  0
ENDBLK
  5
1A2
330
197
100
AcDbEntity
  8
0
100
AcDbBlockEnd
  0
BLOCK
  5
205
330
204
100
AcDbEntity
  8
0
100
AcDbBlockBegin
  2
*D10
 70
     1
 10
0.0
 20
0.0
 30
0.0
  3
*D10
  1

  0
LINE
  5
206
330
204
100
AcDbEntity
  8
AM_5
100
AcDbLine
 10
1318.232684984774
 20
352.5463154687829
 30
0.0
 11
1318.232684984774
 21
284.9463154687828
 31
0.0
  0
LINE
  5
207
330
204
100
AcDbEntity
  8
AM_5
100
AcDbLine
 10
1253.232684984774
 20
306.9463154687828
 30
0.0
 11
1253.232684984774
 21
284.9463154687828
 31
0.0
  0
LINE
  5
208
330
204
100
AcDbEntity
  8
AM_5
100
AcDbLine
 10
1313.232684984774
 20
286.9463154687828
 30
0.0
 11
1258.232684984774
 21
286.9463154687828
 31
0.0
  0
SOLID
  5
209
330
204
100
AcDbEntity
  8
AM_5
100
AcDbTrace
 10
1313.232684984774
 20
287.7796488021161
 30
0.0
 11
1313.232684984774
 21
286.1129821354495
 31
0.0
 12
1318.232684984774
 22
286.9463154687828
 32
0.0
 13
1318.232684984774
 23
286.9463154687828
 33
0.0
  0
SOLID
  5
20A
330
204
100
AcDbEntity
  8
AM_5
100
AcDbTrace
 10
1258.232684984774
 20
287.7796488021161
 30
0.0
 11
1258.232684984774
 21
286.1129821354495
 31
0.0
 12
1253.232684984774
 22
286.9463154687828
 32
0.0
 13
1253.232684984774
 23
286.9463154687828
 33
0.0
  0
MTEXT
  5
20B
330
204
100
AcDbEntity
  8
AM_5
 62
     3
100
AcDbMText
 10
1285.732684984774
 20
293.4949960225669
 30
0.0
 40
7.0
 41
0.0
 71
     5
 72
     1
  1
Dornmaß
 73
     1
 44
1.0
  0
POINT
  5
20C
330
204
100
AcDbEntity
  8
Defpoints
 62
     0
100
AcDbPoint
 10
1318.232684984774
 20
352.5463154687829
 30
0.0
  0
POINT
  5
20D
330
204
100
AcDbEntity
  8
Defpoints
 62
     0
100
AcDbPoint
 10
1253.232684984774
 20
306.9463154687828
 30
0.0
  0
POINT
  5
20E
330
204
100
AcDbEntity
  8
Defpoints
 62
     0
100
AcDbPoint
 10
1253.232684984774
 20
286.9463154687828
 30
0.0
  0
ENDBLK
  5
20F
330
204
100
AcDbEntity
  8
0
100
AcDbBlockEnd
  0
BLOCK
  5
22A
330
229
100
AcDbEntity
  8
0
100
AcDbBlockBegin
  2
*D11
 70
     1
 10
0.0
 20
0.0
 30
0.0
  3
*D11
  1

  0
LINE
  5
22B
330
229
100
AcDbEntity
  8
AM_5
100
AcDbLine
 10
1256.232684984774
 20
231.2373719627958
 30
0.0
 11
1270.76404403835
 21
231.2373719627958
 31
0.0
  0
LINE
  5
22C
330
229
100
AcDbEntity
  8
AM_5
100
AcDbLine
 10
1256.232684984774
 20
235.2373719627958
 30
0.0
 11
1270.76404403835
 21
235.2373719627958
 31
0.0
  0
LINE
  5
22D
330
229
100
AcDbEntity
  8
AM_5
100
AcDbLine
 10
1268.76404403835
 20
226.2373719627958
 30
0.0
 11
1268.76404403835
 21
221.2373719627958
 31
0.0
  0
LINE
  5
22E
330
229
100
AcDbEntity
  8
AM_5
100
AcDbLine
 10
1268.76404403835
 20
240.2373719627958
 30
0.0
 11
1268.76404403835
 21
263.834616057284
 31
0.0
  0
LINE
  5
22F
330
229
100
AcDbEntity
  8
AM_5
100
AcDbLine
 10
1268.76404403835
 20
231.2373719627958
 30
0.0
 11
1268.76404403835
 21
235.2373719627958
 31
0.0
  0
SOLID
  5
230
330
229
100
AcDbEntity
  8
AM_5
100
AcDbTrace
 10
1267.930710705017
 20
226.2373719627958
 30
0.0
 11
1269.597377371683
 21
226.2373719627958
 31
0.0
 12
1268.76404403835
 22
231.2373719627958
 32
0.0
 13
1268.76404403835
 23
231.2373719627958
 33
0.0
  0
SOLID
  5
231
330
229
100
AcDbEntity
  8
AM_5
100
AcDbTrace
 10
1267.930710705017
 20
240.2373719627958
 30
0.0
 11
1269.597377371683
 21
240.2373719627958
 31
0.0
 12
1268.76404403835
 22
235.2373719627958
 32
0.0
 13
1268.76404403835
 23
235.2373719627958
 33
0.0
  0
MTEXT
  5
232
330
229
100
AcDbEntity
  8
AM_5
 62
     3
100
AcDbMText
 10
1261.91404403835
 20
254.5359940100401
 30
0.0
 40
7.0
 41
0.0
 71
     5
 72
     1
  1
4(1)
 11
0.0000000000000001
 21
1.0
 31
0.0
 73
     1
 44
1.0
  0
POINT
  5
233
330
229
100
AcDbEntity
  8
Defpoints
 62
     0
100
AcDbPoint
 10
1256.232684984774
 20
231.2373719627958
 30
0.0
  0
POINT
  5
234
330
229
100
AcDbEntity
  8
Defpoints
 62
     0
100
AcDbPoint
 10
1256.232684984774
 20
235.2373719627958
 30
0.0
  0
POINT
  5
235
330
229
100
AcDbEntity
  8
Defpoints
 62
     0
100
AcDbPoint
 10
1268.76404403835
 20
235.2373719627958
 30
0.0
  0
ENDBLK
  5
236
330
229
100
AcDbEntity
  8
0
100
AcDbBlockEnd
  0
BLOCK
  5
179
330
178
100
AcDbEntity
  8
0
100
AcDbBlockBegin
  2
*D12
 70
     1
 10
0.0
 20
0.0
 30
0.0
  3
*D12
  1

  0
LINE
  5
17A
330
178
100
AcDbEntity
  8
AM_5
100
AcDbLine
 10
1247.432684984775
 20
528.9463154687828
 30
0.0
 11
1199.438528576362
 21
528.9463154687828
 31
0.0
  0
LINE
  5
17B
330
178
100
AcDbEntity
  8
AM_5
100
AcDbLine
 10
1253.232684984775
 20
541.9463154687828
 30
0.0
 11
1199.438528576362
 21
541.9463154687828
 31
0.0
  0
LINE
  5
17C
330
178
100
AcDbEntity
  8
AM_5
100
AcDbLine
 10
1201.438528576362
 20
523.9463154687828
 30
0.0
 11
1201.438528576362
 21
518.9463154687827
 31
0.0
  0
LINE
  5
17D
330
178
100
AcDbEntity
  8
AM_5
100
AcDbLine
 10
1201.438528576362
 20
546.9463154687828
 30
0.0
 11
1201.438528576362
 21
551.9463154687827
 31
0.0
  0
LINE
  5
17E
330
178
100
AcDbEntity
  8
AM_5
100
AcDbLine
 10
1201.438528576362
 20
528.9463154687828
 30
0.0
 11
1201.438528576362
 21
541.9463154687828
 31
0.0
  0
SOLID
  5
17F
330
178
100
AcDbEntity
  8
AM_5
100
AcDbTrace
 10
1200.605195243029
 20
523.9463154687828
 30
0.0
 11
1202.271861909695
 21
523.9463154687828
 31
0.0
 12
1201.438528576362
 22
528.9463154687828
 32
0.0
 13
1201.438528576362
 23
528.9463154687828
 33
0.0
  0
SOLID
  5
180
330
178
100
AcDbEntity
  8
AM_5
100
AcDbTrace
 10
1200.605195243029
 20
546.9463154687828
 30
0.0
 11
1202.271861909695
 21
546.9463154687828
 31
0.0
 12
1201.438528576362
 22
541.9463154687828
 32
0.0
 13
1201.438528576362
 23
541.9463154687828
 33
0.0
  0
MTEXT
  5
181
330
178
100
AcDbEntity
  8
AM_5
 62
     3
100
AcDbMText
 10
1194.938528576362
 20
535.4463154687829
 30
0.0
 40
7.0
 41
0.0
 71
     5
 72
     1
  1
13
 11
0.0000000000000001
 21
1.0
 31
0.0
 73
     1
 44
1.0
  0
POINT
  5
182
330
178
100
AcDbEntity
  8
Defpoints
 62
     0
100
AcDbPoint
 10
1247.432684984775
 20
528.9463154687828
 30
0.0
  0
POINT
  5
183
330
178
100
AcDbEntity
  8
Defpoints
 62
     0
100
AcDbPoint
 10
1253.232684984775
 20
541.9463154687828
 30
0.0
  0
POINT
  5
184
330
178
100
AcDbEntity
  8
Defpoints
 62
     0
100
AcDbPoint
 10
1201.438528576362
 20
541.9463154687828
 30
0.0
  0
ENDBLK
  5
185
330
178
100
AcDbEntity
  8
0
100
AcDbBlockEnd
  0
BLOCK
  5
281
330
280
100
AcDbEntity
  8
0
100
AcDbBlockBegin
  2
*D13
 70
     1
 10
0.0
 20
0.0
 30
0.0
  3
*D13
  1

  0
LINE
  5
282
330
280
100
AcDbEntity
  8
AM_5
100
AcDbLine
 10
1253.232684984775
 20
541.9463154687828
 30
0.0
 11
1183.438528576362
 21
541.9463154687828
 31
0.0
  0
LINE
  5
283
330
280
100
AcDbEntity
  8
AM_5
100
AcDbLine
 10
1253.232684984774
 20
306.9463154687828
 30
0.0
 11
1183.438528576362
 21
306.9463154687828
 31
0.0
  0
LINE
  5
284
330
280
100
AcDbEntity
  8
AM_5
100
AcDbLine
 10
1185.438528576362
 20
536.9463154687828
 30
0.0
 11
1185.438528576362
 21
311.9463154687828
 31
0.0
  0
SOLID
  5
285
330
280
100
AcDbEntity
  8
AM_5
100
AcDbTrace
 10
1184.605195243029
 20
536.9463154687828
 30
0.0
 11
1186.271861909695
 21
536.9463154687828
 31
0.0
 12
1185.438528576362
 22
541.9463154687828
 32
0.0
 13
1185.438528576362
 23
541.9463154687828
 33
0.0
  0
SOLID
  5
286
330
280
100
AcDbEntity
  8
AM_5
100
AcDbTrace
 10
1184.605195243028
 20
311.9463154687828
 30
0.0
 11
1186.271861909695
 21
311.9463154687828
 31
0.0
 12
1185.438528576362
 22
306.9463154687828
 32
0.0
 13
1185.438528576362
 23
306.9463154687828
 33
0.0
  0
MTEXT
  5
287
330
280
100
AcDbEntity
  8
AM_5
 62
     3
100
AcDbMText
 10
1178.937839599984
 20
424.446315468783
 30
0.0
 40
7.0
 41
0.0
 71
     5
 72
     1
  1
235
 11
0.0000000000000001
 21
1.0
 31
0.0
 73
     1
 44
1.0
  0
POINT
  5
288
330
280
100
AcDbEntity
  8
Defpoints
 62
     0
100
AcDbPoint
 10
1253.232684984775
 20
541.9463154687828
 30
0.0
  0
POINT
  5
289
330
280
100
AcDbEntity
  8
Defpoints
 62
     0
100
AcDbPoint
 10
1253.232684984774
 20
306.9463154687828
 30
0.0
  0
POINT
  5
28A
330
280
100
AcDbEntity
  8
Defpoints
 62
     0
100
AcDbPoint
 10
1185.438528576362
 20
306.9463154687828
 30
0.0
  0
ENDBLK
  5
28B
330
280
100
AcDbEntity
  8
0
100
AcDbBlockEnd
  0
BLOCK
  5
274
330
273
100
AcDbEntity
  8
0
100
AcDbBlockBegin
  2
*D14
 70
     1
 10
0.0
 20
0.0
 30
0.0
  3
*D14
  1

  0
LINE
  5
275
330
273
100
AcDbEntity
  8
AM_5
100
AcDbLine
 10
1247.432684984775
 20
528.9463154687828
 30
0.0
 11
1199.438528576362
 21
528.9463154687828
 31
0.0
  0
LINE
  5
276
330
273
100
AcDbEntity
  8
AM_5
100
AcDbLine
 10
1247.432684984775
 20
319.9463154687828
 30
0.0
 11
1199.438528576362
 21
319.9463154687828
 31
0.0
  0
LINE
  5
277
330
273
100
AcDbEntity
  8
AM_5
100
AcDbLine
 10
1201.438528576362
 20
523.9463154687828
 30
0.0
 11
1201.438528576362
 21
324.9463154687828
 31
0.0
  0
SOLID
  5
278
330
273
100
AcDbEntity
  8
AM_5
100
AcDbTrace
 10
1200.605195243029
 20
523.9463154687828
 30
0.0
 11
1202.271861909695
 21
523.9463154687828
 31
0.0
 12
1201.438528576362
 22
528.9463154687828
 32
0.0
 13
1201.438528576362
 23
528.9463154687828
 33
0.0
  0
SOLID
  5
279
330
273
100
AcDbEntity
  8
AM_5
100
AcDbTrace
 10
1200.605195243028
 20
324.9463154687828
 30
0.0
 11
1202.271861909695
 21
324.9463154687828
 31
0.0
 12
1201.438528576362
 22
319.9463154687828
 32
0.0
 13
1201.438528576362
 23
319.9463154687828
 33
0.0
  0
MTEXT
  5
27A
330
273
100
AcDbEntity
  8
AM_5
 62
     3
100
AcDbMText
 10
1194.937839599984
 20
424.446315468783
 30
0.0
 40
7.0
 41
0.0
 71
     5
 72
     1
  1
209
 11
0.0000000000000001
 21
1.0
 31
0.0
 73
     1
 44
1.0
  0
POINT
  5
27B
330
273
100
AcDbEntity
  8
Defpoints
 62
     0
100
AcDbPoint
 10
1247.432684984775
 20
528.9463154687828
 30
0.0
  0
POINT
  5
27C
330
273
100
AcDbEntity
  8
Defpoints
 62
     0
100
AcDbPoint
 10
1247.432684984775
 20
319.9463154687828
 30
0.0
  0
POINT
  5
27D
330
273
100
AcDbEntity
  8
Defpoints
 62
     0
100
AcDbPoint
 10
1201.438528576362
 20
319.9463154687828
 30
0.0
  0
ENDBLK
  5
27E
330
273
100
AcDbEntity
  8
0
100
AcDbBlockEnd
  0
BLOCK
  5
16B
330
16A
100
AcDbEntity
  8
0
100
AcDbBlockBegin
  2
*D15
 70
     1
 10
0.0
 20
0.0
 30
0.0
  3
*D15
  1

  0
LINE
  5
16C
330
16A
100
AcDbEntity
  8
AM_5
100
AcDbLine
 10
1249.732684984775
 20
541.9463154687828
 30
0.0
 11
1215.232684984775
 21
541.9463154687828
 31
0.0
  0
LINE
  5
16D
330
16A
100
AcDbEntity
  8
AM_5
100
AcDbLine
 10
1237.732684984774
 20
488.9463154687829
 30
0.0
 11
1215.232684984774
 21
488.9463154687829
 31
0.0
  0
LINE
  5
16E
330
16A
100
AcDbEntity
  8
AM_5
100
AcDbLine
 10
1217.232684984774
 20
536.9463154687828
 30
0.0
 11
1217.232684984774
 21
532.4463154687828
 31
0.0
  0
SOLID
  5
16F
330
16A
100
AcDbEntity
  8
AM_5
100
AcDbTrace
 10
1216.399351651441
 20
536.9463154687828
 30
0.0
 11
1218.066018318108
 21
536.9463154687828
 31
0.0
 12
1217.232684984774
 22
541.9463154687828
 32
0.0
 13
1217.232684984774
 23
541.9463154687828
 33
0.0
  0
SOLID
  5
170
330
16A
100
AcDbEntity
  8
AM_5
100
AcDbTrace
 10
1216.399351651441
 20
493.9463154687829
 30
0.0
 11
1218.066018318108
 21
493.9463154687829
 31
0.0
 12
1217.232684984774
 22
488.9463154687829
 32
0.0
 13
1217.232684984774
 23
488.9463154687829
 33
0.0
  0
MTEXT
  5
171
330
16A
100
AcDbEntity
  8
AM_5
 62
     3
100
AcDbMText
 10
1210.732684984775
 20
515.446315468783
 30
0.0
 40
7.0
 41
0.0
 71
     5
 72
     1
  1
53
 11
0.0000000000000001
 21
1.0
 31
0.0
 73
     1
 44
1.0
  0
POINT
  5
172
330
16A
100
AcDbEntity
  8
Defpoints
 62
     0
100
AcDbPoint
 10
1253.232684984775
 20
541.9463154687828
 30
0.0
  0
POINT
  5
173
330
16A
100
AcDbEntity
  8
Defpoints
 62
     0
100
AcDbPoint
 10
1241.232684984775
 20
488.9463154687829
 30
0.0
  0
POINT
  5
174
330
16A
100
AcDbEntity
  8
Defpoints
 62
     0
100
AcDbPoint
 10
1217.232684984774
 20
488.9463154687829
 30
0.0
  0
LINE
  5
175
330
16A
100
AcDbEntity
  8
AM_5
100
AcDbLine
 10
1217.232684984774
 20
525.4463154687828
 30
0.0
 11
1217.232684984774
 21
493.9463154687829
 31
0.0
  0
ENDBLK
  5
176
330
16A
100
AcDbEntity
  8
0
100
AcDbBlockEnd
  0
BLOCK
  5
E8
330
E7
100
AcDbEntity
  8
0
100
AcDbBlockBegin
  2
*D16
 70
     1
 10
0.0
 20
0.0
 30
0.0
  3
*D16
  1

  0
LINE
  5
E9
330
E7
100
AcDbEntity
  8
AM_5
100
AcDbLine
 10
1253.232684984774
 20
488.9463154687827
 30
0.0
 11
1253.232684984774
 21
514.8275872264568
 31
0.0
  0
LINE
  5
EA
330
E7
100
AcDbEntity
  8
AM_5
100
AcDbLine
 10
1241.232684984775
 20
488.9463154687829
 30
0.0
 11
1241.232684984775
 21
514.8275872264568
 31
0.0
  0
LINE
  5
EB
330
E7
100
AcDbEntity
  8
AM_5
100
AcDbLine
 10
1258.232684984774
 20
512.8275872264569
 30
0.0
 11
1263.232684984774
 21
512.8275872264569
 31
0.0
  0
LINE
  5
EC
330
E7
100
AcDbEntity
  8
AM_5
100
AcDbLine
 10
1236.232684984774
 20
512.8275872264569
 30
0.0
 11
1231.232684984775
 21
512.8275872264569
 31
0.0
  0
LINE
  5
ED
330
E7
100
AcDbEntity
  8
AM_5
100
AcDbLine
 10
1253.232684984774
 20
512.8275872264569
 30
0.0
 11
1241.232684984775
 21
512.8275872264569
 31
0.0
  0
SOLID
  5
EE
330
E7
100
AcDbEntity
  8
AM_5
100
AcDbTrace
 10
1258.232684984774
 20
513.6609205597903
 30
0.0
 11
1258.232684984774
 21
511.9942538931235
 31
0.0
 12
1253.232684984774
 22
512.8275872264569
 32
0.0
 13
1253.232684984774
 23
512.8275872264569
 33
0.0
  0
SOLID
  5
EF
330
E7
100
AcDbEntity
  8
AM_5
100
AcDbTrace
 10
1236.232684984774
 20
513.6609205597903
 30
0.0
 11
1236.232684984774
 21
511.9942538931235
 31
0.0
 12
1241.232684984775
 22
512.8275872264569
 32
0.0
 13
1241.232684984775
 23
512.8275872264569
 33
0.0
  0
MTEXT
  5
F0
330
E7
100
AcDbEntity
  8
AM_5
 62
     3
100
AcDbMText
 10
1247.232684984775
 20
519.3282762028348
 30
0.0
 40
7.0
 41
0.0
 71
     5
 72
     1
  1
12
 73
     1
 44
1.0
  0
POINT
  5
F1
330
E7
100
AcDbEntity
  8
Defpoints
 62
     0
100
AcDbPoint
 10
1253.232684984774
 20
488.9463154687827
 30
0.0
  0
POINT
  5
F2
330
E7
100
AcDbEntity
  8
Defpoints
 62
     0
100
AcDbPoint
 10
1241.232684984775
 20
488.9463154687829
 30
0.0
  0
POINT
  5
F3
330
E7
100
AcDbEntity
  8
Defpoints
 62
     0
100
AcDbPoint
 10
1241.232684984775
 20
512.8275872264569
 30
0.0
  0
ENDBLK
  5
F4
330
E7
100
AcDbEntity
  8
0
100
AcDbBlockEnd
  0
BLOCK
  5
15C
330
15B
100
AcDbEntity
  8
0
100
AcDbBlockBegin
  2
*D17
 70
     1
 10
0.0
 20
0.0
 30
0.0
  3
*D17
  1

  0
LINE
  5
15D
330
15B
100
AcDbEntity
  8
AM_5
100
AcDbLine
 10
1231.232684984775
 20
406.9463154687826
 30
0.0
 11
1215.232684984774
 21
406.9463154687826
 31
0.0
  0
LINE
  5
15E
330
15B
100
AcDbEntity
  8
AM_5
100
AcDbLine
 10
1231.232684984775
 20
371.9463154687827
 30
0.0
 11
1215.232684984774
 21
371.9463154687827
 31
0.0
  0
LINE
  5
15F
330
15B
100
AcDbEntity
  8
AM_5
100
AcDbLine
 10
1217.232684984774
 20
401.9463154687827
 30
0.0
 11
1217.232684984774
 21
376.9463154687827
 31
0.0
  0
SOLID
  5
160
330
15B
100
AcDbEntity
  8
AM_5
100
AcDbTrace
 10
1216.399351651441
 20
401.9463154687827
 30
0.0
 11
1218.066018318108
 21
401.9463154687827
 31
0.0
 12
1217.232684984774
 22
406.9463154687826
 32
0.0
 13
1217.232684984774
 23
406.9463154687826
 33
0.0
  0
SOLID
  5
161
330
15B
100
AcDbEntity
  8
AM_5
100
AcDbTrace
 10
1216.399351651441
 20
376.9463154687827
 30
0.0
 11
1218.066018318108
 21
376.9463154687827
 31
0.0
 12
1217.232684984774
 22
371.9463154687827
 32
0.0
 13
1217.232684984774
 23
371.9463154687827
 33
0.0
  0
MTEXT
  5
162
330
15B
100
AcDbEntity
  8
AM_5
 62
     3
100
AcDbMText
 10
1210.732684984775
 20
389.4463154687829
 30
0.0
 40
7.0
 41
0.0
 71
     5
 72
     1
  1
35
 11
0.0000000000000001
 21
1.0
 31
0.0
 73
     1
 44
1.0
  0
POINT
  5
163
330
15B
100
AcDbEntity
  8
Defpoints
 62
     0
100
AcDbPoint
 10
1231.232684984775
 20
406.9463154687826
 30
0.0
  0
POINT
  5
164
330
15B
100
AcDbEntity
  8
Defpoints
 62
     0
100
AcDbPoint
 10
1231.232684984775
 20
371.9463154687827
 30
0.0
  0
POINT
  5
165
330
15B
100
AcDbEntity
  8
Defpoints
 62
     0
100
AcDbPoint
 10
1217.232684984774
 20
371.9463154687827
 30
0.0
  0
ENDBLK
  5
166
330
15B
100
AcDbEntity
  8
0
100
AcDbBlockEnd
  0
BLOCK
  5
14F
330
14E
100
AcDbEntity
  8
0
100
AcDbBlockBegin
  2
*D18
 70
     1
 10
0.0
 20
0.0
 30
0.0
  3
*D18
  1

  0
LINE
  5
150
330
14E
100
AcDbEntity
  8
AM_5
100
AcDbLine
 10
1241.232684984775
 20
456.9463154687826
 30
0.0
 11
1215.232684984774
 21
456.9463154687826
 31
0.0
  0
LINE
  5
151
330
14E
100
AcDbEntity
  8
AM_5
100
AcDbLine
 10
1231.232684984775
 20
406.9463154687826
 30
0.0
 11
1215.232684984774
 21
406.9463154687826
 31
0.0
  0
LINE
  5
152
330
14E
100
AcDbEntity
  8
AM_5
100
AcDbLine
 10
1217.232684984774
 20
451.9463154687827
 30
0.0
 11
1217.232684984774
 21
411.9463154687826
 31
0.0
  0
SOLID
  5
153
330
14E
100
AcDbEntity
  8
AM_5
100
AcDbTrace
 10
1216.399351651441
 20
451.9463154687827
 30
0.0
 11
1218.066018318108
 21
451.9463154687827
 31
0.0
 12
1217.232684984774
 22
456.9463154687826
 32
0.0
 13
1217.232684984774
 23
456.9463154687826
 33
0.0
  0
SOLID
  5
154
330
14E
100
AcDbEntity
  8
AM_5
100
AcDbTrace
 10
1216.399351651441
 20
411.9463154687826
 30
0.0
 11
1218.066018318108
 21
411.9463154687826
 31
0.0
 12
1217.232684984774
 22
406.9463154687826
 32
0.0
 13
1217.232684984774
 23
406.9463154687826
 33
0.0
  0
MTEXT
  5
155
330
14E
100
AcDbEntity
  8
AM_5
 62
     3
100
AcDbMText
 10
1210.732684984775
 20
431.9463154687829
 30
0.0
 40
7.0
 41
0.0
 71
     5
 72
     1
  1
50
 11
0.0000000000000001
 21
1.0
 31
0.0
 73
     1
 44
1.0
  0
POINT
  5
156
330
14E
100
AcDbEntity
  8
Defpoints
 62
     0
100
AcDbPoint
 10
1241.232684984775
 20
456.9463154687826
 30
0.0
  0
POINT
  5
157
330
14E
100
AcDbEntity
  8
Defpoints
 62
     0
100
AcDbPoint
 10
1231.232684984775
 20
406.9463154687826
 30
0.0
  0
POINT
  5
158
330
14E
100
AcDbEntity
  8
Defpoints
 62
     0
100
AcDbPoint
 10
1217.232684984774
 20
406.9463154687826
 30
0.0
  0
ENDBLK
  5
159
330
14E
100
AcDbEntity
  8
0
100
AcDbBlockEnd
  0
BLOCK
  5
142
330
141
100
AcDbEntity
  8
0
100
AcDbBlockBegin
  2
*D19
 70
     1
 10
0.0
 20
0.0
 30
0.0
  3
*D19
  1

  0
LINE
  5
143
330
141
100
AcDbEntity
  8
AM_5
100
AcDbLine
 10
1241.232684984775
 20
456.9463154687826
 30
0.0
 11
1215.232684984774
 21
456.9463154687826
 31
0.0
  0
LINE
  5
144
330
141
100
AcDbEntity
  8
AM_5
100
AcDbLine
 10
1241.232684984775
 20
488.9463154687829
 30
0.0
 11
1215.232684984774
 21
488.9463154687829
 31
0.0
  0
LINE
  5
145
330
141
100
AcDbEntity
  8
AM_5
100
AcDbLine
 10
1217.232684984774
 20
461.9463154687827
 30
0.0
 11
1217.232684984774
 21
483.9463154687829
 31
0.0
  0
SOLID
  5
146
330
141
100
AcDbEntity
  8
AM_5
100
AcDbTrace
 10
1216.399351651441
 20
461.9463154687827
 30
0.0
 11
1218.066018318108
 21
461.9463154687827
 31
0.0
 12
1217.232684984774
 22
456.9463154687826
 32
0.0
 13
1217.232684984774
 23
456.9463154687826
 33
0.0
  0
SOLID
  5
147
330
141
100
AcDbEntity
  8
AM_5
100
AcDbTrace
 10
1216.399351651441
 20
483.9463154687829
 30
0.0
 11
1218.066018318108
 21
483.9463154687829
 31
0.0
 12
1217.232684984774
 22
488.9463154687829
 32
0.0
 13
1217.232684984774
 23
488.9463154687829
 33
0.0
  0
MTEXT
  5
148
330
141
100
AcDbEntity
  8
AM_5
 62
     3
100
AcDbMText
 10
1210.731996008396
 20
472.946315468783
 30
0.0
 40
7.0
 41
0.0
 71
     5
 72
     1
  1
32
 11
0.0000000000000001
 21
1.0
 31
0.0
 73
     1
 44
1.0
  0
POINT
  5
149
330
141
100
AcDbEntity
  8
Defpoints
 62
     0
100
AcDbPoint
 10
1241.232684984775
 20
456.9463154687826
 30
0.0
  0
POINT
  5
14A
330
141
100
AcDbEntity
  8
Defpoints
 62
     0
100
AcDbPoint
 10
1241.232684984775
 20
488.9463154687829
 30
0.0
  0
POINT
  5
14B
330
141
100
AcDbEntity
  8
Defpoints
 62
     0
100
AcDbPoint
 10
1217.232684984774
 20
488.9463154687829
 30
0.0
  0
ENDBLK
  5
14C
330
141
100
AcDbEntity
  8
0
100
AcDbBlockEnd
  0
BLOCK
  5
111
330
110
100
AcDbEntity
  8
0
100
AcDbBlockBegin
  2
*D20
 70
     1
 10
0.0
 20
0.0
 30
0.0
  3
*D20
  1

  0
LINE
  5
112
330
110
100
AcDbEntity
  8
AM_5
100
AcDbLine
 10
1253.232684984775
 20
406.9463154687827
 30
0.0
 11
1253.232684984775
 21
437.8081212527686
 31
0.0
  0
LINE
  5
113
330
110
100
AcDbEntity
  8
AM_5
100
AcDbLine
 10
1231.232684984775
 20
406.9463154687826
 30
0.0
 11
1231.232684984775
 21
437.8081212527686
 31
0.0
  0
LINE
  5
114
330
110
100
AcDbEntity
  8
AM_5
100
AcDbLine
 10
1248.232684984775
 20
435.8081212527686
 30
0.0
 11
1236.232684984774
 21
435.8081212527686
 31
0.0
  0
SOLID
  5
115
330
110
100
AcDbEntity
  8
AM_5
100
AcDbTrace
 10
1248.232684984775
 20
436.6414545861019
 30
0.0
 11
1248.232684984775
 21
434.9747879194352
 31
0.0
 12
1253.232684984775
 22
435.8081212527686
 32
0.0
 13
1253.232684984775
 23
435.8081212527686
 33
0.0
  0
SOLID
  5
116
330
110
100
AcDbEntity
  8
AM_5
100
AcDbTrace
 10
1236.232684984774
 20
436.6414545861019
 30
0.0
 11
1236.232684984774
 21
434.9747879194352
 31
0.0
 12
1231.232684984775
 22
435.8081212527686
 32
0.0
 13
1231.232684984775
 23
435.8081212527686
 33
0.0
  0
MTEXT
  5
117
330
110
100
AcDbEntity
  8
AM_5
 62
     3
100
AcDbMText
 10
1242.232684984774
 20
442.3088102291465
 30
0.0
 40
7.0
 41
0.0
 71
     5
 72
     1
  1
22
 73
     1
 44
1.0
  0
POINT
  5
118
330
110
100
AcDbEntity
  8
Defpoints
 62
     0
100
AcDbPoint
 10
1253.232684984775
 20
406.9463154687827
 30
0.0
  0
POINT
  5
119
330
110
100
AcDbEntity
  8
Defpoints
 62
     0
100
AcDbPoint
 10
1231.232684984775
 20
406.9463154687826
 30
0.0
  0
POINT
  5
11A
330
110
100
AcDbEntity
  8
Defpoints
 62
     0
100
AcDbPoint
 10
1231.232684984775
 20
435.8081212527686
 30
0.0
  0
ENDBLK
  5
11B
330
110
100
AcDbEntity
  8
0
100
AcDbBlockEnd
  0
BLOCK
  5
11F
330
11E
100
AcDbEntity
  8
0
100
AcDbBlockBegin
  2
*D21
 70
     1
 10
0.0
 20
0.0
 30
0.0
  3
*D21
  1

  0
LINE
  5
120
330
11E
100
AcDbEntity
  8
AM_5
100
AcDbLine
 10
1253.232684984775
 20
406.9463154687827
 30
0.0
 11
1253.232684984775
 21
421.2711009271897
 31
0.0
  0
LINE
  5
121
330
11E
100
AcDbEntity
  8
AM_5
100
AcDbLine
 10
1242.232684984774
 20
406.9463154687826
 30
0.0
 11
1242.232684984774
 21
421.2711009271897
 31
0.0
  0
LINE
  5
122
330
11E
100
AcDbEntity
  8
AM_5
100
AcDbLine
 10
1258.232684984775
 20
419.2711009271897
 30
0.0
 11
1263.232684984775
 21
419.2711009271897
 31
0.0
  0
LINE
  5
123
330
11E
100
AcDbEntity
  8
AM_5
100
AcDbLine
 10
1237.232684984774
 20
419.2711009271897
 30
0.0
 11
1232.232684984774
 21
419.2711009271897
 31
0.0
  0
LINE
  5
124
330
11E
100
AcDbEntity
  8
AM_5
100
AcDbLine
 10
1253.232684984775
 20
419.2711009271897
 30
0.0
 11
1242.232684984774
 21
419.2711009271897
 31
0.0
  0
SOLID
  5
125
330
11E
100
AcDbEntity
  8
AM_5
100
AcDbTrace
 10
1258.232684984775
 20
420.104434260523
 30
0.0
 11
1258.232684984775
 21
418.4377675938564
 31
0.0
 12
1253.232684984775
 22
419.2711009271897
 32
0.0
 13
1253.232684984775
 23
419.2711009271897
 33
0.0
  0
SOLID
  5
126
330
11E
100
AcDbEntity
  8
AM_5
100
AcDbTrace
 10
1237.232684984774
 20
420.104434260523
 30
0.0
 11
1237.232684984774
 21
418.4377675938564
 31
0.0
 12
1242.232684984774
 22
419.2711009271897
 32
0.0
 13
1242.232684984774
 23
419.2711009271897
 33
0.0
  0
MTEXT
  5
127
330
11E
100
AcDbEntity
  8
AM_5
 62
     3
100
AcDbMText
 10
1247.732684984774
 20
425.7711009271897
 30
0.0
 40
7.0
 41
0.0
 71
     5
 72
     1
  1
11
 73
     1
 44
1.0
  0
POINT
  5
128
330
11E
100
AcDbEntity
  8
Defpoints
 62
     0
100
AcDbPoint
 10
1253.232684984775
 20
406.9463154687827
 30
0.0
  0
POINT
  5
129
330
11E
100
AcDbEntity
  8
Defpoints
 62
     0
100
AcDbPoint
 10
1242.232684984774
 20
406.9463154687826
 30
0.0
  0
POINT
  5
12A
330
11E
100
AcDbEntity
  8
Defpoints
 62
     0
100
AcDbPoint
 10
1242.232684984774
 20
419.2711009271897
 30
0.0
  0
ENDBLK
  5
12B
330
11E
100
AcDbEntity
  8
0
100
AcDbBlockEnd
  0
BLOCK
  5
133
330
132
100
AcDbEntity
  8
0
100
AcDbBlockBegin
  2
*D22
 70
     1
 10
0.0
 20
0.0
 30
0.0
  3
*D22
  1

  0
LINE
  5
134
330
132
100
AcDbEntity
  8
AM_5
100
AcDbLine
 10
1322.732684984774
 20
448.4463154687828
 30
0.0
 11
1322.732684984774
 21
470.4463154687828
 31
0.0
  0
LINE
  5
135
330
132
100
AcDbEntity
  8
AM_5
100
AcDbLine
 10
1313.732684984774
 20
448.4463154687828
 30
0.0
 11
1313.732684984774
 21
470.4463154687828
 31
0.0
  0
LINE
  5
136
330
132
100
AcDbEntity
  8
AM_5
100
AcDbLine
 10
1327.732684984775
 20
468.4463154687827
 30
0.0
 11
1332.732684984774
 21
468.4463154687827
 31
0.0
  0
LINE
  5
137
330
132
100
AcDbEntity
  8
AM_5
100
AcDbLine
 10
1308.732684984774
 20
468.4463154687827
 30
0.0
 11
1285.714863965095
 21
468.4463154687827
 31
0.0
  0
LINE
  5
138
330
132
100
AcDbEntity
  8
AM_5
100
AcDbLine
 10
1322.732684984774
 20
468.4463154687827
 30
0.0
 11
1313.732684984774
 21
468.4463154687827
 31
0.0
  0
SOLID
  5
139
330
132
100
AcDbEntity
  8
AM_5
100
AcDbTrace
 10
1327.732684984775
 20
469.2796488021161
 30
0.0
 11
1327.732684984775
 21
467.6129821354495
 31
0.0
 12
1322.732684984774
 22
468.4463154687827
 32
0.0
 13
1322.732684984774
 23
468.4463154687827
 33
0.0
  0
SOLID
  5
13A
330
132
100
AcDbEntity
  8
AM_5
100
AcDbTrace
 10
1308.732684984774
 20
469.2796488021161
 30
0.0
 11
1308.732684984774
 21
467.6129821354495
 31
0.0
 12
1313.732684984774
 22
468.4463154687827
 32
0.0
 13
1313.732684984774
 23
468.4463154687827
 33
0.0
  0
MTEXT
  5
13B
330
132
100
AcDbEntity
  8
AM_5
 62
     3
100
AcDbMText
 10
1294.723774474935
 20
474.9463154687828
 30
0.0
 40
7.0
 41
0.0
 71
     5
 72
     1
  1
{\Famgdt;o}9
 73
     1
 44
1.0
  0
POINT
  5
13C
330
132
100
AcDbEntity
  8
Defpoints
 62
     0
100
AcDbPoint
 10
1322.732684984774
 20
448.4463154687828
 30
0.0
  0
POINT
  5
13D
330
132
100
AcDbEntity
  8
Defpoints
 62
     0
100
AcDbPoint
 10
1313.732684984774
 20
448.4463154687828
 30
0.0
  0
POINT
  5
13E
330
132
100
AcDbEntity
  8
Defpoints
 62
     0
100
AcDbPoint
 10
1313.732684984774
 20
468.4463154687827
 30
0.0
  0
ENDBLK
  5
13F
330
132
100
AcDbEntity
  8
0
100
AcDbBlockEnd
  0
BLOCK
  5
188
330
187
100
AcDbEntity
  8
0
100
AcDbBlockBegin
  2
*D23
 70
     1
 10
0.0
 20
0.0
 30
0.0
  3
*D23
  1

  0
LINE
  5
189
330
187
100
AcDbEntity
  8
AM_5
100
AcDbLine
 10
1256.232684984775
 20
541.9463154687828
 30
0.0
 11
1256.232684984775
 21
563.9463154687827
 31
0.0
  0
LINE
  5
18A
330
187
100
AcDbEntity
  8
AM_5
100
AcDbLine
 10
1253.232684984775
 20
541.9463154687828
 30
0.0
 11
1253.232684984775
 21
563.9463154687827
 31
0.0
  0
LINE
  5
18B
330
187
100
AcDbEntity
  8
AM_5
100
AcDbLine
 10
1261.232684984775
 20
561.9463154687828
 30
0.0
 11
1266.232684984775
 21
561.9463154687828
 31
0.0
  0
LINE
  5
18C
330
187
100
AcDbEntity
  8
AM_5
100
AcDbLine
 10
1248.232684984775
 20
561.9463154687828
 30
0.0
 11
1234.142735491114
 21
561.9463154687828
 31
0.0
  0
LINE
  5
18D
330
187
100
AcDbEntity
  8
AM_5
100
AcDbLine
 10
1256.232684984775
 20
561.9463154687828
 30
0.0
 11
1253.232684984775
 21
561.9463154687828
 31
0.0
  0
SOLID
  5
18E
330
187
100
AcDbEntity
  8
AM_5
100
AcDbTrace
 10
1261.232684984775
 20
562.7796488021162
 30
0.0
 11
1261.232684984775
 21
561.1129821354494
 31
0.0
 12
1256.232684984775
 22
561.9463154687828
 32
0.0
 13
1256.232684984775
 23
561.9463154687828
 33
0.0
  0
SOLID
  5
18F
330
187
100
AcDbEntity
  8
AM_5
100
AcDbTrace
 10
1248.232684984775
 20
562.7796488021162
 30
0.0
 11
1248.232684984775
 21
561.1129821354494
 31
0.0
 12
1253.232684984775
 22
561.9463154687828
 32
0.0
 13
1253.232684984775
 23
561.9463154687828
 33
0.0
  0
MTEXT
  5
190
330
187
100
AcDbEntity
  8
AM_5
 62
     3
100
AcDbMText
 10
1238.687710237944
 20
568.4463154687827
 30
0.0
 40
7.0
 41
0.0
 71
     5
 72
     1
  1
3
 73
     1
 44
1.0
  0
POINT
  5
191
330
187
100
AcDbEntity
  8
Defpoints
 62
     0
100
AcDbPoint
 10
1256.232684984775
 20
541.9463154687828
 30
0.0
  0
POINT
  5
192
330
187
100
AcDbEntity
  8
Defpoints
 62
     0
100
AcDbPoint
 10
1253.232684984775
 20
541.9463154687828
 30
0.0
  0
POINT
  5
193
330
187
100
AcDbEntity
  8
Defpoints
 62
     0
100
AcDbPoint
 10
1253.232684984775
 20
561.9463154687828
 30
0.0
  0
ENDBLK
  5
194
330
187
100
AcDbEntity
  8
0
100
AcDbBlockEnd
  0
BLOCK
  5
1E2
330
1E1
100
AcDbEntity
  8
0
100
AcDbBlockBegin
  2
*D24
 70
     1
 10
0.0
 20
0.0
 30
0.0
  3
*D24
  1

  0
LINE
  5
1E3
330
1E1
100
AcDbEntity
  8
AM_5
100
AcDbLine
 10
1491.821833014143
 20
306.946315468783
 30
0.0
 11
1491.821833014143
 21
284.946315468783
 31
0.0
  0
LINE
  5
1E4
330
1E1
100
AcDbEntity
  8
AM_5
100
AcDbLine
 10
1467.821833014143
 20
306.946315468783
 30
0.0
 11
1467.821833014143
 21
284.946315468783
 31
0.0
  0
LINE
  5
1E5
330
1E1
100
AcDbEntity
  8
AM_5
100
AcDbLine
 10
1486.821833014143
 20
286.946315468783
 30
0.0
 11
1472.821833014143
 21
286.946315468783
 31
0.0
  0
SOLID
  5
1E6
330
1E1
100
AcDbEntity
  8
AM_5
100
AcDbTrace
 10
1486.821833014143
 20
287.7796488021163
 30
0.0
 11
1486.821833014143
 21
286.1129821354497
 31
0.0
 12
1491.821833014143
 22
286.946315468783
 32
0.0
 13
1491.821833014143
 23
286.946315468783
 33
0.0
  0
SOLID
  5
1E7
330
1E1
100
AcDbEntity
  8
AM_5
100
AcDbTrace
 10
1472.821833014143
 20
287.7796488021163
 30
0.0
 11
1472.821833014143
 21
286.1129821354497
 31
0.0
 12
1467.821833014143
 22
286.946315468783
 32
0.0
 13
1467.821833014143
 23
286.946315468783
 33
0.0
  0
MTEXT
  5
1E8
330
1E1
100
AcDbEntity
  8
AM_5
 62
     3
100
AcDbMText
 10
1479.821833014143
 20
293.4470044451609
 30
0.0
 40
7.0
 41
0.0
 71
     5
 72
     1
  1
24
 73
     1
 44
1.0
  0
POINT
  5
1E9
330
1E1
100
AcDbEntity
  8
Defpoints
 62
     0
100
AcDbPoint
 10
1491.821833014143
 20
306.946315468783
 30
0.0
  0
POINT
  5
1EA
330
1E1
100
AcDbEntity
  8
Defpoints
 62
     0
100
AcDbPoint
 10
1467.821833014143
 20
306.946315468783
 30
0.0
  0
POINT
  5
1EB
330
1E1
100
AcDbEntity
  8
Defpoints
 62
     0
100
AcDbPoint
 10
1467.821833014143
 20
286.946315468783
 30
0.0
  0
ENDBLK
  5
1EC
330
1E1
100
AcDbEntity
  8
0
100
AcDbBlockEnd
  0
BLOCK
  5
239
330
238
100
AcDbEntity
  8
0
100
AcDbBlockBegin
  2
*D25
 70
     1
 10
0.0
 20
0.0
 30
0.0
  3
*D25
  1

  0
LINE
  5
23A
330
238
100
AcDbEntity
  8
AM_5
100
AcDbLine
 10
1350.232684984775
 20
217.2373719627958
 30
0.0
 11
1372.232684984775
 21
217.2373719627958
 31
0.0
  0
LINE
  5
23B
330
238
100
AcDbEntity
  8
AM_5
100
AcDbLine
 10
1350.232684984775
 20
231.2373719627958
 30
0.0
 11
1372.232684984775
 21
231.2373719627958
 31
0.0
  0
LINE
  5
23C
330
238
100
AcDbEntity
  8
AM_5
100
AcDbLine
 10
1370.232684984774
 20
212.2373719627958
 30
0.0
 11
1370.232684984774
 21
207.2373719627958
 31
0.0
  0
LINE
  5
23D
330
238
100
AcDbEntity
  8
AM_5
100
AcDbLine
 10
1370.232684984774
 20
236.2373719627958
 30
0.0
 11
1370.232684984774
 21
241.2373719627958
 31
0.0
  0
LINE
  5
23E
330
238
100
AcDbEntity
  8
AM_5
100
AcDbLine
 10
1370.232684984774
 20
217.2373719627958
 30
0.0
 11
1370.232684984774
 21
231.2373719627958
 31
0.0
  0
SOLID
  5
23F
330
238
100
AcDbEntity
  8
AM_5
100
AcDbTrace
 10
1369.399351651441
 20
212.2373719627958
 30
0.0
 11
1371.066018318108
 21
212.2373719627958
 31
0.0
 12
1370.232684984774
 22
217.2373719627958
 32
0.0
 13
1370.232684984774
 23
217.2373719627958
 33
0.0
  0
SOLID
  5
240
330
238
100
AcDbEntity
  8
AM_5
100
AcDbTrace
 10
1369.399351651441
 20
236.2373719627958
 30
0.0
 11
1371.066018318108
 21
236.2373719627958
 31
0.0
 12
1370.232684984774
 22
231.2373719627958
 32
0.0
 13
1370.232684984774
 23
231.2373719627958
 33
0.0
  0
MTEXT
  5
241
330
238
100
AcDbEntity
  8
AM_5
 62
     3
100
AcDbMText
 10
1363.732684984774
 20
224.237371962796
 30
0.0
 40
7.0
 41
0.0
 71
     5
 72
     1
  1
14
 11
0.0000000000000001
 21
1.0
 31
0.0
 73
     1
 44
1.0
  0
POINT
  5
242
330
238
100
AcDbEntity
  8
Defpoints
 62
     0
100
AcDbPoint
 10
1350.232684984775
 20
217.2373719627958
 30
0.0
  0
POINT
  5
243
330
238
100
AcDbEntity
  8
Defpoints
 62
     0
100
AcDbPoint
 10
1350.232684984775
 20
231.2373719627958
 30
0.0
  0
POINT
  5
244
330
238
100
AcDbEntity
  8
Defpoints
 62
     0
100
AcDbPoint
 10
1370.232684984774
 20
231.2373719627958
 30
0.0
  0
ENDBLK
  5
245
330
238
100
AcDbEntity
  8
0
100
AcDbBlockEnd
  0
BLOCK
  5
A6
330
A5
100
AcDbEntity
  8
0
100
AcDbBlockBegin
  2
*D26
 70
     1
 10
0.0
 20
0.0
 30
0.0
  3
*D26
  1

  0
LINE
  5
A7
330
A5
100
AcDbEntity
  8
AM_5
100
AcDbLine
 10
1483.121833014143
 20
406.946315468783
 30
0.0
 11
1483.121833014143
 21
419.3243626021087
 31
0.0
  0
LINE
  5
A8
330
A5
100
AcDbEntity
  8
AM_5
100
AcDbLine
 10
1474.621833014143
 20
406.946315468783
 30
0.0
 11
1474.621833014143
 21
419.3243626021087
 31
0.0
  0
LINE
  5
A9
330
A5
100
AcDbEntity
  8
AM_5
100
AcDbLine
 10
1488.121833014143
 20
417.3243626021087
 30
0.0
 11
1493.121833014143
 21
417.3243626021087
 31
0.0
  0
LINE
  5
AA
330
A5
100
AcDbEntity
  8
AM_5
100
AcDbLine
 10
1469.621833014143
 20
417.3243626021087
 30
0.0
 11
1448.531883520482
 21
417.3243626021087
 31
0.0
  0
LINE
  5
AB
330
A5
100
AcDbEntity
  8
AM_5
100
AcDbLine
 10
1483.121833014143
 20
417.3243626021087
 30
0.0
 11
1474.621833014143
 21
417.3243626021087
 31
0.0
  0
SOLID
  5
AC
330
A5
100
AcDbEntity
  8
AM_5
100
AcDbTrace
 10
1488.121833014143
 20
418.157695935442
 30
0.0
 11
1488.121833014143
 21
416.4910292687754
 31
0.0
 12
1483.121833014143
 22
417.3243626021087
 32
0.0
 13
1483.121833014143
 23
417.3243626021087
 33
0.0
  0
SOLID
  5
AD
330
A5
100
AcDbEntity
  8
AM_5
100
AcDbTrace
 10
1469.621833014143
 20
418.157695935442
 30
0.0
 11
1469.621833014143
 21
416.4910292687754
 31
0.0
 12
1474.621833014143
 22
417.3243626021087
 32
0.0
 13
1474.621833014143
 23
417.3243626021087
 33
0.0
  0
MTEXT
  5
AE
330
A5
100
AcDbEntity
  8
AM_5
 62
     3
100
AcDbMText
 10
1456.576858267313
 20
423.8243626021087
 30
0.0
 40
7.0
 41
0.0
 71
     5
 72
     1
  1
8.5
 73
     1
 44
1.0
  0
POINT
  5
AF
330
A5
100
AcDbEntity
  8
Defpoints
 62
     0
100
AcDbPoint
 10
1483.121833014143
 20
406.946315468783
 30
0.0
  0
POINT
  5
B0
330
A5
100
AcDbEntity
  8
Defpoints
 62
     0
100
AcDbPoint
 10
1474.621833014143
 20
406.946315468783
 30
0.0
  0
POINT
  5
B1
330
A5
100
AcDbEntity
  8
Defpoints
 62
     0
100
AcDbPoint
 10
1474.621833014143
 20
417.3243626021087
 30
0.0
  0
ENDBLK
  5
B2
330
A5
100
AcDbEntity
  8
0
100
AcDbBlockEnd
  0
BLOCK
  5
94
330
93
100
AcDbEntity
  8
0
100
AcDbBlockBegin
  2
*D27
 70
     1
 10
0.0
 20
0.0
 30
0.0
  3
*D27
  1

  0
LINE
  5
95
330
93
100
AcDbEntity
  8
AM_5
100
AcDbLine
 10
1488.121833014142
 20
485.4463154687827
 30
0.0
 11
1488.121833014142
 21
501.4492277036738
 31
0.0
  0
LINE
  5
96
330
93
100
AcDbEntity
  8
AM_5
100
AcDbLine
 10
1474.121833014142
 20
488.9463154687827
 30
0.0
 11
1474.121833014142
 21
501.4492277036738
 31
0.0
  0
LINE
  5
97
330
93
100
AcDbEntity
  8
AM_5
100
AcDbLine
 10
1493.121833014142
 20
499.4492277036738
 30
0.0
 11
1498.121833014142
 21
499.4492277036738
 31
0.0
  0
LINE
  5
98
330
93
100
AcDbEntity
  8
AM_5
100
AcDbLine
 10
1469.121833014142
 20
499.4492277036738
 30
0.0
 11
1451.121833014142
 21
499.4492277036738
 31
0.0
  0
LINE
  5
99
330
93
100
AcDbEntity
  8
AM_5
100
AcDbLine
 10
1488.121833014142
 20
499.4492277036738
 30
0.0
 11
1474.121833014142
 21
499.4492277036738
 31
0.0
  0
SOLID
  5
9A
330
93
100
AcDbEntity
  8
AM_5
100
AcDbTrace
 10
1493.121833014142
 20
500.2825610370071
 30
0.0
 11
1493.121833014142
 21
498.6158943703405
 31
0.0
 12
1488.121833014142
 22
499.4492277036738
 32
0.0
 13
1488.121833014142
 23
499.4492277036738
 33
0.0
  0
SOLID
  5
9B
330
93
100
AcDbEntity
  8
AM_5
100
AcDbTrace
 10
1469.121833014142
 20
500.2825610370071
 30
0.0
 11
1469.121833014142
 21
498.6158943703405
 31
0.0
 12
1474.121833014142
 22
499.4492277036738
 32
0.0
 13
1474.121833014142
 23
499.4492277036738
 33
0.0
  0
MTEXT
  5
9C
330
93
100
AcDbEntity
  8
AM_5
 62
     3
100
AcDbMText
 10
1457.621833014142
 20
505.9492277036738
 30
0.0
 40
7.0
 41
0.0
 71
     5
 72
     1
  1
14
 73
     1
 44
1.0
  0
POINT
  5
9D
330
93
100
AcDbEntity
  8
Defpoints
 62
     0
100
AcDbPoint
 10
1488.121833014142
 20
485.4463154687827
 30
0.0
  0
POINT
  5
9F
330
93
100
AcDbEntity
  8
Defpoints
 62
     0
100
AcDbPoint
 10
1474.121833014142
 20
488.9463154687827
 30
0.0
  0
POINT
  5
A0
330
93
100
AcDbEntity
  8
Defpoints
 62
     0
100
AcDbPoint
 10
1474.121833014142
 20
499.4492277036738
 30
0.0
  0
ENDBLK
  5
A1
330
93
100
AcDbEntity
  8
0
100
AcDbBlockEnd
  0
BLOCK
  5
C7
330
C6
100
AcDbEntity
  8
0
100
AcDbBlockBegin
  2
*D28
 70
     1
 10
0.0
 20
0.0
 30
0.0
  3
*D28
  1

  0
LINE
  5
C8
330
C6
100
AcDbEntity
  8
AM_5
100
AcDbLine
 10
1474.121833014142
 20
456.946315468783
 30
0.0
 11
1474.121833014142
 21
442.9494889490408
 31
0.0
  0
LINE
  5
C9
330
C6
100
AcDbEntity
  8
AM_5
100
AcDbLine
 10
1467.821833014143
 20
456.946315468783
 30
0.0
 11
1467.821833014143
 21
442.9494889490408
 31
0.0
  0
LINE
  5
CA
330
C6
100
AcDbEntity
  8
AM_5
100
AcDbLine
 10
1479.121833014142
 20
444.9494889490408
 30
0.0
 11
1484.121833014142
 21
444.9494889490408
 31
0.0
  0
LINE
  5
CB
330
C6
100
AcDbEntity
  8
AM_5
100
AcDbLine
 10
1462.821833014143
 20
444.9494889490408
 30
0.0
 11
1424.105691281859
 21
444.9494889490408
 31
0.0
  0
LINE
  5
CC
330
C6
100
AcDbEntity
  8
AM_5
100
AcDbLine
 10
1474.121833014142
 20
444.9494889490408
 30
0.0
 11
1467.821833014143
 21
444.9494889490408
 31
0.0
  0
SOLID
  5
CD
330
C6
100
AcDbEntity
  8
AM_5
100
AcDbTrace
 10
1479.121833014142
 20
445.7828222823741
 30
0.0
 11
1479.121833014142
 21
444.1161556157076
 31
0.0
 12
1474.121833014142
 22
444.9494889490408
 32
0.0
 13
1474.121833014142
 23
444.9494889490408
 33
0.0
  0
SOLID
  5
CE
330
C6
100
AcDbEntity
  8
AM_5
100
AcDbTrace
 10
1462.821833014143
 20
445.7828222823741
 30
0.0
 11
1462.821833014143
 21
444.1161556157076
 31
0.0
 12
1467.821833014143
 22
444.9494889490408
 32
0.0
 13
1467.821833014143
 23
444.9494889490408
 33
0.0
  0
MTEXT
  5
CF
330
C6
100
AcDbEntity
  8
AM_5
 62
     3
100
AcDbMText
 10
1440.963762148001
 20
451.7994889490409
 30
0.0
 40
7.0
 41
0.0
 71
     5
 72
     1
  1
6.2(3.2)
 73
     1
 44
1.0
  0
POINT
  5
D0
330
C6
100
AcDbEntity
  8
Defpoints
 62
     0
100
AcDbPoint
 10
1474.121833014142
 20
456.946315468783
 30
0.0
  0
POINT
  5
D1
330
C6
100
AcDbEntity
  8
Defpoints
 62
     0
100
AcDbPoint
 10
1467.821833014143
 20
456.946315468783
 30
0.0
  0
POINT
  5
D2
330
C6
100
AcDbEntity
  8
Defpoints
 62
     0
100
AcDbPoint
 10
1467.821833014143
 20
444.9494889490408
 30
0.0
  0
ENDBLK
  5
D3
330
C6
100
AcDbEntity
  8
0
100
AcDbBlockEnd
  0
BLOCK
  5
B8
330
B7
100
AcDbEntity
  8
0
100
AcDbBlockBegin
  2
*D29
 70
     1
 10
0.0
 20
0.0
 30
0.0
  3
*D29
  1

  0
LINE
  5
B9
330
B7
100
AcDbEntity
  8
AM_5
100
AcDbLine
 10
1474.621833014143
 20
371.946315468783
 30
0.0
 11
1474.621833014143
 21
362.3241835753131
 31
0.0
  0
LINE
  5
BA
330
B7
100
AcDbEntity
  8
AM_5
100
AcDbLine
 10
1467.821833014143
 20
371.946315468783
 30
0.0
 11
1467.821833014143
 21
362.3241835753131
 31
0.0
  0
LINE
  5
BB
330
B7
100
AcDbEntity
  8
AM_5
100
AcDbLine
 10
1479.621833014143
 20
364.3241835753131
 30
0.0
 11
1484.621833014143
 21
364.3241835753131
 31
0.0
  0
LINE
  5
BC
330
B7
100
AcDbEntity
  8
AM_5
100
AcDbLine
 10
1462.821833014143
 20
364.3241835753131
 30
0.0
 11
1424.105691281859
 21
364.3241835753131
 31
0.0
  0
LINE
  5
BD
330
B7
100
AcDbEntity
  8
AM_5
100
AcDbLine
 10
1474.621833014143
 20
364.3241835753131
 30
0.0
 11
1467.821833014143
 21
364.3241835753131
 31
0.0
  0
SOLID
  5
BE
330
B7
100
AcDbEntity
  8
AM_5
100
AcDbTrace
 10
1479.621833014143
 20
365.1575169086464
 30
0.0
 11
1479.621833014143
 21
363.4908502419798
 31
0.0
 12
1474.621833014143
 22
364.3241835753131
 32
0.0
 13
1474.621833014143
 23
364.3241835753131
 33
0.0
  0
SOLID
  5
BF
330
B7
100
AcDbEntity
  8
AM_5
100
AcDbTrace
 10
1462.821833014143
 20
365.1575169086464
 30
0.0
 11
1462.821833014143
 21
363.4908502419798
 31
0.0
 12
1467.821833014143
 22
364.3241835753131
 32
0.0
 13
1467.821833014143
 23
364.3241835753131
 33
0.0
  0
MTEXT
  5
C0
330
B7
100
AcDbEntity
  8
AM_5
 62
     3
100
AcDbMText
 10
1440.963762148001
 20
371.1741835753131
 30
0.0
 40
7.0
 41
0.0
 71
     5
 72
     1
  1
6.8(3.8)
 73
     1
 44
1.0
  0
POINT
  5
C1
330
B7
100
AcDbEntity
  8
Defpoints
 62
     0
100
AcDbPoint
 10
1474.621833014143
 20
371.946315468783
 30
0.0
  0
POINT
  5
C2
330
B7
100
AcDbEntity
  8
Defpoints
 62
     0
100
AcDbPoint
 10
1467.821833014143
 20
371.946315468783
 30
0.0
  0
POINT
  5
C3
330
B7
100
AcDbEntity
  8
Defpoints
 62
     0
100
AcDbPoint
 10
1467.821833014143
 20
364.3241835753131
 30
0.0
  0
ENDBLK
  5
C4
330
B7
100
AcDbEntity
  8
0
100
AcDbBlockEnd
  0
BLOCK
  5
256
330
255
100
AcDbEntity
  8
0
100
AcDbBlockBegin
  2
*D30
 70
     1
 10
0.0
 20
0.0
 30
0.0
  3
*D30
  1

  0
LINE
  5
257
330
255
100
AcDbEntity
  8
AM_5
100
AcDbLine
 10
1340.232684984774
 20
506.9463154687828
 30
0.0
 11
1404.232684984774
 21
506.9463154687828
 31
0.0
  0
LINE
  5
258
330
255
100
AcDbEntity
  8
AM_5
100
AcDbLine
 10
1340.232684984774
 20
341.9463154687828
 30
0.0
 11
1404.232684984774
 21
341.9463154687828
 31
0.0
  0
LINE
  5
259
330
255
100
AcDbEntity
  8
AM_5
100
AcDbLine
 10
1402.232684984774
 20
501.9463154687827
 30
0.0
 11
1402.232684984774
 21
346.9463154687828
 31
0.0
  0
SOLID
  5
25A
330
255
100
AcDbEntity
  8
AM_5
100
AcDbTrace
 10
1401.399351651441
 20
501.9463154687827
 30
0.0
 11
1403.066018318108
 21
501.9463154687827
 31
0.0
 12
1402.232684984774
 22
506.9463154687828
 32
0.0
 13
1402.232684984774
 23
506.9463154687828
 33
0.0
  0
SOLID
  5
25B
330
255
100
AcDbEntity
  8
AM_5
100
AcDbTrace
 10
1401.399351651441
 20
346.9463154687828
 30
0.0
 11
1403.066018318108
 21
346.9463154687828
 31
0.0
 12
1402.232684984774
 22
341.9463154687828
 32
0.0
 13
1402.232684984774
 23
341.9463154687828
 33
0.0
  0
MTEXT
  5
25C
330
255
100
AcDbEntity
  8
AM_5
 62
     3
100
AcDbMText
 10
1395.732684984774
 20
424.446315468783
 30
0.0
 40
7.0
 41
0.0
 71
     5
 72
     1
  1
165
 11
0.0000000000000001
 21
1.0
 31
0.0
 73
     1
 44
1.0
  0
POINT
  5
25D
330
255
100
AcDbEntity
  8
Defpoints
 62
     0
100
AcDbPoint
 10
1340.232684984774
 20
506.9463154687828
 30
0.0
  0
POINT
  5
25E
330
255
100
AcDbEntity
  8
Defpoints
 62
     0
100
AcDbPoint
 10
1340.232684984774
 20
341.9463154687828
 30
0.0
  0
POINT
  5
25F
330
255
100
AcDbEntity
  8
Defpoints
 62
     0
100
AcDbPoint
 10
1402.232684984774
 20
341.9463154687828
 30
0.0
  0
ENDBLK
  5
260
330
255
100
AcDbEntity
  8
0
100
AcDbBlockEnd
  0
ENDSEC
  0
SECTION
  2
ENTITIES
  0
TEXT
  5
6A
330
2
100
AcDbEntity
  8
AM_5
 62
     3
100
AcDbText
 10
1187.913473864687
 20
171.9935624096639
 30
0.0
 40
7.0
  1
1013PZW
100
AcDbText
  0
LINE
  5
6C
330
2
100
AcDbEntity
  8
AM_0
100
AcDbLine
 10
1467.821833014143
 20
501.6966688107354
 30
0.0
 11
1467.821833014143
 21
529.9463154687828
 31
0.0
  0
LINE
  5
6E
330
2
100
AcDbEntity
  8
AM_0
100
AcDbLine
 10
1491.821833014143
 20
496.8472966674768
 30
0.0
 11
1491.821833014143
 21
318.946315468783
 31
0.0
  0
MTEXT
  5
6F
330
2
100
AcDbEntity
  8
AM_5
 62
     3
100
AcDbMText
 10
1421.586886276732
 20
183.6633076721823
 30
0.0
 40
7.0
 41
0.0
 71
     1
 72
     5
  1
DIN links gezeichnet\PDIN rechts spiegelbildlich
 73
     1
 44
1.0
1001
GENIUS_AMGTXT_16
1040
3.5
1040
0.12
  0
LINE
  5
71
330
2
100
AcDbEntity
  8
AM_0
100
AcDbLine
 10
1231.232684984775
 20
219.9373719627959
 30
0.0
 11
1248.332684984774
 21
219.9373719627959
 31
0.0
  0
ARC
  5
72
330
2
100
AcDbEntity
  8
AM_0
100
AcDbCircle
 10
1318.232684984774
 20
351.9463154779828
 30
0.0
 40
5.149999999484999
100
AcDbArc
 50
180.0
 51
0.0
  0
LINE
  5
73
330
2
100
AcDbEntity
  8
AM_0
100
AcDbLine
 10
1323.382684984259
 20
351.9463154779828
 30
0.0
 11
1323.382684984259
 21
364.9963154766779
 31
0.0
  0
LINE
  5
74
330
2
100
AcDbEntity
  8
AM_0
100
AcDbLine
 10
1313.082684985289
 20
364.9963154766779
 30
0.0
 11
1313.082684985289
 21
351.9463154779828
 31
0.0
  0
LINE
  5
75
330
2
100
AcDbEntity
  8
AM_0
100
AcDbLine
 10
1322.732684984774
 20
448.4463154687828
 30
0.0
 11
1322.732684984774
 21
439.4463154687827
 31
0.0
  0
CIRCLE
  5
76
330
2
100
AcDbEntity
  8
AM_0
100
AcDbCircle
 10
1337.232684982874
 20
443.9463154687827
 30
0.0
 40
3.75
  0
CIRCLE
  5
77
330
2
100
AcDbEntity
  8
AM_0
100
AcDbCircle
 10
1337.232684982874
 20
363.946315476783
 30
0.0
 40
3.75
  0
LINE
  5
78
330
2
100
AcDbEntity
  8
AM_0
100
AcDbLine
 10
1313.732684984774
 20
439.4463154687827
 30
0.0
 11
1313.732684984774
 21
448.4463154687828
 31
0.0
  0
LINE
  5
79
330
2
100
AcDbEntity
  8
AM_0
100
AcDbLine
 10
1318.232684984774
 20
439.4463154687827
 30
0.0
 11
1313.732684984774
 21
439.4463154687827
 31
0.0
  0
CIRCLE
  5
7A
330
2
100
AcDbEntity
  8
AM_0
100
AcDbCircle
 10
1299.232684986674
 20
443.9463154687827
 30
0.0
 40
3.75
  0
CIRCLE
  5
7B
330
2
100
AcDbEntity
  8
AM_0
100
AcDbCircle
 10
1299.232684986674
 20
363.9463154767832
 30
0.0
 40
3.75
  0
LINE
  5
7C
330
2
100
AcDbEntity
  8
AM_0
100
AcDbLine
 10
1322.732684984774
 20
439.4463154687827
 30
0.0
 11
1318.232684984774
 21
439.4463154687827
 31
0.0
  0
LINE
  5
7D
330
2
100
AcDbEntity
  8
AM_0
100
AcDbLine
 10
1313.732684984774
 20
448.4463154687828
 30
0.0
 11
1322.732684984774
 21
448.4463154687828
 31
0.0
  0
CIRCLE
  5
7E
330
2
100
AcDbEntity
  8
AM_0
100
AcDbCircle
 10
1318.232684984774
 20
443.9463154687827
 30
0.0
 40
10.5
  0
ARC
  5
7F
330
2
100
AcDbEntity
  8
AM_0
100
AcDbCircle
 10
1318.232684984774
 20
371.9463154759828
 30
0.0
 40
8.650144506598431
100
AcDbArc
 50
306.5387118574264
 51
233.4612881425736
  0
CIRCLE
  5
80
330
2
100
AcDbEntity
  8
AM_0
100
AcDbCircle
 10
1318.232684984774
 20
422.4463154709328
 30
0.0
 40
5.0
  0
CIRCLE
  5
81
330
2
100
AcDbEntity
  8
AM_0
100
AcDbCircle
 10
1318.232684984774
 20
489.9463154687828
 30
0.0
 40
5.0
  0
LINE
  5
82
330
2
100
AcDbEntity
  8
AM_5
100
AcDbLine
 10
1444.768178177296
 20
563.9999703056291
 30
0.0
 11
1431.665248221915
 21
563.9999703056289
 31
0.0
  0
LINE
  5
83
330
2
100
AcDbEntity
  8
AM_3
100
AcDbLine
 10
1479.821833014143
 20
535.1770490437274
 30
0.0
 11
1479.821833014143
 21
523.0104124384179
 31
0.0
  0
CIRCLE
  5
84
330
2
100
AcDbEntity
  8
AM_0
100
AcDbCircle
 10
1479.821833014143
 20
528.9463154687828
 30
0.0
 40
2.75
  0
LINE
  5
85
330
2
100
AcDbEntity
  8
AM_3
100
AcDbLine
 10
1491.821833014143
 20
529.9463154687828
 30
0.0
 11
1491.821833014143
 21
541.9463154687828
 31
0.0
  0
LINE
  5
86
330
2
100
AcDbEntity
  8
AM_3
100
AcDbLine
 10
1467.821833014143
 20
529.9463154687828
 30
0.0
 11
1467.821833014143
 21
541.9463154687828
 31
0.0
  0
CIRCLE
  5
87
330
2
100
AcDbEntity
  8
AM_0
100
AcDbCircle
 10
1479.821833014143
 20
528.9463154687828
 30
0.0
 40
5.0
  0
ARC
  5
88
330
2
100
AcDbEntity
  8
AM_0
100
AcDbCircle
 10
1479.821833014143
 20
529.9463154687828
 30
0.0
 40
12.0
100
AcDbArc
 50
0.0
 51
180.0
  0
LINE
  5
89
330
2
100
AcDbEntity
  8
AM_3
100
AcDbLine
 10
1473.816269516747
 20
528.9463154687828
 30
0.0
 11
1485.786700762649
 21
528.9463154687828
 31
0.0
  0
LINE
  5
8A
330
2
100
AcDbEntity
  8
AM_3
100
AcDbLine
 10
1467.821833014143
 20
541.9463154687828
 30
0.0
 11
1491.821833014143
 21
541.9463154687828
 31
0.0
  0
LINE
  5
8B
330
2
100
AcDbEntity
  8
AM_0
100
AcDbLine
 10
1477.371833014142
 20
485.4463154687827
 30
0.0
 11
1488.121833014142
 21
485.4463154687827
 31
0.0
  0
LINE
  5
8C
330
2
100
AcDbEntity
  8
AM_0
100
AcDbLine
 10
1477.371833014142
 20
460.4463154687827
 30
0.0
 11
1488.121833014142
 21
460.4463154687827
 31
0.0
  0
LINE
  5
8D
330
2
100
AcDbEntity
  8
AM_0
100
AcDbLine
 10
1488.121833014142
 20
485.4463154687827
 30
0.0
 11
1488.121833014142
 21
460.4463154687827
 31
0.0
  0
LINE
  5
8E
330
2
100
AcDbEntity
  8
AM_0
100
AcDbLine
 10
1477.371833014142
 20
488.9463154687827
 30
0.0
 11
1477.371833014142
 21
456.9463154687828
 31
0.0
  0
LINE
  5
8F
330
2
100
AcDbEntity
  8
AM_0
100
AcDbLine
 10
1474.121833014142
 20
488.9463154687827
 30
0.0
 11
1474.121833014142
 21
456.946315468783
 31
0.0
  0
LINE
  5
90
330
2
100
AcDbEntity
  8
AM_0
100
AcDbLine
 10
1474.121833014142
 20
456.9463154687828
 30
0.0
 11
1477.371833014142
 21
456.9463154687828
 31
0.0
  0
LINE
  5
91
330
2
100
AcDbEntity
  8
AM_0
100
AcDbLine
 10
1474.121833014142
 20
488.9463154687827
 30
0.0
 11
1477.371833014142
 21
488.9463154687827
 31
0.0
  0
DIMENSION
  5
92
330
2
100
AcDbEntity
  8
AM_5
100
AcDbDimension
  2
*D27
 10
1474.121833014142
 20
499.4492277036738
 30
0.0
 11
1457.621833014142
 21
499.4492277036738
 31
0.0
 70
   128
  1
<>
 71
     5
 42
14.0
  3
AM_ISO
100
AcDbAlignedDimension
 13
1488.121833014142
 23
485.4463154687827
 33
0.0
 14
1474.121833014142
 24
488.9463154687827
 34
0.0
 50
180.0
100
AcDbRotatedDimension
1001
GENIUS_GENDTOL_13
1000

1000
h7
1000

1040
0.0
1001
ACAD
1000
DSTYLE
1002
{
1070
    40
1040
2.0
1002
}
  0
LINE
  5
A3
330
2
100
AcDbEntity
  8
AM_0
100
AcDbLine
 10
1474.621833014143
 20
406.946315468783
 30
0.0
 11
1483.121833014143
 21
406.946315468783
 31
0.0
  0
DIMENSION
  5
A4
330
2
100
AcDbEntity
  8
AM_5
100
AcDbDimension
  2
*D26
 10
1474.621833014143
 20
417.3243626021087
 30
0.0
 11
1456.576858267313
 21
423.8243626021087
 31
0.0
  1
<>
 71
     5
 42
8.5
  3
AM_ISO
100
AcDbAlignedDimension
 13
1483.121833014143
 23
406.946315468783
 33
0.0
 14
1474.621833014143
 24
406.946315468783
 34
0.0
 50
180.0
100
AcDbRotatedDimension
1001
GENIUS_GENDTOL_13
1000

1000
h7
1000

1040
0.0
1001
ACAD
1000
DSTYLE
1002
{
1070
    40
1040
2.0
1002
}
  0
LINE
  5
B3
330
2
100
AcDbEntity
  8
AM_0
100
AcDbLine
 10
1474.621833014143
 20
371.946315468783
 30
0.0
 11
1483.121833014143
 21
371.946315468783
 31
0.0
  0
LINE
  5
B4
330
2
100
AcDbEntity
  8
AM_0
100
AcDbLine
 10
1474.621833014143
 20
406.946315468783
 30
0.0
 11
1474.621833014143
 21
371.946315468783
 31
0.0
  0
LINE
  5
B5
330
2
100
AcDbEntity
  8
AM_0
100
AcDbLine
 10
1483.121833014143
 20
371.946315468783
 30
0.0
 11
1483.121833014143
 21
406.946315468783
 31
0.0
  0
DIMENSION
  5
B6
330
2
100
AcDbEntity
  8
AM_5
100
AcDbDimension
  2
*D29
 10
1467.821833014143
 20
364.3241835753131
 30
0.0
 11
1440.963762148001
 21
371.1741835753131
 31
0.0
  1
6.8(3.8)
 71
     5
 42
6.800000000000181
  3
AM_ISO
100
AcDbAlignedDimension
 13
1474.621833014143
 23
371.946315468783
 33
0.0
 14
1467.821833014143
 24
371.946315468783
 34
0.0
100
AcDbRotatedDimension
1001
GENIUS_GENDTOL_13
1000

1000
h7
1000

1040
0.0
1001
ACAD
1000
DSTYLE
1002
{
1070
    40
1040
2.0
1002
}
  0
DIMENSION
  5
C5
330
2
100
AcDbEntity
  8
AM_5
100
AcDbDimension
  2
*D28
 10
1467.821833014143
 20
444.9494889490408
 30
0.0
 11
1440.963762148001
 21
451.7994889490409
 31
0.0
  1
6.2(3.2)
 71
     5
 42
6.299999999999272
  3
AM_ISO
100
AcDbAlignedDimension
 13
1474.121833014142
 23
456.946315468783
 33
0.0
 14
1467.821833014143
 24
456.946315468783
 34
0.0
100
AcDbRotatedDimension
1001
GENIUS_GENDTOL_13
1000

1000
h7
1000

1040
0.0
1001
ACAD
1000
DSTYLE
1002
{
1070
    40
1040
2.0
1002
}
  0
LINE
  5
D4
330
2
100
AcDbEntity
  8
AM_5
100
AcDbLine
 10
1479.821833014143
 20
528.9463154687828
 30
0.0
 11
1444.768178177296
 21
563.9999703056291
 31
0.0
  0
LINE
  5
D5
330
2
100
AcDbEntity
  8
AM_0
100
AcDbLine
 10
1340.232684984774
 20
506.9463154687828
 30
0.0
 11
1350.232684984775
 21
496.9463154687828
 31
0.0
  0
LINE
  5
D6
330
2
100
AcDbEntity
  8
AM_3
100
AcDbLine
 10
1315.232684984774
 20
489.9463154687829
 30
0.0
 11
1321.232684984774
 21
489.9463154687829
 31
0.0
  0
LINE
  5
D7
330
2
100
AcDbEntity
  8
AM_3
100
AcDbLine
 10
1318.232684984774
 20
486.9463154687829
 30
0.0
 11
1318.232684984774
 21
492.9463154687829
 31
0.0
  0
LINE
  5
D8
330
2
100
AcDbEntity
  8
AM_0
100
AcDbLine
 10
1256.232684984775
 20
541.9463154687828
 30
0.0
 11
1253.232684984775
 21
541.9463154687828
 31
0.0
  0
LINE
  5
D9
330
2
100
AcDbEntity
  8
AM_3
100
AcDbLine
 10
1247.432684984775
 20
528.9463154687828
 30
0.0
 11
1262.432684984775
 21
528.9463154687828
 31
0.0
  0
LINE
  5
DA
330
2
100
AcDbEntity
  8
AM_0
100
AcDbLine
 10
1256.232684984775
 20
516.2798945628753
 30
0.0
 11
1256.232684984775
 21
541.9463154687828
 31
0.0
  0
LINE
  5
DB
330
2
100
AcDbEntity
  8
AM_0
100
AcDbLine
 10
1256.232684984775
 20
484.9463154687827
 30
0.0
 11
1259.032684984775
 21
484.9463154687827
 31
0.0
  0
LINE
  5
DC
330
2
100
AcDbEntity
  8
AM_0
100
AcDbLine
 10
1256.232684984775
 20
486.9463154687828
 30
0.0
 11
1275.232684984774
 21
486.9463154687828
 31
0.0
  0
LINE
  5
DD
330
2
100
AcDbEntity
  8
AM_0
100
AcDbLine
 10
1256.232684984775
 20
460.9463154687828
 30
0.0
 11
1259.032684984775
 21
460.9463154687828
 31
0.0
  0
LINE
  5
DE
330
2
100
AcDbEntity
  8
AM_0
100
AcDbLine
 10
1275.232684984774
 20
458.9463154687828
 30
0.0
 11
1256.232684984775
 21
458.9463154687829
 31
0.0
  0
LINE
  5
DF
330
2
100
AcDbEntity
  8
AM_0
100
AcDbLine
 10
1275.232684984774
 20
458.9463154687828
 30
0.0
 11
1275.232684984774
 21
486.9463154687828
 31
0.0
  0
LINE
  5
E0
330
2
100
AcDbEntity
  8
AM_0
100
AcDbLine
 10
1259.032684984775
 20
484.9463154687827
 30
0.0
 11
1259.032684984775
 21
460.9463154687828
 31
0.0
  0
LINE
  5
E1
330
2
100
AcDbEntity
  8
AM_0
100
AcDbLine
 10
1241.232684984775
 20
488.9463154687829
 30
0.0
 11
1241.232684984775
 21
456.9463154687826
 31
0.0
  0
LINE
  5
E2
330
2
100
AcDbEntity
  8
AM_0
100
AcDbLine
 10
1241.232684984775
 20
456.9463154687826
 30
0.0
 11
1253.232684984774
 21
456.9463154687828
 31
0.0
  0
LINE
  5
E3
330
2
100
AcDbEntity
  8
AM_0
100
AcDbLine
 10
1253.232684984774
 20
460.9463154687828
 30
0.0
 11
1241.232684984775
 21
460.9463154687828
 31
0.0
  0
LINE
  5
E4
330
2
100
AcDbEntity
  8
AM_0
100
AcDbLine
 10
1241.232684984775
 20
484.9463154687826
 30
0.0
 11
1253.232684984774
 21
484.9463154687827
 31
0.0
  0
LINE
  5
E5
330
2
100
AcDbEntity
  8
AM_0
100
AcDbLine
 10
1253.232684984774
 20
488.9463154687827
 30
0.0
 11
1241.232684984775
 21
488.9463154687829
 31
0.0
  0
DIMENSION
  5
E6
102
{ACAD_REACTORS
330
169
102
}
330
2
100
AcDbEntity
  8
AM_5
100
AcDbDimension
  2
*D16
 10
1241.232684984775
 20
512.8275872264569
 30
0.0
 11
1247.232684984775
 21
512.8275872264569
 31
0.0
 70
   128
  1
<>
 71
     5
 42
12.0
  3
AM_ISO
100
AcDbAlignedDimension
 13
1253.232684984774
 23
488.9463154687827
 33
0.0
 14
1241.232684984775
 24
488.9463154687829
 34
0.0
 50
180.0
100
AcDbRotatedDimension
1001
GENIUS_GENDTOL_13
1000

1000
h7
1000

1040
0.0
1001
ACAD
1000
DSTYLE
1002
{
1070
    40
1040
2.0
1002
}
  0
LINE
  5
F5
330
2
100
AcDbEntity
  8
AM_0
100
AcDbLine
 10
1256.432684984775
 20
506.9463154687828
 30
0.0
 11
1340.232684984774
 21
506.9463154687828
 31
0.0
  0
LINE
  5
F6
330
2
100
AcDbEntity
  8
AM_3
100
AcDbLine
 10
1334.232684984774
 20
443.9463154687827
 30
0.0
 11
1340.232684984774
 21
443.9463154687827
 31
0.0
  0
LINE
  5
F7
330
2
100
AcDbEntity
  8
AM_3
100
AcDbLine
 10
1296.232684984774
 20
443.9463154687827
 30
0.0
 11
1302.232684984774
 21
443.9463154687827
 31
0.0
  0
LINE
  5
F8
330
2
100
AcDbEntity
  8
AM_3
100
AcDbLine
 10
1318.232684984774
 20
419.4463154687828
 30
0.0
 11
1318.232684984774
 21
425.4463154687828
 31
0.0
  0
LINE
  5
F9
330
2
100
AcDbEntity
  8
AM_3
100
AcDbLine
 10
1315.232684984774
 20
422.4463154687827
 30
0.0
 11
1321.232684984774
 21
422.4463154687827
 31
0.0
  0
LINE
  5
FA
330
2
100
AcDbEntity
  8
AM_3
100
AcDbLine
 10
1307.732684984774
 20
443.9463154687827
 30
0.0
 11
1328.732684984774
 21
443.9463154687827
 31
0.0
  0
LINE
  5
FB
330
2
100
AcDbEntity
  8
AM_3
100
AcDbLine
 10
1334.232684984774
 20
363.9463154687828
 30
0.0
 11
1340.232684984774
 21
363.9463154687828
 31
0.0
  0
LINE
  5
FC
330
2
100
AcDbEntity
  8
AM_3
100
AcDbLine
 10
1337.232684984774
 20
360.9463154687828
 30
0.0
 11
1337.232684984774
 21
366.9463154687828
 31
0.0
  0
LINE
  5
FD
330
2
100
AcDbEntity
  8
AM_3
100
AcDbLine
 10
1299.232684984774
 20
360.9463154687828
 30
0.0
 11
1299.232684984774
 21
366.9463154687828
 31
0.0
  0
LINE
  5
FE
330
2
100
AcDbEntity
  8
AM_3
100
AcDbLine
 10
1296.232684984774
 20
363.9463154687828
 30
0.0
 11
1302.232684984774
 21
363.9463154687828
 31
0.0
  0
LINE
  5
FF
330
2
100
AcDbEntity
  8
AM_3
100
AcDbLine
 10
1309.632684984775
 20
371.9463154687828
 30
0.0
 11
1326.832684984775
 21
371.9463154687828
 31
0.0
  0
LINE
  5
100
330
2
100
AcDbEntity
  8
AM_3
100
AcDbLine
 10
1337.232684984774
 20
367.7463154687828
 30
0.0
 11
1337.232684984774
 21
446.9463154687828
 31
0.0
  0
LINE
  5
101
330
2
100
AcDbEntity
  8
AM_3
100
AcDbLine
 10
1299.232684984774
 20
367.7463154687828
 30
0.0
 11
1299.232684984774
 21
446.9463154687828
 31
0.0
  0
DIMENSION
  5
102
330
2
100
AcDbEntity
  8
AM_5
100
AcDbDimension
  2
*D1
 10
1337.232684984774
 20
393.3392232479737
 30
0.0
 11
1318.232684984774
 21
399.8392232479737
 31
0.0
  1
<>
 71
     5
 42
38.0
  3
AM_ISO
100
AcDbAlignedDimension
 13
1299.232684984774
 23
397.6499810033438
 33
0.0
 14
1337.232684984774
 24
397.6499810033438
 34
0.0
100
AcDbRotatedDimension
1001
GENIUS_GENDTOL_13
1000

1000
h7
1000

1040
0.0
1001
ACAD
1000
DSTYLE
1002
{
1070
    40
1040
2.0
1002
}
  0
DIMENSION
  5
10F
330
2
100
AcDbEntity
  8
AM_5
100
AcDbDimension
  2
*D20
 10
1231.232684984775
 20
435.8081212527686
 30
0.0
 11
1242.232684984774
 21
442.3088102291465
 31
0.0
  1
<>
 71
     5
 42
22.00000000000023
  3
AM_ISO
100
AcDbAlignedDimension
 13
1253.232684984775
 23
406.9463154687827
 33
0.0
 14
1231.232684984775
 24
406.9463154687826
 34
0.0
 50
180.0
100
AcDbRotatedDimension
1001
GENIUS_GENDTOL_13
1000

1000
h7
1000

1040
0.0
1001
ACAD
1000
DSTYLE
1002
{
1070
    40
1040
2.0
1002
}
  0
LINE
  5
11C
330
2
100
AcDbEntity
  8
AM_0
100
AcDbLine
 10
1253.232684984775
 20
406.9463154687827
 30
0.0
 11
1231.232684984775
 21
406.9463154687826
 31
0.0
  0
DIMENSION
  5
11D
330
2
100
AcDbEntity
  8
AM_5
100
AcDbDimension
  2
*D21
 10
1242.232684984774
 20
419.2711009271897
 30
0.0
 11
1247.732684984774
 21
425.7711009271897
 31
0.0
  1
<>
 71
     5
 42
11.00000000000022
  3
AM_ISO
100
AcDbAlignedDimension
 13
1253.232684984775
 23
406.9463154687827
 33
0.0
 14
1242.232684984774
 24
406.9463154687826
 34
0.0
 50
180.0
100
AcDbRotatedDimension
1001
GENIUS_GENDTOL_13
1000

1000
h7
1000

1040
0.0
1001
ACAD
1000
DSTYLE
1002
{
1070
    40
1040
2.0
1002
}
  0
LINE
  5
12C
330
2
100
AcDbEntity
  8
AM_0
100
AcDbLine
 10
1253.232684984774
 20
371.9463154687827
 30
0.0
 11
1231.232684984775
 21
371.9463154687827
 31
0.0
  0
LINE
  5
12D
330
2
100
AcDbEntity
  8
AM_0
100
AcDbLine
 10
1231.232684984775
 20
406.9463154687826
 30
0.0
 11
1231.232684984775
 21
371.9463154687827
 31
0.0
  0
LINE
  5
12E
330
2
100
AcDbEntity
  8
AM_3
100
AcDbLine
 10
1242.232684984774
 20
406.9463154687826
 30
0.0
 11
1242.232684984774
 21
371.9463154687827
 31
0.0
  0
LINE
  5
12F
330
2
100
AcDbEntity
  8
AM_0
100
AcDbLine
 10
1256.232684984775
 20
422.5867125845182
 30
0.0
 11
1256.232684984775
 21
509.9494287185559
 31
0.0
  0
LINE
  5
130
330
2
100
AcDbEntity
  8
AM_3
100
AcDbLine
 10
1318.232684984774
 20
454.4463154687828
 30
0.0
 11
1318.232684984774
 21
433.4463154687828
 31
0.0
  0
DIMENSION
  5
131
330
2
100
AcDbEntity
  8
AM_5
100
AcDbDimension
  2
*D22
 10
1313.732684984774
 20
468.4463154687827
 30
0.0
 11
1294.723774474935
 21
474.9463154687828
 31
0.0
  1
{\Famgdt;o}<>
 71
     5
 42
9.0
  3
AM_ISO
100
AcDbAlignedDimension
 13
1322.732684984774
 23
448.4463154687828
 33
0.0
 14
1313.732684984774
 24
448.4463154687828
 34
0.0
 50
180.0
100
AcDbRotatedDimension
1001
GENIUS_GENDTOL_13
1000

1000
h7
1000

1040
0.0
1001
ACAD
1000
DSTYLE
1002
{
1070
    40
1040
2.0
1002
}
  0
DIMENSION
  5
140
102
{ACAD_REACTORS
330
169
102
}
330
2
100
AcDbEntity
  8
AM_5
100
AcDbDimension
  2
*D19
 10
1217.232684984774
 20
488.9463154687829
 30
0.0
 11
1210.731996008396
 21
472.946315468783
 31
0.0
  1
<>
 71
     5
 42
32.00000000000023
  3
AM_ISO
100
AcDbAlignedDimension
 13
1241.232684984775
 23
456.9463154687826
 33
0.0
 14
1241.232684984775
 24
488.9463154687829
 34
0.0
 50
270.0
100
AcDbRotatedDimension
1001
GENIUS_GENDTOL_13
1000

1000
h7
1000

1040
0.0
1001
ACAD
1000
DSTYLE
1002
{
1070
    40
1040
2.0
1002
}
  0
DIMENSION
  5
14D
330
2
100
AcDbEntity
  8
AM_5
100
AcDbDimension
  2
*D18
 10
1217.232684984774
 20
406.9463154687826
 30
0.0
 11
1210.732684984775
 21
431.9463154687829
 31
0.0
  1
<>
 71
     5
 42
50.0
  3
AM_ISO
100
AcDbAlignedDimension
 13
1241.232684984775
 23
456.9463154687826
 33
0.0
 14
1231.232684984775
 24
406.9463154687826
 34
0.0
 50
270.0
100
AcDbRotatedDimension
1001
GENIUS_GENDTOL_13
1000

1000
h7
1000

1040
0.0
1001
ACAD
1000
DSTYLE
1002
{
1070
    40
1040
2.0
1002
}
  0
DIMENSION
  5
15A
330
2
100
AcDbEntity
  8
AM_5
100
AcDbDimension
  2
*D17
 10
1217.232684984774
 20
371.9463154687827
 30
0.0
 11
1210.732684984775
 21
389.4463154687829
 31
0.0
  1
<>
 71
     5
 42
35.0
  3
AM_ISO
100
AcDbAlignedDimension
 13
1231.232684984775
 23
406.9463154687826
 33
0.0
 14
1231.232684984775
 24
371.9463154687827
 34
0.0
 50
270.0
100
AcDbRotatedDimension
1001
GENIUS_GENDTOL_13
1000

1000
h7
1000

1040
0.0
1001
ACAD
1000
DSTYLE
1002
{
1070
    40
1040
2.0
1002
}
  0
DIMENSION
  5
167
102
{ACAD_XDICTIONARY
360
168
102
}
102
{ACAD_REACTORS
330
169
102
}
330
2
100
AcDbEntity
  8
AM_5
100
AcDbDimension
  2
*D15
 10
1217.232684984774
 20
488.9463154687829
 30
0.0
 11
1210.732684984775
 21
515.446315468783
 31
0.0
  1
<>
 71
     5
 42
52.99999999999982
  3
AM_ISO
100
AcDbAlignedDimension
 13
1253.232684984775
 23
541.9463154687828
 33
0.0
 14
1241.232684984775
 24
488.9463154687829
 34
0.0
 50
270.0
100
AcDbRotatedDimension
1001
GENIUS_GENDTOL_13
1000

1000
h7
1000

1040
0.0
1001
ACAD
1000
DSTYLE
1002
{
1070
    40
1040
2.0
1002
}
  0
DIMENSION
  5
177
102
{ACAD_REACTORS
330
169
102
}
330
2
100
AcDbEntity
  8
AM_5
100
AcDbDimension
  2
*D12
 10
1201.438528576362
 20
541.9463154687828
 30
0.0
 11
1201.438528576362
 21
535.4463154687829
 31
0.0
 70
   128
  1
<>
 71
     5
 42
13.0
  3
AM_ISO
100
AcDbAlignedDimension
 13
1247.432684984775
 23
528.9463154687828
 33
0.0
 14
1253.232684984775
 24
541.9463154687828
 34
0.0
 50
270.0
100
AcDbRotatedDimension
1001
GENIUS_GENDTOL_13
1000

1000
h7
1000

1040
0.0
1001
ACAD
1000
DSTYLE
1002
{
1070
    40
1040
2.0
1002
}
  0
DIMENSION
  5
186
102
{ACAD_REACTORS
330
1B2
330
169
102
}
330
2
100
AcDbEntity
  8
AM_5
100
AcDbDimension
  2
*D23
 10
1253.232684984775
 20
561.9463154687828
 30
0.0
 11
1238.687710237944
 21
568.4463154687827
 31
0.0
  1
<>
 71
     5
 42
2.999999999999772
  3
AM_ISO
100
AcDbAlignedDimension
 13
1256.232684984775
 23
541.9463154687828
 33
0.0
 14
1253.232684984775
 24
541.9463154687828
 34
0.0
 50
180.0
100
AcDbRotatedDimension
1001
GENIUS_GENDTOL_13
1000

1000
h7
1000

1040
0.0
1001
ACAD
1000
DSTYLE
1002
{
1070
    40
1040
2.0
1002
}
  0
TEXT
  5
195
330
2
100
AcDbEntity
  8
AM_5
 62
     3
100
AcDbText
 10
1341.93024366387
 20
560.915983394033
 30
0.0
 40
7.0
  1
Senkung DIN74-Am5
 72
     2
 11
1425.170193157531
 21
560.915983394033
 31
0.0
100
AcDbText
  0
DIMENSION
  5
196
330
2
100
AcDbEntity
  8
AM_5
100
AcDbDimension
  2
*D9
 10
1370.232684984774
 20
489.9463154687829
 30
0.0
 11
1363.732684984774
 21
466.946315468783
 31
0.0
  1
<>
 71
     5
 42
46.00000000000011
  3
AM_ISO
100
AcDbAlignedDimension
 13
1337.232684984774
 23
443.9463154687827
 33
0.0
 14
1318.232684984774
 24
489.9463154687829
 34
0.0
 50
90.0
100
AcDbRotatedDimension
1001
GENIUS_GENDTOL_13
1000

1000
h7
1000

1040
0.0
1001
ACAD
1000
DSTYLE
1002
{
1070
    40
1040
2.0
1002
}
  0
DIMENSION
  5
1A3
330
2
100
AcDbEntity
  8
AM_5
100
AcDbDimension
  2
*D8
 10
1370.232684984774
 20
443.9463154687827
 30
0.0
 11
1363.731996008397
 21
433.196315468783
 31
0.0
  1
<>
 71
     5
 42
21.5
  3
AM_ISO
100
AcDbAlignedDimension
 13
1318.232684984774
 23
422.4463154687827
 33
0.0
 14
1337.232684984774
 24
443.9463154687827
 34
0.0
 50
90.0
100
AcDbRotatedDimension
1001
GENIUS_GENDTOL_13
1000

1000
h7
1000

1040
0.0
1001
ACAD
1000
DSTYLE
1002
{
1070
    40
1040
2.0
1002
}
  0
DIMENSION
  5
1B0
102
{ACAD_XDICTIONARY
360
1B1
102
}
102
{ACAD_REACTORS
330
1B2
102
}
330
2
100
AcDbEntity
  8
AM_5
100
AcDbDimension
  2
*D7
 10
1386.232684984774
 20
443.9463154687827
 30
0.0
 11
1379.732684984774
 21
492.9463154687829
 31
0.0
  1
<>
 71
     5
 42
97.99999999999995
  3
AM_ISO
100
AcDbAlignedDimension
 13
1256.232684984775
 23
541.9463154687828
 33
0.0
 14
1318.232684984774
 24
443.9463154687827
 34
0.0
 50
90.0
100
AcDbRotatedDimension
1001
GENIUS_GENDTOL_13
1000

1000
h7
1000

1040
0.0
1001
ACAD
1000
DSTYLE
1002
{
1070
    40
1040
2.0
1002
}
  0
DIMENSION
  5
1C0
102
{ACAD_REACTORS
330
1B2
102
}
330
2
100
AcDbEntity
  8
AM_5
100
AcDbDimension
  2
*D6
 10
1386.232684984774
 20
371.9463154687828
 30
0.0
 11
1379.731996008397
 21
407.946315468783
 31
0.0
  1
<>
 71
     5
 42
72.0
  3
AM_ISO
100
AcDbAlignedDimension
 13
1318.232684984774
 23
443.9463154687827
 33
0.0
 14
1318.232684984774
 24
371.9463154687828
 34
0.0
 50
90.0
100
AcDbRotatedDimension
1001
GENIUS_GENDTOL_13
1000

1000
h7
1000

1040
0.0
1001
ACAD
1000
DSTYLE
1002
{
1070
    40
1040
2.0
1002
}
  0
DIMENSION
  5
1CD
102
{ACAD_REACTORS
330
1B2
102
}
330
2
100
AcDbEntity
  8
AM_5
100
AcDbDimension
  2
*D4
 10
1402.232684984774
 20
541.9463154687827
 30
0.0
 11
1395.732684984774
 21
524.4463154687829
 31
0.0
  1
<>
 71
     5
 42
34.99999999999995
  3
AM_ISO
100
AcDbAlignedDimension
 13
1340.232684984774
 23
506.9463154687828
 33
0.0
 14
1256.232684984775
 24
541.9463154687828
 34
0.0
 50
90.0
100
AcDbRotatedDimension
1001
GENIUS_GENDTOL_13
1000

1000
h7
1000

1040
0.0
1001
ACAD
1000
DSTYLE
1002
{
1070
    40
1040
2.0
1002
}
  0
LINE
  5
1DA
330
2
100
AcDbEntity
  8
AM_3
100
AcDbLine
 10
1476.121833014142
 20
352.946315468783
 30
0.0
 11
1482.121833014142
 21
352.946315468783
 31
0.0
  0
LINE
  5
1DB
330
2
100
AcDbEntity
  8
AM_3
100
AcDbLine
 10
1479.121833014142
 20
349.946315468783
 30
0.0
 11
1479.121833014142
 21
355.9463154687831
 31
0.0
  0
LINE
  5
1DC
330
2
100
AcDbEntity
  8
AM_3
100
AcDbLine
 10
1479.821833014143
 20
326.1770490437275
 30
0.0
 11
1479.821833014143
 21
314.0104124384179
 31
0.0
  0
CIRCLE
  5
1DD
330
2
100
AcDbEntity
  8
AM_0
100
AcDbCircle
 10
1479.821833014143
 20
319.946315468783
 30
0.0
 40
2.75
  0
LINE
  5
1DE
330
2
100
AcDbEntity
  8
AM_3
100
AcDbLine
 10
1473.816269516747
 20
319.946315468783
 30
0.0
 11
1485.786700762649
 21
319.946315468783
 31
0.0
  0
CIRCLE
  5
1DF
330
2
100
AcDbEntity
  8
AM_0
100
AcDbCircle
 10
1479.821833014143
 20
319.946315468783
 30
0.0
 40
5.0
  0
DIMENSION
  5
1E0
330
2
100
AcDbEntity
  8
AM_5
100
AcDbDimension
  2
*D24
 10
1467.821833014143
 20
286.946315468783
 30
0.0
 11
1479.821833014143
 21
293.4470044451609
 31
0.0
  1
<>
 71
     5
 42
24.0
  3
AM_ISO
100
AcDbAlignedDimension
 13
1491.821833014143
 23
306.946315468783
 33
0.0
 14
1467.821833014143
 24
306.946315468783
 34
0.0
100
AcDbRotatedDimension
1001
GENIUS_GENDTOL_13
1000

1000
h7
1000

1040
0.0
1001
ACAD
1000
DSTYLE
1002
{
1070
    40
1040
2.0
1002
}
  0
TEXT
  5
1ED
330
2
100
AcDbEntity
  8
AM_5
 62
     3
100
AcDbText
 10
1472.181263054613
 20
274.3511509452944
 30
0.0
 40
7.0
  1
(20)
100
AcDbText
  0
LINE
  5
1EE
330
2
100
AcDbEntity
  8
AM_3
100
AcDbLine
 10
1467.821833014143
 20
306.946315468783
 30
0.0
 11
1491.821833014143
 21
306.946315468783
 31
0.0
  0
ARC
  5
1EF
330
2
100
AcDbEntity
  8
AM_0
100
AcDbCircle
 10
1479.821833014143
 20
318.946315468783
 30
0.0
 40
12.0
100
AcDbArc
 50
180.0
 51
0.0
  0
LINE
  5
1F0
330
2
100
AcDbEntity
  8
AM_3
100
AcDbLine
 10
1467.821833014143
 20
318.946315468783
 30
0.0
 11
1467.821833014143
 21
306.946315468783
 31
0.0
  0
LINE
  5
1F1
330
2
100
AcDbEntity
  8
AM_3
100
AcDbLine
 10
1491.821833014143
 20
318.946315468783
 30
0.0
 11
1491.821833014143
 21
306.946315468783
 31
0.0
  0
LINE
  5
1F2
330
2
100
AcDbEntity
  8
AM_0
100
AcDbLine
 10
1350.232684984774
 20
351.9463154687828
 30
0.0
 11
1340.232684984774
 21
341.9463154687828
 31
0.0
  0
LINE
  5
1F3
330
2
100
AcDbEntity
  8
AM_3
100
AcDbLine
 10
1313.232684984774
 20
351.9463154779828
 30
0.0
 11
1323.232684984774
 21
351.9463154779828
 31
0.0
  0
DIMENSION
  5
1F4
330
2
100
AcDbEntity
  8
AM_5
100
AcDbDimension
  2
*D3
 10
1318.232684984774
 20
286.9463154687828
 30
0.0
 11
1334.232684984774
 21
293.4463154687828
 31
0.0
  1
33
 71
     5
 42
32.0
  3
AM_ISO
100
AcDbAlignedDimension
 13
1350.232684984775
 23
351.9463154687828
 33
0.0
 14
1318.232684984774
 24
352.5463154687829
 34
0.0
100
AcDbRotatedDimension
1001
GENIUS_GENDTOL_13
1000

1000
h7
1000

1040
0.0
1001
ACAD
1000
DSTYLE
1002
{
1070
    40
1040
2.0
1002
}
  0
LINE
  5
201
330
2
100
AcDbEntity
  8
AM_3
100
AcDbLine
 10
1247.432684984775
 20
319.9463154687828
 30
0.0
 11
1262.432684984775
 21
319.9463154687828
 31
0.0
  0
LINE
  5
202
330
2
100
AcDbEntity
  8
AM_0
100
AcDbLine
 10
1256.232684984775
 20
306.9463154687828
 30
0.0
 11
1253.232684984774
 21
306.9463154687828
 31
0.0
  0
DIMENSION
  5
203
330
2
100
AcDbEntity
  8
AM_5
100
AcDbDimension
  2
*D10
 10
1253.232684984774
 20
286.9463154687828
 30
0.0
 11
1285.732684984774
 21
293.4949960225669
 31
0.0
  1
Dornmaß
 71
     5
 42
65.0
  3
AM_ISO
100
AcDbAlignedDimension
 13
1318.232684984774
 23
352.5463154687829
 33
0.0
 14
1253.232684984774
 24
306.9463154687828
 34
0.0
100
AcDbRotatedDimension
1001
ACAD
1000
DSTYLE
1002
{
1070
    40
1040
2.0
1002
}
  0
LINE
  5
210
330
2
100
AcDbEntity
  8
AM_0
100
AcDbLine
 10
1340.232684984774
 20
341.9463154687828
 30
0.0
 11
1256.432684984775
 21
341.9463154687828
 31
0.0
  0
LINE
  5
211
330
2
100
AcDbEntity
  8
AM_0
100
AcDbLine
 10
1328.732684984775
 20
231.2373719627958
 30
0.0
 11
1328.732684984775
 21
232.7373719627958
 31
0.0
  0
LINE
  5
212
330
2
100
AcDbEntity
  8
AM_0
100
AcDbLine
 10
1328.732684984774
 20
217.2373719627958
 30
0.0
 11
1328.732684984774
 21
215.7373719627958
 31
0.0
  0
LINE
  5
213
330
2
100
AcDbEntity
  8
AM_0
100
AcDbLine
 10
1340.232684984775
 20
231.2373719627958
 30
0.0
 11
1340.232684984775
 21
217.2373719627956
 31
0.0
  0
LINE
  5
214
330
2
100
AcDbEntity
  8
AM_0
100
AcDbLine
 10
1350.232684984775
 20
231.2373719627958
 30
0.0
 11
1350.232684984775
 21
217.2373719627958
 31
0.0
  0
LINE
  5
215
330
2
100
AcDbEntity
  8
AM_0
100
AcDbLine
 10
1307.732684984774
 20
232.7373719627958
 30
0.0
 11
1307.732684984774
 21
231.2373719627958
 31
0.0
  0
LINE
  5
216
330
2
100
AcDbEntity
  8
AM_0
100
AcDbLine
 10
1307.732684984775
 20
217.2373719627958
 30
0.0
 11
1307.732684984775
 21
215.7373719627958
 31
0.0
  0
LINE
  5
217
330
2
100
AcDbEntity
  8
AM_3
100
AcDbLine
 10
1318.232684984774
 20
237.7373719627958
 30
0.0
 11
1318.232684984774
 21
210.7373719627958
 31
0.0
  0
LINE
  5
218
330
2
100
AcDbEntity
  8
AM_0
100
AcDbLine
 10
1328.732684984774
 20
215.7373719627958
 30
0.0
 11
1307.732684984775
 21
215.7373719627958
 31
0.0
  0
LINE
  5
219
330
2
100
AcDbEntity
  8
AM_0
100
AcDbLine
 10
1328.732684984775
 20
232.7373719627958
 30
0.0
 11
1307.732684984774
 21
232.7373719627958
 31
0.0
  0
LINE
  5
21A
330
2
100
AcDbEntity
  8
AM_0
100
AcDbLine
 10
1256.232684984774
 20
235.2373719627958
 30
0.0
 11
1253.232684984774
 21
235.2373719627958
 31
0.0
  0
LINE
  5
21B
330
2
100
AcDbEntity
  8
AM_0
100
AcDbLine
 10
1256.232684984774
 20
211.2373719627958
 30
0.0
 11
1253.232684984774
 21
211.2373719627958
 31
0.0
  0
LINE
  5
21C
330
2
100
AcDbEntity
  8
AM_0
100
AcDbLine
 10
1253.232684984774
 20
235.2373719627958
 30
0.0
 11
1253.232684984774
 21
211.2373719627958
 31
0.0
  0
LINE
  5
21D
330
2
100
AcDbEntity
  8
AM_0
100
AcDbLine
 10
1256.232684984774
 20
235.2373719627958
 30
0.0
 11
1256.232684984774
 21
211.2373719627958
 31
0.0
  0
LINE
  5
21E
330
2
100
AcDbEntity
  8
AM_0
100
AcDbLine
 10
1241.232684984775
 20
229.0373719627958
 30
0.0
 11
1241.232684984775
 21
227.0373719627958
 31
0.0
  0
LINE
  5
21F
330
2
100
AcDbEntity
  8
AM_0
100
AcDbLine
 10
1241.232684984775
 20
228.4373719627958
 30
0.0
 11
1231.232684984775
 21
228.4373719627958
 31
0.0
  0
LINE
  5
220
330
2
100
AcDbEntity
  8
AM_0
100
AcDbLine
 10
1231.232684984775
 20
228.4373719627958
 30
0.0
 11
1231.232684984775
 21
219.9373719627959
 31
0.0
  0
LINE
  5
221
330
2
100
AcDbEntity
  8
AM_3
100
AcDbLine
 10
1242.232684984774
 20
226.037371962796
 30
0.0
 11
1242.232684984774
 21
219.9373719627959
 31
0.0
  0
LINE
  5
222
330
2
100
AcDbEntity
  8
AM_3
100
AcDbLine
 10
1242.232684984774
 20
225.9373719627957
 30
0.0
 11
1242.232684984774
 21
220.4373719627958
 31
0.0
  0
LINE
  5
223
330
2
100
AcDbEntity
  8
AM_0
100
AcDbLine
 10
1241.232684984775
 20
227.0373719627958
 30
0.0
 11
1253.232684984774
 21
227.0373719627958
 31
0.0
  0
LINE
  5
224
330
2
100
AcDbEntity
  8
AM_0
100
AcDbLine
 10
1253.232684984774
 20
229.0373719627958
 30
0.0
 11
1241.232684984775
 21
229.0373719627958
 31
0.0
  0
LINE
  5
225
330
2
100
AcDbEntity
  8
AM_0
100
AcDbLine
 10
1241.232684984775
 20
227.0373719627958
 30
0.0
 11
1253.232684984774
 21
215.0373719627959
 31
0.0
  0
LINE
  5
226
330
2
100
AcDbEntity
  8
AM_0
100
AcDbLine
 10
1350.232684984775
 20
231.2373719627958
 30
0.0
 11
1256.232684984774
 21
231.2373719627958
 31
0.0
  0
LINE
  5
227
330
2
100
AcDbEntity
  8
AM_0
100
AcDbLine
 10
1350.232684984775
 20
217.2373719627958
 30
0.0
 11
1256.232684984774
 21
217.2373719627958
 31
0.0
  0
DIMENSION
  5
228
330
2
100
AcDbEntity
  8
AM_5
100
AcDbDimension
  2
*D11
 10
1268.76404403835
 20
235.2373719627958
 30
0.0
 11
1261.91404403835
 21
254.5359940100401
 31
0.0
  1
4(1)
 71
     5
 42
4.0
  3
AM_ISO
100
AcDbAlignedDimension
 13
1256.232684984774
 23
231.2373719627958
 33
0.0
 14
1256.232684984774
 24
235.2373719627958
 34
0.0
 50
90.0
100
AcDbRotatedDimension
1001
GENIUS_GENDTOL_13
1000

1000
h7
1000

1040
0.0
1001
ACAD
1000
DSTYLE
1002
{
1070
    40
1040
2.0
1002
}
  0
DIMENSION
  5
237
330
2
100
AcDbEntity
  8
AM_5
100
AcDbDimension
  2
*D25
 10
1370.232684984774
 20
231.2373719627958
 30
0.0
 11
1363.732684984774
 21
224.237371962796
 31
0.0
  1
<>
 71
     5
 42
14.0
  3
AM_ISO
100
AcDbAlignedDimension
 13
1350.232684984775
 23
217.2373719627958
 33
0.0
 14
1350.232684984775
 24
231.2373719627958
 34
0.0
 50
90.0
100
AcDbRotatedDimension
1001
GENIUS_GENDTOL_13
1000

1000
h7
1000

1040
0.0
1001
ACAD
1000
DSTYLE
1002
{
1070
    40
1040
2.0
1002
}
  0
DIMENSION
  5
246
330
2
100
AcDbEntity
  8
AM_5
100
AcDbDimension
  2
*D2
 10
1386.232684984774
 20
232.7373719627958
 30
0.0
 11
1379.732684984774
 21
247.5323467096266
 31
0.0
  1
15.5
 71
     5
 42
17.0
  3
AM_ISO
100
AcDbAlignedDimension
 13
1328.732684984774
 23
215.7373719627958
 33
0.0
 14
1328.732684984775
 24
232.7373719627958
 34
0.0
 50
90.0
100
AcDbRotatedDimension
1001
GENIUS_GENDTOL_13
1000

1000
h7
1000

1040
0.0
1001
ACAD
1000
DSTYLE
1002
{
1070
    40
1040
2.0
1002
}
  0
DIMENSION
  5
254
102
{ACAD_REACTORS
330
1B2
102
}
330
2
100
AcDbEntity
  8
AM_5
100
AcDbDimension
  2
*D30
 10
1402.232684984774
 20
341.9463154687828
 30
0.0
 11
1395.732684984774
 21
424.446315468783
 31
0.0
  1
<>
 71
     5
 42
165.0
  3
AM_ISO
100
AcDbAlignedDimension
 13
1340.232684984774
 23
506.9463154687828
 33
0.0
 14
1340.232684984774
 24
341.9463154687828
 34
0.0
 50
90.0
100
AcDbRotatedDimension
1001
GENIUS_GENDTOL_13
1000

1000
h7
1000

1040
0.0
1001
ACAD
1000
DSTYLE
1002
{
1070
    40
1040
2.0
1002
}
  0
DIMENSION
  5
261
330
2
100
AcDbEntity
  8
AM_5
100
AcDbDimension
  2
*D5
 10
1386.232684984774
 20
363.9463154687828
 30
0.0
 11
1379.732684984774
 21
349.546315468783
 31
0.0
  1
<>
 71
     5
 42
8.0
  3
AM_ISO
100
AcDbAlignedDimension
 13
1318.232684984774
 23
371.9463154687828
 33
0.0
 14
1337.232684984774
 24
363.9463154687828
 34
0.0
 50
90.0
100
AcDbRotatedDimension
1001
GENIUS_GENDTOL_13
1000

1000
h7
1000

1040
0.0
1001
ACAD
1000
DSTYLE
1002
{
1070
    40
1040
2.0
1002
}
  0
LINE
  5
270
330
2
100
AcDbEntity
  8
AM_0
100
AcDbLine
 10
1350.232684984775
 20
496.9463154687828
 30
0.0
 11
1350.232684984775
 21
351.9463154687828
 31
0.0
  0
LINE
  5
271
330
2
100
AcDbEntity
  8
AM_0
100
AcDbLine
 10
1253.232684984774
 20
306.9463154687828
 30
0.0
 11
1253.232684984775
 21
541.9463154687828
 31
0.0
  0
DIMENSION
  5
272
102
{ACAD_REACTORS
330
169
102
}
330
2
100
AcDbEntity
  8
AM_5
100
AcDbDimension
  2
*D14
 10
1201.438528576362
 20
319.9463154687828
 30
0.0
 11
1194.937839599984
 21
424.446315468783
 31
0.0
  1
<>
 71
     5
 42
208.9999999999999
  3
AM_ISO
100
AcDbAlignedDimension
 13
1247.432684984775
 23
528.9463154687828
 33
0.0
 14
1247.432684984775
 24
319.9463154687828
 34
0.0
 50
270.0
100
AcDbRotatedDimension
1001
GENIUS_GENDTOL_13
1000

1000
h7
1000

1040
0.0
1001
ACAD
1000
DSTYLE
1002
{
1070
    40
1040
2.0
1002
}
  0
DIMENSION
  5
27F
102
{ACAD_REACTORS
330
169
102
}
330
2
100
AcDbEntity
  8
AM_5
100
AcDbDimension
  2
*D13
 10
1185.438528576362
 20
306.9463154687828
 30
0.0
 11
1178.937839599984
 21
424.446315468783
 31
0.0
  1
<>
 71
     5
 42
235.0
  3
AM_ISO
100
AcDbAlignedDimension
 13
1253.232684984775
 23
541.9463154687828
 33
0.0
 14
1253.232684984774
 24
306.9463154687828
 34
0.0
 50
270.0
100
AcDbRotatedDimension
1001
GENIUS_GENDTOL_13
1000

1000
h7
1000

1040
0.0
1001
ACAD
1000
DSTYLE
1002
{
1070
    40
1040
2.0
1002
}
  0
LINE
  5
28C
330
2
100
AcDbEntity
  8
AM_0
100
AcDbLine
 10
1256.232684984775
 20
306.9463154687828
 30
0.0
 11
1256.232684984775
 21
416.2957015934175
 31
0.0
  0
LINE
  5
28D
330
2
100
AcDbEntity
  8
AM_3
100
AcDbLine
 10
1318.232684984774
 20
380.5463154687828
 30
0.0
 11
1318.232684984774
 21
347.5463154687828
 31
0.0
  0
LINE
  5
28E
330
2
100
AcDbEntity
  8
AM_0
100
AcDbLine
 10
1467.821833014143
 20
318.946315468783
 30
0.0
 11
1467.821833014143
 21
496.8472966674768
 31
0.0
  0
LINE
  5
28F
330
2
100
AcDbEntity
  8
AM_0
100
AcDbLine
 10
1491.821833014143
 20
529.9463154687828
 30
0.0
 11
1491.821833014143
 21
501.6966688107355
 31
0.0
  0
CIRCLE
  5
290
330
2
100
AcDbEntity
  8
AM_0
100
AcDbCircle
 10
1479.121833014142
 20
352.946315468783
 30
0.0
 40
5.0
  0
CIRCLE
  5
291
330
2
100
AcDbEntity
  8
AM_0
100
AcDbCircle
 10
1479.121833014142
 20
352.946315468783
 30
0.0
 40
3.75
  0
ENDSEC
  0
SECTION
  2
OBJECTS
  0
DICTIONARY
  5
8
330
0
100
AcDbDictionary
281
     1
  3
ACAD_COLOR
350
40
  3
ACAD_GROUP
350
2D
  3
ACAD_LAYOUT
350
15
  3
ACAD_MATERIAL
350
A
  3
ACAD_MLINESTYLE
350
2E
  3
ACAD_PLOTSETTINGS
350
2F
  3
ACAD_PLOTSTYLENAME
350
7
  3
ACAD_SCALELIST
350
41
  3
ACAD_TABLESTYLE
350
42
  3
ACAD_VISUALSTYLE
350
18
  3
ACDB_RECOMPOSE_DATA
350
2FF
  3
AcDbVariableDictionary
350
2F6
  3
AcmDictionary
350
2A3
  3
AMG
350
293
  0
DICTIONARY
  5
3
330
2
100
AcDbDictionary
280
     1
281
     1
  0
DICTIONARY
  5
168
330
167
100
AcDbDictionary
280
     1
281
     1
  3
ACMDIMBREAKPERSREACTOR
360
169
  0
DICTIONARY
  5
1B1
330
1B0
100
AcDbDictionary
280
     1
281
     1
  3
ACMDIMBREAKPERSREACTOR
360
1B2
  0
DICTIONARY
  5
40
102
{ACAD_REACTORS
330
8
102
}
330
8
100
AcDbDictionary
281
     1
  0
DICTIONARY
  5
2D
102
{ACAD_REACTORS
330
8
102
}
330
8
100
AcDbDictionary
281
     1
  0
DICTIONARY
  5
15
102
{ACAD_REACTORS
330
8
102
}
330
8
100
AcDbDictionary
281
     1
  3
Layout1
350
1C
  3
Model
350
14
  0
DICTIONARY
  5
A
102
{ACAD_REACTORS
330
8
102
}
330
8
100
AcDbDictionary
281
     1
  3
ByBlock
350
38
  3
ByLayer
350
30
  3
Global
350
9
  0
DICTIONARY
  5
2E
102
{ACAD_REACTORS
330
8
102
}
330
8
100
AcDbDictionary
281
     1
  3
Standard
350
45
  0
DICTIONARY
  5
2F
102
{ACAD_REACTORS
330
8
102
}
330
8
100
AcDbDictionary
281
     1
  0
ACDBDICTIONARYWDFLT
  5
7
102
{ACAD_REACTORS
330
8
102
}
330
8
100
AcDbDictionary
281
     1
  3
Normal
350
6
100
AcDbDictionaryWithDefault
340
6
  0
DICTIONARY
  5
41
102
{ACAD_REACTORS
330
8
102
}
330
8
100
AcDbDictionary
281
     1
  3
A0
350
49
  3
A1
350
4A
  3
A2
350
4B
  3
A3
350
4C
  3
A4
350
4D
  3
A5
350
4E
  3
A6
350
4F
  3
A7
350
50
  3
A8
350
51
  3
A9
350
52
  3
B0
350
53
  3
B1
350
54
  3
B2
350
55
  3
B3
350
56
  3
B4
350
57
  3
B5
350
58
  3
B6
350
59
  3
B7
350
5A
  3
B8
350
5B
  3
B9
350
5C
  3
C0
350
5D
  3
C1
350
5E
  3
C2
350
5F
  3
C3
350
60
  3
C4
350
61
  3
C5
350
62
  3
C6
350
63
  3
C7
350
64
  3
C8
350
65
  3
C9
350
66
  3
D0
350
67
  3
D1
350
68
  3
D2
350
69
  0
DICTIONARY
  5
42
102
{ACAD_REACTORS
330
8
102
}
330
8
100
AcDbDictionary
281
     1
  3
Standard
350
46
  0
DICTIONARY
  5
18
102
{ACAD_REACTORS
330
8
102
}
330
8
100
AcDbDictionary
281
     1
  3
2dWireframe
350
17
  3
3dWireframe
350
48
  3
Realistic
350
47
  0
XRECORD
  5
2FF
102
{ACAD_REACTORS
330
8
102
}
330
8
100
AcDbXrecord
280
     1
 90
        1
330
46
  0
DICTIONARY
  5
2F6
102
{ACAD_REACTORS
330
8
102
}
330
8
100
AcDbDictionary
281
     1
  3
CANNOSCALE
350
2FA
  3
CMLEADERSTYLE
350
2F8
  3
CTABLESTYLE
350
2F7
  3
MSLTSCALE
350
2F9
  0
DICTIONARY
  5
2A3
102
{ACAD_REACTORS
330
8
102
}
330
8
100
AcDbDictionary
281
     1
  3
AcmStdDictionary
350
2A4
  0
DICTIONARY
  5
293
102
{ACAD_REACTORS
330
8
102
}
330
8
100
AcDbDictionary
281
     1
  3
AcMgSettings
350
29C
  0
LAYOUT
  5
1C
102
{ACAD_REACTORS
330
15
102
}
330
15
100
AcDbPlotSettings
  1

  2
C:\Programme\Acadm2000\plotters\DWF Classic.pc3
  4

  6

 40
0.0
 41
0.0
 42
0.0
 43
0.0
 44
0.0
 45
0.0
 46
0.0
 47
0.0
 48
0.0
 49
0.0
140
0.0
141
0.0
142
1.0
143
1.0
 70
   688
 72
     0
 73
     0
 74
     5
  7
BMH monochrome06032003.ctb
 75
    16
147
1.0
 76
     0
 77
     2
 78
   300
148
0.0
149
0.0
100
AcDbLayout
  1
Layout1
 70
     1
 71
     1
 10
0.0
 20
0.0
 11
420.0
 21
297.0
 12
0.0
 22
0.0
 32
0.0
 14
1.000000000000000E+20
 24
1.000000000000000E+20
 34
1.000000000000000E+20
 15
-1.000000000000000E+20
 25
-1.000000000000000E+20
 35
-1.000000000000000E+20
146
0.0
 13
0.0
 23
0.0
 33
0.0
 16
1.0
 26
0.0
 36
0.0
 17
0.0
 27
1.0
 37
0.0
 76
     0
330
19
  0
LAYOUT
  5
14
102
{ACAD_REACTORS
330
15
102
}
330
15
100
AcDbPlotSettings
  1

  2
Canon Office Color N2000.pc3
  4
A4
  6
AM_VIEW1
 40
5.0
 41
5.0
 42
5.97332763671875
 43
5.925994873046875
 44
209.9733276367187
 45
296.9259948730469
 46
6.0
 47
0.0
 48
1154.557619623103
 49
45.58620719906605
140
1534.557619623103
141
609.586207199066
142
1.0
143
1.972027972027971
 70
 11952
 72
     1
 73
     0
 74
     4
  7
BMH monochrome06032003.ctb
 75
     0
147
0.5070921985815603
 76
     0
 77
     2
 78
   300
148
-1154.557619623103
149
-45.58620719906605
100
AcDbLayout
  1
Model
 70
     1
 71
     0
 10
0.0
 20
0.0
 11
12.0
 21
9.0
 12
0.0
 22
0.0
 32
0.0
 14
0.0
 24
0.0
 34
0.0
 15
0.0
 25
0.0
 35
0.0
146
0.0
 13
0.0
 23
0.0
 33
0.0
 16
1.0
 26
0.0
 36
0.0
 17
0.0
 27
1.0
 37
0.0
 76
     0
330
2
  0
MATERIAL
  5
38
102
{ACAD_XDICTIONARY
360
39
102
}
102
{ACAD_REACTORS
330
A
102
}
330
A
100
AcDbMaterial
  1
ByBlock
 72
     0
 43
0.0008202099737533
 43
0.0
 43
0.0
 43
0.0
 43
0.0
 43
0.0008202099737533
 43
0.0
 43
0.0
 43
0.0
 43
0.0
 43
1.0
 43
0.0
 43
0.0
 43
0.0
 43
0.0
 43
1.0
 77
     0
 47
0.0008202099737533
 47
0.0
 47
0.0
 47
0.0
 47
0.0
 47
0.0008202099737533
 47
0.0
 47
0.0
 47
0.0
 47
0.0
 47
1.0
 47
0.0
 47
0.0
 47
0.0
 47
0.0
 47
1.0
171
     0
 49
0.0008202099737533
 49
0.0
 49
0.0
 49
0.0
 49
0.0
 49
0.0008202099737533
 49
0.0
 49
0.0
 49
0.0
 49
0.0
 49
1.0
 49
0.0
 49
0.0
 49
0.0
 49
0.0
 49
1.0
175
     0
142
0.0008202099737533
142
0.0
142
0.0
142
0.0
142
0.0
142
0.0008202099737533
142
0.0
142
0.0
142
0.0
142
0.0
142
1.0
142
0.0
142
0.0
142
0.0
142
0.0
142
1.0
179
     0
144
0.0008202099737533
144
0.0
144
0.0
144
0.0
144
0.0
144
0.0008202099737533
144
0.0
144
0.0
144
0.0
144
0.0
144
1.0
144
0.0
144
0.0
144
0.0
144
0.0
144
1.0
147
0.0008202099737533
147
0.0
147
0.0
147
0.0
147
0.0
147
0.0008202099737533
147
0.0
147
0.0
147
0.0
147
0.0
147
1.0
147
0.0
147
0.0
147
0.0
147
0.0
147
1.0
  0
MATERIAL
  5
30
102
{ACAD_XDICTIONARY
360
31
102
}
102
{ACAD_REACTORS
330
A
102
}
330
A
100
AcDbMaterial
  1
ByLayer
 72
     0
 43
0.0008202099737533
 43
0.0
 43
0.0
 43
0.0
 43
0.0
 43
0.0008202099737533
 43
0.0
 43
0.0
 43
0.0
 43
0.0
 43
1.0
 43
0.0
 43
0.0
 43
0.0
 43
0.0
 43
1.0
 77
     0
 47
0.0008202099737533
 47
0.0
 47
0.0
 47
0.0
 47
0.0
 47
0.0008202099737533
 47
0.0
 47
0.0
 47
0.0
 47
0.0
 47
1.0
 47
0.0
 47
0.0
 47
0.0
 47
0.0
 47
1.0
171
     0
 49
0.0008202099737533
 49
0.0
 49
0.0
 49
0.0
 49
0.0
 49
0.0008202099737533
 49
0.0
 49
0.0
 49
0.0
 49
0.0
 49
1.0
 49
0.0
 49
0.0
 49
0.0
 49
0.0
 49
1.0
175
     0
142
0.0008202099737533
142
0.0
142
0.0
142
0.0
142
0.0
142
0.0008202099737533
142
0.0
142
0.0
142
0.0
142
0.0
142
1.0
142
0.0
142
0.0
142
0.0
142
0.0
142
1.0
179
     0
144
0.0008202099737533
144
0.0
144
0.0
144
0.0
144
0.0
144
0.0008202099737533
144
0.0
144
0.0
144
0.0
144
0.0
144
1.0
144
0.0
144
0.0
144
0.0
144
0.0
144
1.0
147
0.0008202099737533
147
0.0
147
0.0
147
0.0
147
0.0
147
0.0008202099737533
147
0.0
147
0.0
147
0.0
147
0.0
147
1.0
147
0.0
147
0.0
147
0.0
147
0.0
147
1.0
  0
MATERIAL
  5
9
102
{ACAD_XDICTIONARY
360
B
102
}
102
{ACAD_REACTORS
330
A
102
}
330
A
100
AcDbMaterial
  1
Global
 72
     0
 43
0.0008202099737533
 43
0.0
 43
0.0
 43
0.0
 43
0.0
 43
0.0008202099737533
 43
0.0
 43
0.0
 43
0.0
 43
0.0
 43
1.0
 43
0.0
 43
0.0
 43
0.0
 43
0.0
 43
1.0
 77
     0
 47
0.0008202099737533
 47
0.0
 47
0.0
 47
0.0
 47
0.0
 47
0.0008202099737533
 47
0.0
 47
0.0
 47
0.0
 47
0.0
 47
1.0
 47
0.0
 47
0.0
 47
0.0
 47
0.0
 47
1.0
171
     0
 49
0.0008202099737533
 49
0.0
 49
0.0
 49
0.0
 49
0.0
 49
0.0008202099737533
 49
0.0
 49
0.0
 49
0.0
 49
0.0
 49
1.0
 49
0.0
 49
0.0
 49
0.0
 49
0.0
 49
1.0
175
     0
142
0.0008202099737533
142
0.0
142
0.0
142
0.0
142
0.0
142
0.0008202099737533
142
0.0
142
0.0
142
0.0
142
0.0
142
1.0
142
0.0
142
0.0
142
0.0
142
0.0
142
1.0
179
     0
144
0.0008202099737533
144
0.0
144
0.0
144
0.0
144
0.0
144
0.0008202099737533
144
0.0
144
0.0
144
0.0
144
0.0
144
1.0
144
0.0
144
0.0
144
0.0
144
0.0
144
1.0
147
0.0008202099737533
147
0.0
147
0.0
147
0.0
147
0.0
147
0.0008202099737533
147
0.0
147
0.0
147
0.0
147
0.0
147
1.0
147
0.0
147
0.0
147
0.0
147
0.0
147
1.0
  0
MLINESTYLE
  5
45
102
{ACAD_REACTORS
330
2E
102
}
330
2E
100
AcDbMlineStyle
  2
STANDARD
 70
     0
  3

 62
   256
 51
90.0
 52
90.0
 71
     2
 49
0.5
 62
   256
  6
BYLAYER
 49
-0.5
 62
   256
  6
BYLAYER
  0
ACDBPLACEHOLDER
  5
6
102
{ACAD_REACTORS
330
7
102
}
330
7
  0
SCALE
  5
49
102
{ACAD_REACTORS
330
41
102
}
330
41
100
AcDbScale
 70
     0
300
1:1
140
1.0
141
1.0
290
     1
  0
SCALE
  5
4A
102
{ACAD_REACTORS
330
41
102
}
330
41
100
AcDbScale
 70
     0
300
1:2
140
1.0
141
2.0
290
     0
  0
SCALE
  5
4B
102
{ACAD_REACTORS
330
41
102
}
330
41
100
AcDbScale
 70
     0
300
1:4
140
1.0
141
4.0
290
     0
  0
SCALE
  5
4C
102
{ACAD_REACTORS
330
41
102
}
330
41
100
AcDbScale
 70
     0
300
1:5
140
1.0
141
5.0
290
     0
  0
SCALE
  5
4D
102
{ACAD_REACTORS
330
41
102
}
330
41
100
AcDbScale
 70
     0
300
1:8
140
1.0
141
8.0
290
     0
  0
SCALE
  5
4E
102
{ACAD_REACTORS
330
41
102
}
330
41
100
AcDbScale
 70
     0
300
1:10
140
1.0
141
10.0
290
     0
  0
SCALE
  5
4F
102
{ACAD_REACTORS
330
41
102
}
330
41
100
AcDbScale
 70
     0
300
1:16
140
1.0
141
16.0
290
     0
  0
SCALE
  5
50
102
{ACAD_REACTORS
330
41
102
}
330
41
100
AcDbScale
 70
     0
300
1:20
140
1.0
141
20.0
290
     0
  0
SCALE
  5
51
102
{ACAD_REACTORS
330
41
102
}
330
41
100
AcDbScale
 70
     0
300
1:30
140
1.0
141
30.0
290
     0
  0
SCALE
  5
52
102
{ACAD_REACTORS
330
41
102
}
330
41
100
AcDbScale
 70
     0
300
1:40
140
1.0
141
40.0
290
     0
  0
SCALE
  5
53
102
{ACAD_REACTORS
330
41
102
}
330
41
100
AcDbScale
 70
     0
300
1:50
140
1.0
141
50.0
290
     0
  0
SCALE
  5
54
102
{ACAD_REACTORS
330
41
102
}
330
41
100
AcDbScale
 70
     0
300
1:100
140
1.0
141
100.0
290
     0
  0
SCALE
  5
55
102
{ACAD_REACTORS
330
41
102
}
330
41
100
AcDbScale
 70
     0
300
2:1
140
2.0
141
1.0
290
     0
  0
SCALE
  5
56
102
{ACAD_REACTORS
330
41
102
}
330
41
100
AcDbScale
 70
     0
300
4:1
140
4.0
141
1.0
290
     0
  0
SCALE
  5
57
102
{ACAD_REACTORS
330
41
102
}
330
41
100
AcDbScale
 70
     0
300
8:1
140
8.0
141
1.0
290
     0
  0
SCALE
  5
58
102
{ACAD_REACTORS
330
41
102
}
330
41
100
AcDbScale
 70
     0
300
10:1
140
10.0
141
1.0
290
     0
  0
SCALE
  5
59
102
{ACAD_REACTORS
330
41
102
}
330
41
100
AcDbScale
 70
     0
300
100:1
140
100.0
141
1.0
290
     0
  0
SCALE
  5
5A
102
{ACAD_REACTORS
330
41
102
}
330
41
100
AcDbScale
 70
     0
300
1/128" = 1'-0"
140
0.0078125
141
12.0
290
     0
  0
SCALE
  5
5B
102
{ACAD_REACTORS
330
41
102
}
330
41
100
AcDbScale
 70
     0
300
1/64" = 1'-0"
140
0.015625
141
12.0
290
     0
  0
SCALE
  5
5C
102
{ACAD_REACTORS
330
41
102
}
330
41
100
AcDbScale
 70
     0
300
1/32" = 1'-0"
140
0.03125
141
12.0
290
     0
  0
SCALE
  5
5D
102
{ACAD_REACTORS
330
41
102
}
330
41
100
AcDbScale
 70
     0
300
1/16" = 1'-0"
140
0.0625
141
12.0
290
     0
  0
SCALE
  5
5E
102
{ACAD_REACTORS
330
41
102
}
330
41
100
AcDbScale
 70
     0
300
3/32" = 1'-0"
140
0.09375
141
12.0
290
     0
  0
SCALE
  5
5F
102
{ACAD_REACTORS
330
41
102
}
330
41
100
AcDbScale
 70
     0
300
1/8" = 1'-0"
140
0.125
141
12.0
290
     0
  0
SCALE
  5
60
102
{ACAD_REACTORS
330
41
102
}
330
41
100
AcDbScale
 70
     0
300
3/16" = 1'-0"
140
0.1875
141
12.0
290
     0
  0
SCALE
  5
61
102
{ACAD_REACTORS
330
41
102
}
330
41
100
AcDbScale
 70
     0
300
1/4" = 1'-0"
140
0.25
141
12.0
290
     0
  0
SCALE
  5
62
102
{ACAD_REACTORS
330
41
102
}
330
41
100
AcDbScale
 70
     0
300
3/8" = 1'-0"
140
0.375
141
12.0
290
     0
  0
SCALE
  5
63
102
{ACAD_REACTORS
330
41
102
}
330
41
100
AcDbScale
 70
     0
300
1/2" = 1'-0"
140
0.5
141
12.0
290
     0
  0
SCALE
  5
64
102
{ACAD_REACTORS
330
41
102
}
330
41
100
AcDbScale
 70
     0
300
3/4" = 1'-0"
140
0.75
141
12.0
290
     0
  0
SCALE
  5
65
102
{ACAD_REACTORS
330
41
102
}
330
41
100
AcDbScale
 70
     0
300
1" = 1'-0"
140
1.0
141
12.0
290
     0
  0
SCALE
  5
66
102
{ACAD_REACTORS
330
41
102
}
330
41
100
AcDbScale
 70
     0
300
1-1/2" = 1'-0"
140
1.5
141
12.0
290
     0
  0
SCALE
  5
67
102
{ACAD_REACTORS
330
41
102
}
330
41
100
AcDbScale
 70
     0
300
3" = 1'-0"
140
3.0
141
12.0
290
     0
  0
SCALE
  5
68
102
{ACAD_REACTORS
330
41
102
}
330
41
100
AcDbScale
 70
     0
300
6" = 1'-0"
140
6.0
141
12.0
290
     0
  0
SCALE
  5
69
102
{ACAD_REACTORS
330
41
102
}
330
41
100
AcDbScale
 70
     0
300
1'-0" = 1'-0"
140
12.0
141
12.0
290
     0
  0
TABLESTYLE
  5
46
102
{ACAD_XDICTIONARY
360
2FB
102
}
102
{ACAD_REACTORS
330
42
102
}
330
42
100
AcDbTableStyle
  3
Standard
 70
     0
 71
     0
 40
1.5
 41
1.5
280
     0
281
     0
  7
STANDARD
140
4.5
170
     2
 62
     0
 63
     7
283
     0
274
    -2
284
     1
 64
     0
275
    -2
285
     1
 65
     0
276
    -2
286
     1
 66
     0
277
    -2
287
     1
 67
     0
278
    -2
288
     1
 68
     0
279
    -2
289
     1
 69
     0
  7
STANDARD
140
6.0
170
     5
 62
     0
 63
     7
283
     0
274
    -2
284
     1
 64
     0
275
    -2
285
     1
 65
     0
276
    -2
286
     1
 66
     0
277
    -2
287
     1
 67
     0
278
    -2
288
     1
 68
     0
279
    -2
289
     1
 69
     0
  7
STANDARD
140
4.5
170
     5
 62
     0
 63
     7
283
     0
274
    -2
284
     1
 64
     0
275
    -2
285
     1
 65
     0
276
    -2
286
     1
 66
     0
277
    -2
287
     1
 67
     0
278
    -2
288
     1
 68
     0
279
    -2
289
     1
 69
     0
  0
VISUALSTYLE
  5
17
102
{ACAD_REACTORS
330
18
102
}
330
18
100
AcDbVisualStyle
  2
2dWireframe
 70
     4
 71
     0
 72
     2
 73
     0
 90
        0
 40
-0.6
 41
-30.0
 62
     5
 63
     7
421
 16777215
 74
     1
 91
        4
 64
     7
 65
   257
 75
     1
175
     1
 42
1.0
 92
        0
 66
   257
 43
1.0
 76
     1
 77
     6
 78
     2
 67
     7
 79
     5
170
     0
171
     0
290
     0
174
     0
 93
        1
 44
0.0
173
     0
291
     0
 45
0.0
1001
ACAD
1000
AcDbSavedByObjectVersion
1070
     0
  0
VISUALSTYLE
  5
48
102
{ACAD_REACTORS
330
18
102
}
330
18
100
AcDbVisualStyle
  2
3dWireframe
 70
     5
 71
     0
 72
     2
 73
     0
 90
        0
 40
-0.6
 41
-30.0
 62
     5
 63
     7
421
 16777215
 74
     1
 91
        4
 64
     7
 65
   257
 75
     1
175
     1
 42
1.0
 92
        0
 66
   257
 43
1.0
 76
     1
 77
     6
 78
     2
 67
     7
 79
     5
170
     0
171
     0
290
     0
174
     0
 93
        1
 44
0.0
173
     0
291
     0
 45
0.0
1001
ACAD
1000
AcDbSavedByObjectVersion
1070
     0
  0
VISUALSTYLE
  5
47
102
{ACAD_REACTORS
330
18
102
}
330
18
100
AcDbVisualStyle
  2
Realistic
 70
     8
 71
     2
 72
     2
 73
     0
 90
        0
 40
-0.6
 41
-30.0
 62
     5
 63
     7
421
 16777215
 74
     1
 91
        0
 64
     7
 65
   257
 75
     1
175
     1
 42
1.0
 92
        8
 66
     8
424
  7895160
 43
1.0
 76
     1
 77
     6
 78
     2
 67
     7
 79
     5
170
     0
171
     0
290
     0
174
     0
 93
       13
 44
0.0
173
     0
291
     0
 45
0.0
1001
ACAD
1000
AcDbSavedByObjectVersion
1070
     0
  0
DICTIONARYVAR
  5
2FA
102
{ACAD_REACTORS
330
2F6
102
}
330
2F6
100
DictionaryVariables
280
     0
  1
1:1
  0
DICTIONARYVAR
  5
2F8
102
{ACAD_REACTORS
330
2F6
102
}
330
2F6
100
DictionaryVariables
280
     0
  1
STANDARD
  0
DICTIONARYVAR
  5
2F7
102
{ACAD_REACTORS
330
2F6
102
}
330
2F6
100
DictionaryVariables
280
     0
  1
STANDARD
  0
DICTIONARYVAR
  5
2F9
102
{ACAD_REACTORS
330
2F6
102
}
330
2F6
100
DictionaryVariables
280
     0
  1
1
  0
DICTIONARY
  5
2A4
102
{ACAD_REACTORS
330
2A3
102
}
330
2A3
100
AcDbDictionary
281
     1
  0
DICTIONARY
  5
29C
102
{ACAD_REACTORS
330
293
102
}
330
293
100
AcDbDictionary
281
     1
  3
DWGSETTINGS
350
29B
  3
FEM
350
29D
  3
Shaft
350
29E
  3
TRANSSETTINGS
350
29F
  0
DICTIONARY
  5
39
330
38
100
AcDbDictionary
280
     1
281
     1
  3
ACAD_XREC_ROUNDTRIP
360
302
  3
BUMPTILE
360
3A
  3
DIFFUSETILE
360
3B
  3
OPACITYTILE
360
3C
  3
REFLECTIONTILE
360
3D
  3
REFRACTIONTILE
360
3E
  3
SPECULARTILE
360
3F
  0
DICTIONARY
  5
31
330
30
100
AcDbDictionary
280
     1
281
     1
  3
ACAD_XREC_ROUNDTRIP
360
301
  3
BUMPTILE
360
32
  3
DIFFUSETILE
360
33
  3
OPACITYTILE
360
34
  3
REFLECTIONTILE
360
35
  3
REFRACTIONTILE
360
36
  3
SPECULARTILE
360
37
  0
DICTIONARY
  5
B
330
9
100
AcDbDictionary
280
     1
281
     1
  3
ACAD_XREC_ROUNDTRIP
360
300
  3
BUMPTILE
360
C
  3
DIFFUSETILE
360
D
  3
OPACITYTILE
360
E
  3
REFLECTIONTILE
360
F
  3
REFRACTIONTILE
360
10
  3
SPECULARTILE
360
11
  0
DICTIONARY
  5
2FB
330
46
100
AcDbDictionary
280
     1
281
     1
  3
ACAD_ROUNDTRIP_2008_TABLESTYLE_CELLSTYLEMAP
360
2FC
  3
ACAD_XREC_ROUNDTRIP
360
303
  0
XRECORD
  5
302
102
{ACAD_REACTORS
330
39
102
}
330
39
100
AcDbXrecord
280
     1
102
MATERIAL
148
0.0
149
0.0
149
0.0
 93
        0
 94
      127
282
     0
 72
     0
 77
     0
171
     0
175
     0
179
     0
273
     0
  0
XRECORD
  5
3A
102
{ACAD_REACTORS
330
39
102
}
330
39
100
AcDbXrecord
280
     1
270
     1
271
     1
  0
XRECORD
  5
3B
102
{ACAD_REACTORS
330
39
102
}
330
39
100
AcDbXrecord
280
     1
270
     1
271
     1
  0
XRECORD
  5
3C
102
{ACAD_REACTORS
330
39
102
}
330
39
100
AcDbXrecord
280
     1
270
     1
271
     1
  0
XRECORD
  5
3D
102
{ACAD_REACTORS
330
39
102
}
330
39
100
AcDbXrecord
280
     1
270
     1
271
     1
  0
XRECORD
  5
3E
102
{ACAD_REACTORS
330
39
102
}
330
39
100
AcDbXrecord
280
     1
270
     1
271
     1
  0
XRECORD
  5
3F
102
{ACAD_REACTORS
330
39
102
}
330
39
100
AcDbXrecord
280
     1
270
     1
271
     1
  0
XRECORD
  5
301
102
{ACAD_REACTORS
330
31
102
}
330
31
100
AcDbXrecord
280
     1
102
MATERIAL
148
0.0
149
0.0
149
0.0
 93
        0
 94
      127
282
     0
 72
     0
 77
     0
171
     0
175
     0
179
     0
273
     0
  0
XRECORD
  5
32
102
{ACAD_REACTORS
330
31
102
}
330
31
100
AcDbXrecord
280
     1
270
     1
271
     1
  0
XRECORD
  5
33
102
{ACAD_REACTORS
330
31
102
}
330
31
100
AcDbXrecord
280
     1
270
     1
271
     1
  0
XRECORD
  5
34
102
{ACAD_REACTORS
330
31
102
}
330
31
100
AcDbXrecord
280
     1
270
     1
271
     1
  0
XRECORD
  5
35
102
{ACAD_REACTORS
330
31
102
}
330
31
100
AcDbXrecord
280
     1
270
     1
271
     1
  0
XRECORD
  5
36
102
{ACAD_REACTORS
330
31
102
}
330
31
100
AcDbXrecord
280
     1
270
     1
271
     1
  0
XRECORD
  5
37
102
{ACAD_REACTORS
330
31
102
}
330
31
100
AcDbXrecord
280
     1
270
     1
271
     1
  0
XRECORD
  5
300
102
{ACAD_REACTORS
330
B
102
}
330
B
100
AcDbXrecord
280
     1
102
MATERIAL
148
0.0
149
0.0
149
0.0
 93
        0
 94
      127
282
     0
 72
     0
 77
     0
171
     0
175
     0
179
     0
273
     0
  0
XRECORD
  5
C
102
{ACAD_REACTORS
330
B
102
}
330
B
100
AcDbXrecord
280
     1
270
     1
271
     1
  0
XRECORD
  5
D
102
{ACAD_REACTORS
330
B
102
}
330
B
100
AcDbXrecord
280
     1
270
     1
271
     1
  0
XRECORD
  5
E
102
{ACAD_REACTORS
330
B
102
}
330
B
100
AcDbXrecord
280
     1
270
     1
271
     1
  0
XRECORD
  5
F
102
{ACAD_REACTORS
330
B
102
}
330
B
100
AcDbXrecord
280
     1
270
     1
271
     1
  0
XRECORD
  5
10
102
{ACAD_REACTORS
330
B
102
}
330
B
100
AcDbXrecord
280
     1
270
     1
271
     1
  0
XRECORD
  5
11
102
{ACAD_REACTORS
330
B
102
}
330
B
100
AcDbXrecord
280
     1
270
     1
271
     1
  0
CELLSTYLEMAP
  5
2FC
102
{ACAD_REACTORS
330
2FB
102
}
330
2FB
100
AcDbCellStyleMap
 90
        3
300
CELLSTYLE
  1
TABLEFORMAT_BEGIN
 90
        5
170
     1
 91
        0
 92
    32768
 62
   257
 93
        1
300
CONTENTFORMAT
  1
CONTENTFORMAT_BEGIN
 90
        0
 91
        0
 92
      512
 93
        0
300

 40
0.0
140
1.0
 94
        5
 62
     0
340
1F
144
6.0
309
CONTENTFORMAT_END
171
     1
301
MARGIN
  1
CELLMARGIN_BEGIN
 40
1.5
 40
1.5
 40
1.5
 40
1.5
 40
4.5
 40
4.5
309
CELLMARGIN_END
 94
        6
 95
        1
302
GRIDFORMAT
  1
GRIDFORMAT_BEGIN
 90
        0
 91
        1
 62
     0
 92
       -2
340
0
 93
        0
 40
1.125
309
GRIDFORMAT_END
 95
        2
302
GRIDFORMAT
  1
GRIDFORMAT_BEGIN
 90
        0
 91
        1
 62
     0
 92
       -2
340
0
 93
        0
 40
1.125
309
GRIDFORMAT_END
 95
        4
302
GRIDFORMAT
  1
GRIDFORMAT_BEGIN
 90
        0
 91
        1
 62
     0
 92
       -2
340
0
 93
        0
 40
1.125
309
GRIDFORMAT_END
 95
        8
302
GRIDFORMAT
  1
GRIDFORMAT_BEGIN
 90
        0
 91
        1
 62
     0
 92
       -2
340
0
 93
        0
 40
1.125
309
GRIDFORMAT_END
 95
       16
302
GRIDFORMAT
  1
GRIDFORMAT_BEGIN
 90
        0
 91
        1
 62
     0
 92
       -2
340
0
 93
        0
 40
1.125
309
GRIDFORMAT_END
 95
       32
302
GRIDFORMAT
  1
GRIDFORMAT_BEGIN
 90
        0
 91
        1
 62
     0
 92
       -2
340
0
 93
        0
 40
1.125
309
GRIDFORMAT_END
309
TABLEFORMAT_END
  1
CELLSTYLE_BEGIN
 90
        1
 91
        1
300
_TITLE
309
CELLSTYLE_END
300
CELLSTYLE
  1
TABLEFORMAT_BEGIN
 90
        5
170
     1
 91
        0
 92
        0
 62
   257
 93
        1
300
CONTENTFORMAT
  1
CONTENTFORMAT_BEGIN
 90
        0
 91
        0
 92
      512
 93
        0
300

 40
0.0
140
1.0
 94
        5
 62
     0
340
1F
144
4.5
309
CONTENTFORMAT_END
171
     1
301
MARGIN
  1
CELLMARGIN_BEGIN
 40
1.5
 40
1.5
 40
1.5
 40
1.5
 40
4.5
 40
4.5
309
CELLMARGIN_END
 94
        6
 95
        1
302
GRIDFORMAT
  1
GRIDFORMAT_BEGIN
 90
        0
 91
        1
 62
     0
 92
       -2
340
0
 93
        0
 40
1.125
309
GRIDFORMAT_END
 95
        2
302
GRIDFORMAT
  1
GRIDFORMAT_BEGIN
 90
        0
 91
        1
 62
     0
 92
       -2
340
0
 93
        0
 40
1.125
309
GRIDFORMAT_END
 95
        4
302
GRIDFORMAT
  1
GRIDFORMAT_BEGIN
 90
        0
 91
        1
 62
     0
 92
       -2
340
0
 93
        0
 40
1.125
309
GRIDFORMAT_END
 95
        8
302
GRIDFORMAT
  1
GRIDFORMAT_BEGIN
 90
        0
 91
        1
 62
     0
 92
       -2
340
0
 93
        0
 40
1.125
309
GRIDFORMAT_END
 95
       16
302
GRIDFORMAT
  1
GRIDFORMAT_BEGIN
 90
        0
 91
        1
 62
     0
 92
       -2
340
0
 93
        0
 40
1.125
309
GRIDFORMAT_END
 95
       32
302
GRIDFORMAT
  1
GRIDFORMAT_BEGIN
 90
        0
 91
        1
 62
     0
 92
       -2
340
0
 93
        0
 40
1.125
309
GRIDFORMAT_END
309
TABLEFORMAT_END
  1
CELLSTYLE_BEGIN
 90
        2
 91
        1
300
_HEADER
309
CELLSTYLE_END
300
CELLSTYLE
  1
TABLEFORMAT_BEGIN
 90
        5
170
     1
 91
        0
 92
        0
 62
   257
 93
        1
300
CONTENTFORMAT
  1
CONTENTFORMAT_BEGIN
 90
        0
 91
        0
 92
      512
 93
        0
300

 40
0.0
140
1.0
 94
        2
 62
     0
340
1F
144
4.5
309
CONTENTFORMAT_END
171
     1
301
MARGIN
  1
CELLMARGIN_BEGIN
 40
1.5
 40
1.5
 40
1.5
 40
1.5
 40
4.5
 40
4.5
309
CELLMARGIN_END
 94
        6
 95
        1
302
GRIDFORMAT
  1
GRIDFORMAT_BEGIN
 90
        0
 91
        1
 62
     0
 92
       -2
340
0
 93
        0
 40
1.125
309
GRIDFORMAT_END
 95
        2
302
GRIDFORMAT
  1
GRIDFORMAT_BEGIN
 90
        0
 91
        1
 62
     0
 92
       -2
340
0
 93
        0
 40
1.125
309
GRIDFORMAT_END
 95
        4
302
GRIDFORMAT
  1
GRIDFORMAT_BEGIN
 90
        0
 91
        1
 62
     0
 92
       -2
340
0
 93
        0
 40
1.125
309
GRIDFORMAT_END
 95
        8
302
GRIDFORMAT
  1
GRIDFORMAT_BEGIN
 90
        0
 91
        1
 62
     0
 92
       -2
340
0
 93
        0
 40
1.125
309
GRIDFORMAT_END
 95
       16
302
GRIDFORMAT
  1
GRIDFORMAT_BEGIN
 90
        0
 91
        1
 62
     0
 92
       -2
340
0
 93
        0
 40
1.125
309
GRIDFORMAT_END
 95
       32
302
GRIDFORMAT
  1
GRIDFORMAT_BEGIN
 90
        0
 91
        1
 62
     0
 92
       -2
340
0
 93
        0
 40
1.125
309
GRIDFORMAT_END
309
TABLEFORMAT_END
  1
CELLSTYLE_BEGIN
 90
        3
 91
        2
300
_DATA
309
CELLSTYLE_END
  0
XRECORD
  5
303
102
{ACAD_REACTORS
330
2FB
102
}
330
2FB
100
AcDbXrecord
280
     1
102
ACAD_ROUNDTRIP_PRE2007_TABLESTYLE
 90
      512
 91
        0
  1

 92
      512
 93
        0
  2

 94
      512
 95
        0
  3

  0
ENDSEC
  0
EOF
