  0
SECTION
  2
HEADER
  9
$ACADVER
  1
AC1015
  9
$ACADMAINTVER
 70
     6
  9
$DWGCODEPAGE
  3
ANSI_1252
  9
$INSBASE
 10
0.0
 20
0.0
 30
0.0
  9
$EXTMIN
 10
0.0
 20
0.0
 30
0.0
  9
$EXTMAX
 10
215.9
 20
279.4
 30
0.0
  9
$LIMMIN
 10
0.0
 20
0.0
  9
$LIMMAX
 10
215.9
 20
279.4
  9
$ORTHOMODE
 70
     0
  9
$REGENMODE
 70
     1
  9
$FILLMODE
 70
     1
  9
$QTEXTMODE
 70
     0
  9
$MIRRTEXT
 70
     1
  9
$LTSCALE
 40
1.0
  9
$ATTMODE
 70
     1
  9
$TEXTSIZE
 40
2.5
  9
$TRACEWID
 40
1.0
  9
$TEXTSTYLE
  7
Standard
  9
$CLAYER
  8
0
  9
$CELTYPE
  6
ByLayer
  9
$CECOLOR
 62
   256
  9
$CELTSCALE
 40
1.0
  9
$DISPSILH
 70
     0
  9
$DIMSCALE
 40
1.0
  9
$DIMASZ
 40
2.5
  9
$DIMEXO
 40
0.625
  9
$DIMDLI
 40
3.75
  9
$DIMRND
 40
0.0
  9
$DIMDLE
 40
0.0
  9
$DIMEXE
 40
1.25
  9
$DIMTP
 40
0.0
  9
$DIMTM
 40
0.0
  9
$DIMTXT
 40
2.5
  9
$DIMCEN
 40
2.5
  9
$DIMTSZ
 40
0.0
  9
$DIMTOL
 70
     0
  9
$DIMLIM
 70
     0
  9
$DIMTIH
 70
     0
  9
$DIMTOH
 70
     0
  9
$DIMSE1
 70
     0
  9
$DIMSE2
 70
     0
  9
$DIMTAD
 70
     1
  9
$DIMZIN
 70
     8
  9
$DIMBLK
  1

  9
$DIMASO
 70
     1
  9
$DIMSHO
 70
     1
  9
$DIMPOST
  1

  9
$DIMAPOST
  1

  9
$DIMALT
 70
     0
  9
$DIMALTD
 70
     3
  9
$DIMALTF
 40
0.0393700787
  9
$DIMLFAC
 40
1.0
  9
$DIMTOFL
 70
     1
  9
$DIMTVP
 40
0.0
  9
$DIMTIX
 70
     0
  9
$DIMSOXD
 70
     0
  9
$DIMSAH
 70
     0
  9
$DIMBLK1
  1

  9
$DIMBLK2
  1

  9
$DIMSTYLE
  2
ISO-25
  9
$DIMCLRD
 70
     0
  9
$DIMCLRE
 70
     0
  9
$DIMCLRT
 70
     0
  9
$DIMTFAC
 40
1.0
  9
$DIMGAP
 40
0.625
  9
$DIMJUST
 70
     0
  9
$DIMSD1
 70
     0
  9
$DIMSD2
 70
     0
  9
$DIMTOLJ
 70
     0
  9
$DIMTZIN
 70
     8
  9
$DIMALTZ
 70
     0
  9
$DIMALTTZ
 70
     0
  9
$DIMUPT
 70
     0
  9
$DIMDEC
 70
     2
  9
$DIMTDEC
 70
     2
  9
$DIMALTU
 70
     2
  9
$DIMALTTD
 70
     3
  9
$DIMTXSTY
  7
Standard
  9
$DIMAUNIT
 70
     0
  9
$DIMADEC
 70
     0
  9
$DIMALTRND
 40
0.0
  9
$DIMAZIN
 70
     0
  9
$DIMDSEP
 70
    44
  9
$DIMATFIT
 70
     3
  9
$DIMFRAC
 70
     0
  9
$DIMLDRBLK
  1

  9
$DIMLUNIT
 70
     2
  9
$DIMLWD
 70
    -2
  9
$DIMLWE
 70
    -2
  9
$DIMTMOVE
 70
     0
  9
$LUNITS
 70
     2
  9
$LUPREC
 70
     4
  9
$SKETCHINC
 40
1.0
  9
$FILLETRAD
 40
10.0
  9
$AUNITS
 70
     0
  9
$AUPREC
 70
     0
  9
$MENU
  1
.
  9
$ELEVATION
 40
0.0
  9
$PELEVATION
 40
0.0
  9
$THICKNESS
 40
0.0
  9
$LIMCHECK
 70
     0
  9
$CHAMFERA
 40
10.0
  9
$CHAMFERB
 40
10.0
  9
$CHAMFERC
 40
20.0
  9
$CHAMFERD
 40
0.0
  9
$SKPOLY
 70
     0
  9
$TDCREATE
 40
2455698.444524502
  9
$TDUCREATE
 40
2455698.361191169
  9
$TDUPDATE
 40
2455698.444524514
  9
$TDUUPDATE
 40
2455698.361191181
  9
$TDINDWG
 40
0.0000000116
  9
$TDUSRTIMER
 40
0.0000000116
  9
$USRTIMER
 70
     1
  9
$ANGBASE
 50
0.0
  9
$ANGDIR
 70
     0
  9
$PDMODE
 70
     0
  9
$PDSIZE
 40
0.0
  9
$PLINEWID
 40
0.0
  9
$SPLFRAME
 70
     0
  9
$SPLINETYPE
 70
     6
  9
$SPLINESEGS
 70
     8
  9
$HANDSEED
  5
1A1
  9
$SURFTAB1
 70
     6
  9
$SURFTAB2
 70
     6
  9
$SURFTYPE
 70
     6
  9
$SURFU
 70
     6
  9
$SURFV
 70
     6
  9
$UCSBASE
  2

  9
$UCSNAME
  2

  9
$UCSORG
 10
0.0
 20
0.0
 30
0.0
  9
$UCSXDIR
 10
1.0
 20
0.0
 30
0.0
  9
$UCSYDIR
 10
0.0
 20
1.0
 30
0.0
  9
$UCSORTHOREF
  2

  9
$UCSORTHOVIEW
 70
     0
  9
$UCSORGTOP
 10
0.0
 20
0.0
 30
0.0
  9
$UCSORGBOTTOM
 10
0.0
 20
0.0
 30
0.0
  9
$UCSORGLEFT
 10
0.0
 20
0.0
 30
0.0
  9
$UCSORGRIGHT
 10
0.0
 20
0.0
 30
0.0
  9
$UCSORGFRONT
 10
0.0
 20
0.0
 30
0.0
  9
$UCSORGBACK
 10
0.0
 20
0.0
 30
0.0
  9
$PUCSBASE
  2

  9
$PUCSNAME
  2

  9
$PUCSORG
 10
0.0
 20
0.0
 30
0.0
  9
$PUCSXDIR
 10
1.0
 20
0.0
 30
0.0
  9
$PUCSYDIR
 10
0.0
 20
1.0
 30
0.0
  9
$PUCSORTHOREF
  2

  9
$PUCSORTHOVIEW
 70
     0
  9
$PUCSORGTOP
 10
0.0
 20
0.0
 30
0.0
  9
$PUCSORGBOTTOM
 10
0.0
 20
0.0
 30
0.0
  9
$PUCSORGLEFT
 10
0.0
 20
0.0
 30
0.0
  9
$PUCSORGRIGHT
 10
0.0
 20
0.0
 30
0.0
  9
$PUCSORGFRONT
 10
0.0
 20
0.0
 30
0.0
  9
$PUCSORGBACK
 10
0.0
 20
0.0
 30
0.0
  9
$USERI1
 70
     0
  9
$USERI2
 70
     0
  9
$USERI3
 70
     0
  9
$USERI4
 70
     0
  9
$USERI5
 70
     0
  9
$USERR1
 40
0.0
  9
$USERR2
 40
0.0
  9
$USERR3
 40
0.0
  9
$USERR4
 40
0.0
  9
$USERR5
 40
0.0
  9
$WORLDVIEW
 70
     1
  9
$SHADEDGE
 70
     3
  9
$SHADEDIF
 70
    70
  9
$TILEMODE
 70
     1
  9
$MAXACTVP
 70
    64
  9
$PINSBASE
 10
0.0
 20
0.0
 30
0.0
  9
$PLIMCHECK
 70
     0
  9
$PEXTMIN
 10
0.0
 20
0.0
 30
0.0
  9
$PEXTMAX
 10
215.9
 20
279.4
 30
0.0
  9
$PLIMMIN
 10
0.0
 20
0.0
  9
$PLIMMAX
 10
215.9
 20
279.4
  9
$UNITMODE
 70
     0
  9
$VISRETAIN
 70
     1
  9
$PLINEGEN
 70
     0
  9
$PSLTSCALE
 70
     1
  9
$TREEDEPTH
 70
  3020
  9
$CMLSTYLE
  2
Standard
  9
$CMLJUST
 70
     0
  9
$CMLSCALE
 40
20.0
  9
$PROXYGRAPHICS
 70
     1
  9
$MEASUREMENT
 70
     1
  9
$CELWEIGHT
370
    -1
  9
$ENDCAPS
280
     0
  9
$JOINSTYLE
280
     0
  9
$LWDISPLAY
290
     0
  9
$INSUNITS
 70
     4
  9
$HYPERLINKBASE
  1

  9
$STYLESHEET
  1

  9
$XEDIT
290
     1
  9
$CEPSNTYPE
380
     0
  9
$PSTYLEMODE
290
     1
  9
$FINGERPRINTGUID
  2
{FB592792-9EA0-4D94-BC25-4AEAFFA67B4C}
  9
$VERSIONGUID
  2
{FAEB1C32-E019-11D5-929B-00C0DF256EC4}
  9
$EXTNAMES
290
     1
  9
$PSVPSCALE
 40
0.0
  9
$OLESTARTUP
290
     0
  0
ENDSEC
  0
SECTION
  2
CLASSES
  0
CLASS
  1
ACDBDICTIONARYWDFLT
  2
AcDbDictionaryWithDefault
  3
ObjectDBX Classes
 90
        0
280
     0
281
     0
  0
CLASS
  1
VISUALSTYLE
  2
AcDbVisualStyle
  3
ObjectDBX Classes
 90
     4095
280
     0
281
     0
  0
CLASS
  1
MATERIAL
  2
AcDbMaterial
  3
ObjectDBX Classes
 90
     1153
280
     0
281
     0
  0
CLASS
  1
DICTIONARYVAR
  2
AcDbDictionaryVar
  3
ObjectDBX Classes
 90
        0
280
     0
281
     0
  0
CLASS
  1
ACDBPLACEHOLDER
  2
AcDbPlaceHolder
  3
ObjectDBX Classes
 90
        0
280
     0
281
     0
  0
CLASS
  1
LAYOUT
  2
AcDbLayout
  3
ObjectDBX Classes
 90
        0
280
     0
281
     0
  0
ENDSEC
  0
SECTION
  2
TABLES
  0
TABLE
  2
VPORT
  5
8
330
0
100
AcDbSymbolTable
 70
     1
  0
VPORT
  5
29
330
8
100
AcDbSymbolTableRecord
100
AcDbViewportTableRecord
  2
*Active
 70
     0
 10
0.0
 20
0.0
 11
1.0
 21
1.0
 12
344.1869158879
 22
148.5
 13
0.0
 23
0.0
 14
10.0
 24
10.0
 15
10.0
 25
10.0
 16
0.0
 26
0.0
 36
1.0
 17
0.0
 27
0.0
 37
0.0
 40
297.0
 41
1.9729729729
 42
50.0
 43
0.0
 44
0.0
 50
0.0
 51
0.0
 71
     0
 72
   100
 73
     1
 74
     3
 75
     0
 76
     0
 77
     0
 78
     0
281
     0
 65
     1
110
0.0
120
0.0
130
0.0
111
1.0
121
0.0
131
0.0
112
0.0
122
1.0
132
0.0
 79
     0
146
0.0
  0
ENDTAB
  0
TABLE
  2
LTYPE
  5
5
330
0
100
AcDbSymbolTable
 70
     2
  0
LTYPE
  5
14
330
5
100
AcDbSymbolTableRecord
100
AcDbLinetypeTableRecord
  2
ByBlock
 70
     0
  3

 72
    65
 73
     0
 40
0.0
  0
LTYPE
  5
15
330
5
100
AcDbSymbolTableRecord
100
AcDbLinetypeTableRecord
  2
ByLayer
 70
     0
  3

 72
    65
 73
     0
 40
0.0
  0
LTYPE
  5
16
330
5
100
AcDbSymbolTableRecord
100
AcDbLinetypeTableRecord
  2
Continuous
 70
     0
  3
Solid line
 72
    65
 73
     0
 40
0.0
  0
LTYPE
  5
58
330
5
100
AcDbSymbolTableRecord
100
AcDbLinetypeTableRecord
  2
HIDDEN2
 70
     0
  3
Hidden (.5x) _ _ _ _ _ _ _ _ _ _ _ _ _ _ _ _ _ 
 72
    65
 73
     2
 40
4.7625
 49
3.175
 74
     4
 75
     0
340
0
 46
0.0
 50
0.0
 44
0.0
 45
0.0
 49
-1.5875
 74
     4
 75
     0
340
0
 46
0.0
 50
0.0
 44
0.0
 45
0.0
  0
ENDTAB
  0
TABLE
  2
LAYER
  5
2
330
0
100
AcDbSymbolTable
 70
    11
  0
LAYER
  5
10
330
2
100
AcDbSymbolTableRecord
100
AcDbLayerTableRecord
  2
0
 70
     0
 62
     7
  6
Continuous
370
    -3
390
F
  0
LAYER
  5
41
330
2
100
AcDbSymbolTableRecord
100
AcDbLayerTableRecord
  2
Standard
 70
     0
 62
     7
  6
Continuous
370
    -3
390
F
  0
LAYER
  5
44
330
2
100
AcDbSymbolTableRecord
100
AcDbLayerTableRecord
  2
DV1_Standard
 70
     0
 62
     7
  6
Continuous
370
    -3
390
F
  0
LAYER
  5
49
330
2
100
AcDbSymbolTableRecord
100
AcDbLayerTableRecord
  2
DV1_Default
 70
     0
 62
     7
  6
Continuous
370
    -3
390
F
  0
LAYER
  5
5C
330
2
100
AcDbSymbolTableRecord
100
AcDbLayerTableRecord
  2
AP_453_90GRAD_19
 70
     0
 62
     7
  6
Continuous
370
    -3
390
F
  0
LAYER
  5
79
330
2
100
AcDbSymbolTableRecord
100
AcDbLayerTableRecord
  2
AP_454_1925
 70
     0
 62
     7
  6
Continuous
370
    -3
390
F
  0
LAYER
  5
9E
330
2
100
AcDbSymbolTableRecord
100
AcDbLayerTableRecord
  2
AP_468_1941
 70
     0
 62
     7
  6
Continuous
370
    -3
390
F
  0
LAYER
  5
AF
330
2
100
AcDbSymbolTableRecord
100
AcDbLayerTableRecord
  2
AA_045
 70
     0
 62
     7
  6
Continuous
370
    -3
390
F
  0
LAYER
  5
B1
330
2
100
AcDbSymbolTableRecord
100
AcDbLayerTableRecord
  2
AA_046
 70
     0
 62
     7
  6
Continuous
370
    -3
390
F
  0
LAYER
  5
FA
330
2
100
AcDbSymbolTableRecord
100
AcDbLayerTableRecord
  2
DV2_Standard
 70
     0
 62
     7
  6
Continuous
370
    -3
390
F
  0
LAYER
  5
FF
330
2
100
AcDbSymbolTableRecord
100
AcDbLayerTableRecord
  2
DV2_Default
 70
     0
 62
     7
  6
Continuous
370
    -3
390
F
  0
ENDTAB
  0
TABLE
  2
STYLE
  5
3
330
0
100
AcDbSymbolTable
 70
     2
  0
STYLE
  5
11
330
3
100
AcDbSymbolTableRecord
100
AcDbTextStyleTableRecord
  2
Standard
 70
     0
 40
0.0
 41
1.0
 50
0.0
 71
     0
 42
2.5
  3
txt
  4

  0
STYLE
  5
3F
330
3
100
AcDbSymbolTableRecord
100
AcDbTextStyleTableRecord
  2
SEACAD_Arial
 70
     0
 40
0.0
 41
1.0
 50
0.0
 71
     0
 42
0.2
  3
ARIAL.TTF
  4

1001
ACAD
1000
Arial
1071
        0
  0
ENDTAB
  0
TABLE
  2
VIEW
  5
6
330
0
100
AcDbSymbolTable
 70
     0
  0
ENDTAB
  0
TABLE
  2
UCS
  5
7
330
0
100
AcDbSymbolTable
 70
     0
  0
ENDTAB
  0
TABLE
  2
APPID
  5
9
330
0
100
AcDbSymbolTable
 70
     1
  0
APPID
  5
12
330
9
100
AcDbSymbolTableRecord
100
AcDbRegAppTableRecord
  2
ACAD
 70
     0
  0
ENDTAB
  0
TABLE
  2
DIMSTYLE
  5
A
330
0
100
AcDbSymbolTable
 70
     3
100
AcDbDimStyleTable
  0
DIMSTYLE
105
27
330
A
100
AcDbSymbolTableRecord
100
AcDbDimStyleTableRecord
  2
ISO-25
 70
     0
 41
2.5
 42
0.625
 43
3.75
 44
1.25
 73
     0
 74
     0
 77
     1
 78
     8
140
2.5
141
2.5
143
0.0393700787
147
0.625
171
     3
172
     1
178
     0
271
     2
272
     2
274
     3
278
    44
283
     0
284
     8
340
11
  0
DIMSTYLE
105
BC
330
A
100
AcDbSymbolTableRecord
100
AcDbDimStyleTableRecord
  2
Standard
 70
     0
178
     0
340
11
  0
DIMSTYLE
105
CE
102
{ACAD_REACTORS
330
CF
330
D9
330
E3
330
ED
102
}
330
A
100
AcDbSymbolTableRecord
100
AcDbDimStyleTableRecord
  2
E-Katalog
 70
     0
 41
3.75
 42
0.75
 44
1.25
 73
     0
 74
     0
 77
     1
 78
     8
140
2.5
141
1.25
147
1.25
172
     1
173
     1
178
     0
271
     0
272
     0
278
    44
284
     8
340
3F
343
C9
344
C9
  0
ENDTAB
  0
TABLE
  2
BLOCK_RECORD
  5
1
330
0
100
AcDbSymbolTable
 70
    10
  0
BLOCK_RECORD
  5
1F
330
1
100
AcDbSymbolTableRecord
100
AcDbBlockTableRecord
  2
*Model_Space
340
22
  0
BLOCK_RECORD
  5
1B
330
1
100
AcDbSymbolTableRecord
100
AcDbBlockTableRecord
  2
*Paper_Space
340
1E
  0
BLOCK_RECORD
  5
42
330
1
100
AcDbSymbolTableRecord
100
AcDbBlockTableRecord
  2
SE
340
0
102
{BLKREFS
331
43
102
}
  0
BLOCK_RECORD
  5
BD
330
1
100
AcDbSymbolTableRecord
100
AcDbBlockTableRecord
  2
_OBLIQUE
340
0
  0
BLOCK_RECORD
  5
C1
330
1
100
AcDbSymbolTableRecord
100
AcDbBlockTableRecord
  2
_DOT
340
0
  0
BLOCK_RECORD
  5
C9
330
1
100
AcDbSymbolTableRecord
100
AcDbBlockTableRecord
  2
_SE_FILLED
340
0
  0
BLOCK_RECORD
  5
D0
330
1
100
AcDbSymbolTableRecord
100
AcDbBlockTableRecord
  2
DMBLK93
340
0
  0
BLOCK_RECORD
  5
DA
330
1
100
AcDbSymbolTableRecord
100
AcDbBlockTableRecord
  2
DMBLK94
340
0
  0
BLOCK_RECORD
  5
E4
330
1
100
AcDbSymbolTableRecord
100
AcDbBlockTableRecord
  2
DMBLK95
340
0
  0
BLOCK_RECORD
  5
EE
330
1
100
AcDbSymbolTableRecord
100
AcDbBlockTableRecord
  2
DMBLK96
340
0
  0
BLOCK_RECORD
  5
F8
330
1
100
AcDbSymbolTableRecord
100
AcDbBlockTableRecord
  2
SE1
340
0
102
{BLKREFS
331
F9
102
}
  0
ENDTAB
  0
ENDSEC
  0
SECTION
  2
BLOCKS
  0
BLOCK
  5
20
330
1F
100
AcDbEntity
  8
0
100
AcDbBlockBegin
  2
*Model_Space
 70
     0
 10
0.0
 20
0.0
 30
0.0
  3
*Model_Space
  1

  0
ENDBLK
  5
21
330
1F
100
AcDbEntity
  8
0
100
AcDbBlockEnd
  0
BLOCK
  5
1C
330
1B
100
AcDbEntity
 67
     1
  8
0
100
AcDbBlockBegin
  2
*Paper_Space
 70
     0
 10
0.0
 20
0.0
 30
0.0
  3
*Paper_Space
  1

  0
ENDBLK
  5
1D
330
1B
100
AcDbEntity
 67
     1
  8
0
100
AcDbBlockEnd
  0
BLOCK
  5
BA
330
42
100
AcDbEntity
  8
0
100
AcDbBlockBegin
  2
SE
 70
     0
 10
0.0
 20
0.0
 30
0.0
  3
SE
  1

  0
HATCH
  5
45
330
42
100
AcDbEntity
  8
DV1_Standard
  6
Continuous
 62
   254
100
AcDbHatch
 10
0.0
 20
0.0
 30
0.0
210
0.0
220
0.0
230
1.0
  2
SOLID
 70
     1
 71
     0
 91
        1
 92
        1
 93
        4
 72
     1
 10
174.9382651495192
 20
219.804525225904
 11
174.9382651495192
 21
216.804525225904
 72
     1
 10
174.9382651495192
 20
216.804525225904
 11
177.1882651495192
 21
216.804525225904
 72
     1
 10
177.1882651495192
 20
216.804525225904
 11
177.1882651495192
 21
219.804525225904
 72
     1
 10
177.1882651495192
 20
219.804525225904
 11
174.9382651495192
 21
219.804525225904
 97
        0
 75
     0
 76
     1
 98
        0
  0
HATCH
  5
46
330
42
100
AcDbEntity
  8
DV1_Standard
  6
Continuous
 62
   254
100
AcDbHatch
 10
0.0
 20
0.0
 30
0.0
210
0.0
220
0.0
230
1.0
  2
SOLID
 70
     1
 71
     0
 91
        1
 92
        1
 93
       15
 72
     1
 10
51.66298431635833
 20
207.1645252259039
 11
165.1882651495191
 21
207.1645252259039
 72
     1
 10
165.1882651495191
 20
207.1645252259039
 11
165.1882651495185
 21
212.1522557462305
 72
     2
 10
164.1882651495185
 20
212.1522557462304
 40
0.999999999999987
 50
0.0000000000065138
 51
90.69869438298836
 73
     1
 72
     1
 10
164.1760709343015
 20
213.1521813940239
 11
49.84183775744593
 21
211.7578614772212
 72
     1
 10
49.84183775744594
 20
211.7578614772212
 11
48.21326308269048
 21
210.0890750821011
 72
     2
 10
48.17074763842704
 20
209.8936462280414
 40
0.199999999999998
 50
282.2734269020922
 51
359.3013056170019
 73
     0
 72
     1
 10
48.37073276798574
 20
209.8960850710848
 11
48.41623959536636
 21
206.1645252259049
 72
     1
 10
48.41623959536637
 20
206.1645252259049
 11
51.66298431635856
 21
206.1645252259052
 72
     2
 10
51.66298431635838
 20
207.9145252259039
 40
1.749999999999974
 50
90.00000000000352
 51
270.0
 73
     0
 72
     1
 10
51.66298431635838
 20
209.6645252259039
 11
52.41429010783821
 21
209.6645252259039
 72
     2
 10
52.41429010783821
 20
209.4145252259039
 40
0.2500000000000002
 50
270.0
 51
360.0
 73
     0
 72
     1
 10
52.66429010783821
 20
209.4145252259039
 11
52.66429010783821
 21
208.9145252259039
 72
     2
 10
52.41429010783821
 20
208.9145252259039
 40
0.2499999999999998
 50
0.0
 51
90.0
 73
     0
 72
     1
 10
52.41429010783821
 20
208.6645252259039
 11
51.66298431635838
 21
208.6645252259039
 72
     2
 10
51.66298431635838
 20
207.9145252259039
 40
0.7499999999999989
 50
90.0
 51
269.9999999999951
 73
     1
 97
        0
 75
     0
 76
     1
 98
        0
  0
HATCH
  5
47
330
42
100
AcDbEntity
  8
DV1_Standard
  6
Continuous
 62
   254
100
AcDbHatch
 10
0.0
 20
0.0
 30
0.0
210
0.0
220
0.0
230
1.0
  2
SOLID
 70
     1
 71
     0
 91
        1
 92
        1
 93
       11
 72
     1
 10
51.66298431635856
 20
206.1645252259052
 11
164.1982651495192
 21
206.1645252259168
 72
     1
 10
164.1982651495191
 20
206.1645252259168
 11
165.188265149519
 21
206.1645252259169
 72
     1
 10
165.188265149519
 20
206.1645252259169
 11
165.1882651495191
 21
207.1645252259039
 72
     1
 10
165.1882651495191
 20
207.1645252259039
 11
51.6629843163583
 21
207.1645252259039
 72
     2
 10
51.66298431635838
 20
207.9145252259039
 40
0.7499999999999989
 50
90.00000000000487
 51
270.0
 73
     0
 72
     1
 10
51.66298431635838
 20
208.6645252259039
 11
52.41429010783821
 21
208.6645252259039
 72
     2
 10
52.41429010783821
 20
208.9145252259039
 40
0.2499999999999998
 50
270.0
 51
360.0
 73
     1
 72
     1
 10
52.66429010783821
 20
208.9145252259039
 11
52.66429010783821
 21
209.4145252259039
 72
     2
 10
52.41429010783821
 20
209.4145252259039
 40
0.2500000000000002
 50
0.0
 51
90.0
 73
     1
 72
     1
 10
52.41429010783821
 20
209.6645252259039
 11
51.66298431635838
 21
209.6645252259039
 72
     2
 10
51.66298431635838
 20
207.9145252259039
 40
1.749999999999974
 50
90.0
 51
269.9999999999965
 73
     1
 97
        0
 75
     0
 76
     1
 98
        0
  0
HATCH
  5
48
330
42
100
AcDbEntity
  8
DV1_Standard
  6
Continuous
 62
   251
100
AcDbHatch
 10
0.0
 20
0.0
 30
0.0
210
0.0
220
0.0
230
1.0
  2
SOLID
 70
     1
 71
     0
 91
        1
 92
        1
 93
       25
 72
     1
 10
172.2825302228008
 20
207.1645252259039
 11
165.1882651495191
 21
207.1645252259039
 72
     1
 10
165.188265149519
 20
207.1645252259039
 11
165.1882651495192
 21
206.1645252259039
 72
     1
 10
165.1882651495192
 20
206.1645252259039
 11
172.2825302228008
 21
206.1645252259039
 72
     2
 10
171.1498851145555
 20
212.4700883448079
 40
6.406481966548693
 50
280.1832340926269
 51
325.7950147364684
 73
     1
 72
     2
 10
172.9099295336398
 20
211.2737395107644
 40
4.278335615879366
 50
325.7950147364683
 51
360.0
 73
     1
 72
     1
 10
177.1882651495192
 20
211.2737395107644
 11
177.1882651495192
 21
214.7239567508662
 72
     1
 10
177.1882651495192
 20
214.7239567508662
 11
176.5015555446764
 21
214.8450421821117
 72
     2
 10
176.3857881107974
 20
215.0081308121662
 40
0.1999999999999954
 50
54.63120317388261
 51
145.3687968261215
 73
     0
 72
     1
 10
176.221222710828
 20
214.8944724242976
 11
175.4054962839237
 21
215.0383070022377
 72
     2
 10
175.1882651495192
 20
213.8063280190344
 40
1.250984244828623
 50
80.00000000000024
 51
143.0700390331693
 73
     1
 72
     1
 10
174.1882651495192
 20
214.5579672814531
 11
174.1882651495192
 21
214.4063280190344
 72
     1
 10
174.1882651495192
 20
214.4063280190344
 11
174.7366266480819
 21
214.4063280190344
 72
     2
 10
175.1882651495192
 20
213.8063280190344
 40
0.7509842448283752
 50
233.0300957131187
 51
280.0000000000039
 73
     0
 72
     1
 10
175.3186721950902
 20
214.5459031257314
 11
176.4382651495193
 21
214.3484886804541
 72
     1
 10
176.4382651495193
 20
214.3484886804542
 11
176.4382651495193
 21
213.2641673576161
 72
     1
 10
176.4382651495193
 20
213.2641673576161
 11
175.318672195091
 21
213.0667529123378
 72
     2
 10
175.1882651495192
 20
213.8063280190344
 40
0.7509842448280787
 50
79.99999999993024
 51
126.9699042868813
 73
     0
 72
     1
 10
174.7366266480821
 20
213.2063280190346
 11
174.1882651495191
 21
213.2063280190344
 72
     1
 10
174.1882651495191
 20
213.2063280190344
 11
174.1882651495192
 21
213.0546887566157
 72
     2
 10
175.1882651495192
 20
213.8063280190344
 40
1.250984244828588
 50
216.9299609668265
 51
280.0000000000651
 73
     1
 72
     1
 10
175.4054962839251
 20
212.5743490358313
 11
176.4382651495192
 21
212.7564540516725
 72
     1
 10
176.4382651495193
 20
212.7564540516724
 11
176.4382651495193
 21
211.3211742429827
 72
     2
 10
172.9099295336398
 20
211.2737395107644
 40
3.528654456319555
 50
359.2297653813294
 51
395.817256833635
 73
     0
 72
     1
 10
175.7712716756887
 20
209.2087641069789
 11
175.4230633389151
 21
209.1276591663862
 72
     2
 10
171.1498851145555
 20
212.4700883448079
 40
5.425116123172487
 50
38.03209472926639
 51
77.94924814742494
 73
     0
 97
        0
 75
     0
 76
     1
 98
        0
  0
HATCH
  5
4A
330
42
100
AcDbEntity
  8
DV1_Default
  6
Continuous
 62
   254
100
AcDbHatch
 10
0.0
 20
0.0
 30
0.0
210
0.0
220
0.0
230
1.0
  2
SOLID
 70
     1
 71
     0
 91
        1
 92
        1
 93
        7
 72
     2
 10
43.18826514951871
 20
210.6766459901204
 40
1.000000000000001
 50
179.9999999999935
 51
269.3013056170104
 73
     0
 72
     1
 10
43.17607093430161
 20
211.6765716379139
 11
43.45491465837398
 21
211.6799721711343
 72
     1
 10
43.45491465837398
 20
211.6799721711343
 11
43.29671931986791
 21
211.8343555737727
 72
     1
 10
43.2967193198679
 20
211.8343555737727
 11
43.14673047269887
 21
211.8325264414901
 72
     2
 10
43.15892468791599
 20
210.8326007936967
 40
1.000000000000004
 50
90.6986943829904
 51
180.6986943829916
 73
     1
 72
     1
 10
42.15899904012249
 20
210.8204065784795
 11
42.18826514951894
 21
208.4205856079903
 72
     1
 10
42.18826514951894
 20
208.4205856079903
 11
42.18826514951871
 21
210.6766459901202
 97
        0
 75
     0
 76
     1
 98
        0
  0
HATCH
  5
4B
330
42
100
AcDbEntity
  8
DV1_Default
  6
Continuous
 62
   254
100
AcDbHatch
 10
0.0
 20
0.0
 30
0.0
210
0.0
220
0.0
230
1.0
  2
SOLID
 70
     1
 71
     0
 91
        1
 92
        1
 93
        4
 72
     1
 10
43.45491465837398
 20
211.6799721711343
 11
49.84183775744594
 21
211.7578614772212
 72
     1
 10
49.84183775744594
 20
211.7578614772212
 11
49.99622116008433
 21
211.9160568157272
 72
     1
 10
49.99622116008433
 20
211.9160568157272
 11
43.29671931986792
 21
211.8343555737727
 72
     1
 10
43.29671931986792
 20
211.8343555737727
 11
43.45491465837397
 21
211.6799721711343
 97
        0
 75
     0
 76
     1
 98
        0
  0
HATCH
  5
4C
330
42
100
AcDbEntity
  8
DV1_Default
  6
Continuous
 62
   254
100
AcDbHatch
 10
0.0
 20
0.0
 30
0.0
210
0.0
220
0.0
230
1.0
  2
SOLID
 70
     1
 71
     0
 91
        1
 92
        1
 93
        5
 72
     1
 10
164.1377338557117
 20
213.3080264827589
 11
49.99622116008435
 21
211.9160568157272
 72
     1
 10
49.99622116008434
 20
211.9160568157272
 11
49.84183775744594
 21
211.7578614772212
 72
     1
 10
49.84183775744594
 20
211.7578614772212
 11
164.1760709343014
 21
213.152181394024
 72
     2
 10
164.1882651495185
 20
212.1522557462304
 40
0.999999999999987
 50
269.3013056170116
 51
341.5772781564791
 73
     0
 72
     2
 10
164.1499280709288
 20
212.3081008349654
 40
1.0
 50
9.217356027345987
 51
90.69869438298836
 73
     1
 97
        0
 75
     0
 76
     1
 98
        0
  0
HATCH
  5
4D
330
42
100
AcDbEntity
  8
DV1_Default
  6
Continuous
 62
   254
100
AcDbHatch
 10
0.0
 20
0.0
 30
0.0
210
0.0
220
0.0
230
1.0
  2
SOLID
 70
     1
 71
     0
 91
        1
 92
        1
 93
       30
 72
     1
 10
173.1882651495192
 20
215.054525225904
 11
173.1882651495192
 21
212.804525225904
 72
     2
 10
174.6882651495192
 20
212.804525225904
 40
1.500000000000001
 50
180.0
 51
270.0
 73
     1
 72
     1
 10
174.6882651495192
 20
211.304525225904
 11
176.4384496925517
 21
211.304525225904
 72
     1
 10
176.4384496925517
 20
211.304525225904
 11
176.4382651495193
 21
211.3211742429827
 72
     1
 10
176.4382651495193
 20
211.3211742429827
 11
176.4382651495193
 21
212.7564540516724
 72
     1
 10
176.4382651495193
 20
212.7564540516724
 11
176.1857881107975
 21
212.7119355377361
 72
     1
 10
176.1857881107974
 20
212.7119355377361
 11
176.1857881107974
 21
212.604525225904
 72
     1
 10
176.1857881107974
 20
212.604525225904
 11
176.1857881107974
 21
212.304525225904
 72
     1
 10
176.1857881107974
 20
212.304525225904
 11
174.6882651495191
 21
212.304525225904
 72
     2
 10
174.6882651495192
 20
212.804525225904
 40
0.5000000000000004
 50
90.0
 51
116.5237937120742
 73
     0
 72
     2
 10
174.6882651495192
 20
212.804525225904
 40
0.5000000000000004
 50
116.5237937120742
 51
180.0
 73
     0
 72
     1
 10
174.1882651495192
 20
212.804525225904
 11
174.1882651495192
 21
213.0546887566157
 72
     2
 10
175.1882651495192
 20
213.8063280190344
 40
1.250984244828588
 50
143.0700390331735
 51
151.3392601689296
 73
     0
 72
     1
 10
174.0905577291155
 20
213.2063280190344
 11
174.1882651495191
 21
213.2063280190344
 72
     1
 10
174.1882651495191
 20
213.2063280190344
 11
174.1882651495192
 21
214.4063280190344
 72
     1
 10
174.1882651495192
 20
214.4063280190344
 11
174.0905577291155
 21
214.4063280190344
 72
     2
 10
175.1882651495192
 20
213.8063280190344
 40
1.250984244828623
 50
208.6607398310727
 51
216.9299609668307
 73
     0
 72
     1
 10
174.1882651495192
 20
214.5579672814531
 11
174.1882651495192
 21
214.8081308121663
 72
     2
 10
174.6882651495192
 20
214.8081308121662
 40
0.5000000000000004
 50
180.0
 51
243.4762062879549
 73
     0
 72
     2
 10
174.6882651495192
 20
214.8081308121662
 40
0.5000000000000004
 50
243.4762062879549
 51
270.0
 73
     0
 72
     1
 10
174.6882651495192
 20
215.3081308121662
 11
176.1857881107975
 21
215.3081308121662
 72
     1
 10
176.1857881107974
 20
215.3081308121662
 11
176.1857881107974
 21
215.0081308121663
 72
     2
 10
176.3857881107974
 20
215.0081308121662
 40
0.1999999999999954
 50
180.0
 51
214.6312031738785
 73
     1
 72
     1
 10
176.221222710828
 20
214.8944724242976
 11
176.5015555446764
 21
214.8450421821117
 72
     2
 10
176.3857881107974
 20
215.0081308121662
 40
0.1999999999999954
 50
305.3687968261174
 51
314.9999999999943
 73
     1
 72
     1
 10
176.5272094670347
 20
214.8667094559289
 11
177.1296865057565
 21
215.4691864946506
 72
     2
 10
176.9882651495192
 20
215.610607850888
 40
0.2000000000000052
 50
315.0
 51
360.0
 73
     1
 72
     1
 10
177.1882651495192
 20
215.610607850888
 11
177.1882651495192
 21
216.804525225904
 72
     1
 10
177.1882651495192
 20
216.804525225904
 11
174.9382651495192
 21
216.804525225904
 72
     1
 10
174.9382651495192
 20
216.804525225904
 11
173.1882651495192
 21
215.054525225904
 97
        0
 75
     0
 76
     1
 98
        0
  0
HATCH
  5
4E
330
42
100
AcDbEntity
  8
DV1_Default
  6
Continuous
 62
   254
100
AcDbHatch
 10
0.0
 20
0.0
 30
0.0
210
0.0
220
0.0
230
1.0
  2
SOLID
 70
     1
 71
     0
 91
        1
 92
        1
 93
        4
 72
     1
 10
173.1882651495192
 20
221.554525225904
 11
173.1882651495192
 21
215.054525225904
 72
     1
 10
173.1882651495192
 20
215.054525225904
 11
174.9382651495192
 21
216.804525225904
 72
     1
 10
174.9382651495192
 20
216.804525225904
 11
174.9382651495192
 21
219.804525225904
 72
     1
 10
174.9382651495192
 20
219.804525225904
 11
173.1882651495192
 21
221.554525225904
 97
        0
 75
     0
 76
     1
 98
        0
  0
HATCH
  5
4F
330
42
100
AcDbEntity
  8
DV1_Default
  6
Continuous
 62
   254
100
AcDbHatch
 10
0.0
 20
0.0
 30
0.0
210
0.0
220
0.0
230
1.0
  2
SOLID
 70
     1
 71
     0
 91
        1
 92
        1
 93
       21
 72
     1
 10
176.1925292182311
 20
221.3009196396418
 11
174.6882651495191
 21
221.3009196396418
 72
     2
 10
174.6882651495192
 20
221.8009196396418
 40
0.5000000000000004
 50
90.0
 51
180.0
 73
     0
 72
     1
 10
174.1882651495192
 20
221.8009196396418
 11
174.1882651495192
 21
223.804525225904
 72
     2
 10
174.6882651495192
 20
223.804525225904
 40
0.5000000000000004
 50
180.0
 51
270.0
 73
     0
 72
     1
 10
174.6882651495192
 20
224.304525225904
 11
176.1925292182311
 21
224.304525225904
 72
     1
 10
176.1925292182311
 20
224.304525225904
 11
176.1925292182311
 21
224.004525225904
 72
     2
 10
176.3925292182311
 20
224.004525225904
 40
0.1999999999999954
 50
180.0
 51
314.9999999999943
 73
     1
 72
     1
 10
176.5339505744684
 20
223.8631038696667
 11
177.1296865057564
 21
224.4588398009547
 72
     2
 10
176.9882651495192
 20
224.6002611571921
 40
0.2000000000000003
 50
314.9999999999943
 51
360.0
 73
     1
 72
     1
 10
177.1882651495192
 20
224.6002611571921
 11
177.1882651495192
 21
225.104525225904
 72
     2
 10
176.9882651495192
 20
225.104525225904
 40
0.2000000000000057
 50
0.0
 51
90.0
 73
     1
 72
     1
 10
176.9882651495192
 20
225.304525225904
 11
174.6882651495192
 21
225.304525225904
 72
     2
 10
174.6882651495192
 20
223.804525225904
 40
1.500000000000001
 50
90.0
 51
180.0
 73
     1
 72
     1
 10
173.1882651495192
 20
223.804525225904
 11
173.1882651495192
 21
221.554525225904
 72
     1
 10
173.1882651495192
 20
221.554525225904
 11
174.9382651495192
 21
219.804525225904
 72
     1
 10
174.9382651495192
 20
219.804525225904
 11
177.1882651495192
 21
219.804525225904
 72
     1
 10
177.1882651495192
 20
219.804525225904
 11
177.1882651495192
 21
221.0051837083537
 72
     2
 10
176.9882651495192
 20
221.0051837083537
 40
0.2000000000000057
 50
0.0
 51
45.0
 73
     1
 72
     1
 10
177.1296865057565
 20
221.1466050645911
 11
176.5339505744684
 21
221.7423409958791
 72
     2
 10
176.3925292182311
 20
221.6009196396418
 40
0.2000000000000057
 50
45.0
 51
180.0
 73
     1
 72
     1
 10
176.1925292182311
 20
221.6009196396418
 11
176.1925292182311
 21
221.3009196396418
 97
        0
 75
     0
 76
     1
 98
        0
  0
HATCH
  5
50
330
42
100
AcDbEntity
  8
DV1_Default
  6
Continuous
 62
   251
100
AcDbHatch
 10
0.0
 20
0.0
 30
0.0
210
0.0
220
0.0
230
1.0
  2
SOLID
 70
     1
 71
     0
 91
        1
 92
        1
 93
        2
 72
     1
 10
176.5015555446764
 20
214.8450421821117
 11
176.221222710828
 21
214.8944724242976
 72
     2
 10
176.3857881107974
 20
215.0081308121662
 40
0.1999999999999954
 50
214.6312031738785
 51
305.3687968261174
 73
     1
 97
        0
 75
     0
 76
     1
 98
        0
  0
HATCH
  5
51
330
42
100
AcDbEntity
  8
DV1_Default
  6
Continuous
 62
   251
100
AcDbHatch
 10
0.0
 20
0.0
 30
0.0
210
0.0
220
0.0
230
1.0
  2
SOLID
 70
     1
 71
     0
 91
        1
 92
        1
 93
        3
 72
     1
 10
174.0905577291155
 20
214.4063280190344
 11
174.1882651495191
 21
214.4063280190344
 72
     1
 10
174.1882651495192
 20
214.4063280190344
 11
174.1882651495192
 21
214.5579672814531
 72
     2
 10
175.1882651495192
 20
213.8063280190344
 40
1.250984244828623
 50
143.0700390331693
 51
151.3392601689273
 73
     1
 97
        0
 75
     0
 76
     1
 98
        0
  0
HATCH
  5
52
330
42
100
AcDbEntity
  8
DV1_Default
  6
Continuous
 62
   251
100
AcDbHatch
 10
0.0
 20
0.0
 30
0.0
210
0.0
220
0.0
230
1.0
  2
SOLID
 70
     1
 71
     0
 91
        1
 92
        1
 93
        3
 72
     1
 10
174.1882651495192
 20
213.2063280190344
 11
174.0905577291155
 21
213.2063280190344
 72
     2
 10
175.1882651495192
 20
213.8063280190344
 40
1.250984244828588
 50
208.6607398310704
 51
216.9299609668265
 73
     1
 72
     1
 10
174.1882651495192
 20
213.0546887566157
 11
174.1882651495192
 21
213.2063280190344
 97
        0
 75
     0
 76
     1
 98
        0
  0
LINE
  5
53
330
42
100
AcDbEntity
  8
DV1_Default
  6
Continuous
 62
     7
100
AcDbLine
 10
176.1857881108
 20
212.6045252259
 30
0.0
 11
176.1857881108
 21
212.7119355377
 31
0.0
  0
LINE
  5
54
330
42
100
AcDbEntity
  8
DV1_Default
  6
Continuous
 62
     7
100
AcDbLine
 10
174.6882651495
 20
211.3045252259
 30
0.0
 11
176.4384496926
 21
211.3045252259
 31
0.0
  0
HATCH
  5
55
330
42
100
AcDbEntity
  8
DV1_Default
  6
Continuous
 62
   254
100
AcDbHatch
 10
0.0
 20
0.0
 30
0.0
210
0.0
220
0.0
230
1.0
  2
SOLID
 70
     1
 71
     0
 91
        1
 92
        1
 93
        5
 72
     1
 10
45.11853507328701
 20
210.0564389951352
 11
48.16830879538363
 21
210.0936313576001
 72
     2
 10
48.17074763842704
 20
209.8936462280414
 40
0.199999999999998
 50
269.30130561701
 51
282.2734269020922
 73
     0
 72
     1
 10
48.21326308269049
 20
210.0890750821011
 11
49.84183775744594
 21
211.7578614772212
 72
     1
 10
49.84183775744594
 20
211.7578614772212
 11
43.45491465837397
 21
211.6799721711343
 72
     1
 10
43.45491465837398
 20
211.6799721711343
 11
45.118535073287
 21
210.0564389951352
 97
        0
 75
     0
 76
     1
 98
        0
  0
HATCH
  5
56
330
42
100
AcDbEntity
  8
DV1_Default
  6
Continuous
 62
   254
100
AcDbHatch
 10
0.0
 20
0.0
 30
0.0
210
0.0
220
0.0
230
1.0
  2
SOLID
 70
     1
 71
     0
 91
        1
 92
        1
 93
        8
 72
     1
 10
42.18826514951871
 20
210.6766459901202
 11
42.18826514951916
 21
206.1645252259042
 72
     1
 10
42.18826514951916
 20
206.1645252259042
 11
43.17826514951918
 21
206.1645252259043
 72
     1
 10
43.17826514951918
 20
206.1645252259043
 11
44.91402244518356
 21
206.1645252259045
 72
     1
 10
44.91402244518356
 20
206.1645252259045
 11
44.95912624950174
 21
209.8630371799644
 72
     2
 10
45.15911137906043
 20
209.860598336921
 40
0.199999999999998
 50
180.6986943829818
 51
258.2944862025307
 73
     0
 72
     1
 10
45.11853507328701
 20
210.0564389951352
 11
43.45491465837398
 21
211.6799721711343
 72
     1
 10
43.45491465837398
 20
211.6799721711343
 11
43.17607093430162
 21
211.6765716379139
 72
     2
 10
43.18826514951871
 20
210.6766459901204
 40
1.000000000000001
 50
90.69869438298956
 51
180.0000000000065
 73
     1
 97
        0
 75
     0
 76
     1
 98
        0
  0
HATCH
  5
57
330
42
100
AcDbEntity
  8
DV1_Default
  6
Continuous
 62
   254
100
AcDbHatch
 10
0.0
 20
0.0
 30
0.0
210
0.0
220
0.0
230
1.0
  2
SOLID
 70
     1
 71
     0
 91
        1
 92
        1
 93
        6
 72
     1
 10
48.41623959536636
 20
206.1645252259048
 11
48.37073276798574
 21
209.8960850710848
 72
     2
 10
48.17074763842704
 20
209.8936462280414
 40
0.199999999999998
 50
0.6986943829981161
 51
90.69869438299003
 73
     1
 72
     1
 10
48.16830879538362
 20
210.0936313576001
 11
45.118535073287
 21
210.0564389951352
 72
     2
 10
45.15911137906043
 20
209.860598336921
 40
0.199999999999998
 50
101.7055137974693
 51
179.3013056170182
 73
     1
 72
     1
 10
44.95912624950173
 20
209.8630371799644
 11
44.91402244518356
 21
206.1645252259045
 72
     1
 10
44.91402244518356
 20
206.1645252259045
 11
48.41623959536637
 21
206.1645252259049
 97
        0
 75
     0
 76
     1
 98
        0
  0
LINE
  5
59
330
42
100
AcDbEntity
  8
DV1_Default
  6
HIDDEN2
 62
     7
100
AcDbLine
 10
48.1683087954
 20
210.0936313576
 30
0.0
 11
45.1185350733
 21
210.0564389951
 31
0.0
  0
ARC
  5
5A
330
42
100
AcDbEntity
  8
DV1_Standard
  6
HIDDEN2
 62
     7
100
AcDbCircle
 10
45.1591113791
 20
209.8605983369
 30
0.0
 40
0.199999999999998
100
AcDbArc
 50
101.7055137975
 51
179.301305617
  0
LINE
  5
5B
330
42
100
AcDbEntity
  8
DV1_Standard
  6
HIDDEN2
 62
     7
100
AcDbLine
 10
44.9140224452
 20
206.1645252259
 30
0.0
 11
44.9591262495
 21
209.86303718
 31
0.0
  0
LINE
  5
5D
330
42
100
AcDbEntity
  8
AP_453_90GRAD_19
  6
Continuous
 62
     7
100
AcDbLine
 10
165.1882651495
 20
206.1645252259
 30
0.0
 11
172.2825302228
 21
206.1645252259
 31
0.0
  0
ARC
  5
5E
330
42
100
AcDbEntity
  8
AP_453_90GRAD_19
  6
Continuous
 62
     7
100
AcDbCircle
 10
171.1498851146
 20
212.4700883448
 30
0.0
 40
6.406481966548693
100
AcDbArc
 50
280.1832340926
 51
325.7950147365
  0
ARC
  5
5F
330
42
100
AcDbEntity
  8
AP_453_90GRAD_19
  6
Continuous
 62
     7
100
AcDbCircle
 10
172.9099295336
 20
211.2737395108
 30
0.0
 40
4.278335615879366
100
AcDbArc
 50
325.7950147365
 51
0.0
  0
LINE
  5
60
330
42
100
AcDbEntity
  8
AP_453_90GRAD_19
  6
Continuous
 62
     7
100
AcDbLine
 10
177.1882651495
 20
211.2737395108
 30
0.0
 11
177.1882651495
 21
214.7239567509
 31
0.0
  0
LINE
  5
61
330
42
100
AcDbEntity
  8
AP_453_90GRAD_19
  6
Continuous
 62
     7
100
AcDbLine
 10
177.1882651495
 20
214.7239567509
 30
0.0
 11
175.4054962839
 21
215.0383070022
 31
0.0
  0
ARC
  5
62
330
42
100
AcDbEntity
  8
AP_453_90GRAD_19
  6
Continuous
 62
     7
100
AcDbCircle
 10
175.1882651495
 20
213.806328019
 30
0.0
 40
1.250984244828623
100
AcDbArc
 50
80.0
 51
151.3392601689
  0
LINE
  5
63
330
42
100
AcDbEntity
  8
AP_453_90GRAD_19
  6
Continuous
 62
     7
100
AcDbLine
 10
174.0905577291
 20
214.406328019
 30
0.0
 11
174.7366266481
 21
214.406328019
 31
0.0
  0
ARC
  5
64
330
42
100
AcDbEntity
  8
AP_453_90GRAD_19
  6
Continuous
 62
     7
100
AcDbCircle
 10
175.1882651495
 20
213.806328019
 30
0.0
 40
0.7509842448283752
100
AcDbArc
 50
80.0
 51
126.9699042869
  0
LINE
  5
65
330
42
100
AcDbEntity
  8
AP_453_90GRAD_19
  6
Continuous
 62
     7
100
AcDbLine
 10
175.3186721951
 20
214.5459031257
 30
0.0
 11
176.4382651495
 21
214.3484886805
 31
0.0
  0
LINE
  5
66
330
42
100
AcDbEntity
  8
AP_453_90GRAD_19
  6
Continuous
 62
     7
100
AcDbLine
 10
176.4382651495
 20
214.3484886805
 30
0.0
 11
176.4382651495
 21
213.2641673576
 31
0.0
  0
LINE
  5
67
330
42
100
AcDbEntity
  8
AP_453_90GRAD_19
  6
Continuous
 62
     7
100
AcDbLine
 10
176.4382651495
 20
213.2641673576
 30
0.0
 11
175.3186721951
 21
213.0667529123
 31
0.0
  0
ARC
  5
68
330
42
100
AcDbEntity
  8
AP_453_90GRAD_19
  6
Continuous
 62
     7
100
AcDbCircle
 10
175.1882651495
 20
213.806328019
 30
0.0
 40
0.7509842448280787
100
AcDbArc
 50
233.0300957131
 51
280.0000000001
  0
LINE
  5
69
330
42
100
AcDbEntity
  8
AP_453_90GRAD_19
  6
Continuous
 62
     7
100
AcDbLine
 10
174.7366266481
 20
213.206328019
 30
0.0
 11
174.0905577291
 21
213.206328019
 31
0.0
  0
ARC
  5
6A
330
42
100
AcDbEntity
  8
AP_453_90GRAD_19
  6
Continuous
 62
     7
100
AcDbCircle
 10
175.1882651495
 20
213.806328019
 30
0.0
 40
1.250984244828588
100
AcDbArc
 50
208.6607398311
 51
280.0000000001
  0
LINE
  5
6B
330
42
100
AcDbEntity
  8
AP_453_90GRAD_19
  6
Continuous
 62
     7
100
AcDbLine
 10
175.4054962839
 20
212.5743490358
 30
0.0
 11
176.4382651495
 21
212.7564540517
 31
0.0
  0
LINE
  5
6C
330
42
100
AcDbEntity
  8
AP_453_90GRAD_19
  6
Continuous
 62
     7
100
AcDbLine
 10
176.4382651495
 20
212.7564540517
 30
0.0
 11
176.4382651495
 21
211.321174243
 31
0.0
  0
ARC
  5
6D
330
42
100
AcDbEntity
  8
AP_453_90GRAD_19
  6
Continuous
 62
     7
100
AcDbCircle
 10
172.9099295336
 20
211.2737395108
 30
0.0
 40
3.528654456319555
100
AcDbArc
 50
324.1827431664
 51
0.7702346187
  0
LINE
  5
6E
330
42
100
AcDbEntity
  8
AP_453_90GRAD_19
  6
Continuous
 62
     7
100
AcDbLine
 10
175.7712716757
 20
209.208764107
 30
0.0
 11
175.4230633389
 21
209.1276591664
 31
0.0
  0
ARC
  5
6F
330
42
100
AcDbEntity
  8
AP_453_90GRAD_19
  6
Continuous
 62
     7
100
AcDbCircle
 10
171.1498851146
 20
212.4700883448
 30
0.0
 40
5.425116123172487
100
AcDbArc
 50
282.0507518526
 51
321.9679052707
  0
LINE
  5
70
330
42
100
AcDbEntity
  8
AP_453_90GRAD_19
  6
Continuous
 62
     7
100
AcDbLine
 10
172.2825302228
 20
207.1645252259
 30
0.0
 11
165.1882651495
 21
207.1645252259
 31
0.0
  0
LINE
  5
71
330
42
100
AcDbEntity
  8
AP_453_90GRAD_19
  6
HIDDEN2
 62
     7
100
AcDbLine
 10
165.1882651495
 20
207.1645252259
 30
0.0
 11
51.6629843164
 21
207.1645252259
 31
0.0
  0
ARC
  5
72
330
42
100
AcDbEntity
  8
AP_453_90GRAD_19
  6
HIDDEN2
 62
     7
100
AcDbCircle
 10
51.6629843164
 20
207.9145252259
 30
0.0
 40
0.7499999999999989
100
AcDbArc
 50
90.0
 51
270.0
  0
LINE
  5
73
330
42
100
AcDbEntity
  8
AP_453_90GRAD_19
  6
HIDDEN2
 62
     7
100
AcDbLine
 10
51.6629843164
 20
208.6645252259
 30
0.0
 11
52.4142901078
 21
208.6645252259
 31
0.0
  0
ARC
  5
74
330
42
100
AcDbEntity
  8
AP_453_90GRAD_19
  6
HIDDEN2
 62
     7
100
AcDbCircle
 10
52.4142901078
 20
208.9145252259
 30
0.0
 40
0.2499999999999998
100
AcDbArc
 50
270.0
 51
0.0
  0
LINE
  5
75
330
42
100
AcDbEntity
  8
AP_453_90GRAD_19
  6
HIDDEN2
 62
     7
100
AcDbLine
 10
52.6642901078
 20
208.9145252259
 30
0.0
 11
52.6642901078
 21
209.4145252259
 31
0.0
  0
ARC
  5
76
330
42
100
AcDbEntity
  8
AP_453_90GRAD_19
  6
HIDDEN2
 62
     7
100
AcDbCircle
 10
52.4142901078
 20
209.4145252259
 30
0.0
 40
0.2500000000000002
100
AcDbArc
 50
0.0
 51
90.0
  0
LINE
  5
77
330
42
100
AcDbEntity
  8
AP_453_90GRAD_19
  6
HIDDEN2
 62
     7
100
AcDbLine
 10
52.4142901078
 20
209.6645252259
 30
0.0
 11
51.6629843164
 21
209.6645252259
 31
0.0
  0
ARC
  5
78
330
42
100
AcDbEntity
  8
AP_453_90GRAD_19
  6
HIDDEN2
 62
     7
100
AcDbCircle
 10
51.6629843164
 20
207.9145252259
 30
0.0
 40
1.749999999999974
100
AcDbArc
 50
90.0
 51
270.0
  0
LINE
  5
7A
330
42
100
AcDbEntity
  8
AP_454_1925
  6
Continuous
 62
     7
100
AcDbLine
 10
176.1857881108
 20
212.3045252259
 30
0.0
 11
176.1857881108
 21
212.6045252259
 31
0.0
  0
LINE
  5
7B
330
42
100
AcDbEntity
  8
AP_454_1925
  6
Continuous
 62
     7
100
AcDbLine
 10
174.6882651495
 20
212.3045252259
 30
0.0
 11
176.1857881108
 21
212.3045252259
 31
0.0
  0
ARC
  5
7C
330
42
100
AcDbEntity
  8
AP_454_1925
  6
Continuous
 62
     7
100
AcDbCircle
 10
174.6882651495
 20
212.8045252259
 30
0.0
 40
0.5000000000000004
100
AcDbArc
 50
180.0
 51
270.0
  0
LINE
  5
7D
330
42
100
AcDbEntity
  8
AP_454_1925
  6
Continuous
 62
     7
100
AcDbLine
 10
174.1882651495
 20
214.8081308122
 30
0.0
 11
174.1882651495
 21
212.8045252259
 31
0.0
  0
ARC
  5
7E
330
42
100
AcDbEntity
  8
AP_454_1925
  6
Continuous
 62
     7
100
AcDbCircle
 10
174.6882651495
 20
214.8081308122
 30
0.0
 40
0.5000000000000004
100
AcDbArc
 50
90.0
 51
180.0
  0
LINE
  5
7F
330
42
100
AcDbEntity
  8
AP_454_1925
  6
Continuous
 62
     7
100
AcDbLine
 10
176.1857881108
 20
215.3081308122
 30
0.0
 11
174.6882651495
 21
215.3081308122
 31
0.0
  0
LINE
  5
80
330
42
100
AcDbEntity
  8
AP_454_1925
  6
Continuous
 62
     7
100
AcDbLine
 10
176.1857881108
 20
215.0081308122
 30
0.0
 11
176.1857881108
 21
215.3081308122
 31
0.0
  0
ARC
  5
81
330
42
100
AcDbEntity
  8
AP_454_1925
  6
Continuous
 62
     7
100
AcDbCircle
 10
176.3857881108
 20
215.0081308122
 30
0.0
 40
0.1999999999999954
100
AcDbArc
 50
180.0
 51
315.0
  0
LINE
  5
82
330
42
100
AcDbEntity
  8
AP_454_1925
  6
Continuous
 62
     7
100
AcDbLine
 10
176.5339505745
 20
221.7423409959
 30
0.0
 11
177.1296865058
 21
221.1466050646
 31
0.0
  0
ARC
  5
83
330
42
100
AcDbEntity
  8
AP_454_1925
  6
Continuous
 62
     7
100
AcDbCircle
 10
176.3925292182
 20
221.6009196396
 30
0.0
 40
0.2000000000000057
100
AcDbArc
 50
45.0
 51
180.0
  0
LINE
  5
84
330
42
100
AcDbEntity
  8
AP_454_1925
  6
Continuous
 62
     7
100
AcDbLine
 10
176.1925292182
 20
221.3009196396
 30
0.0
 11
176.1925292182
 21
221.6009196396
 31
0.0
  0
LINE
  5
85
330
42
100
AcDbEntity
  8
AP_454_1925
  6
Continuous
 62
     7
100
AcDbLine
 10
174.6882651495
 20
221.3009196396
 30
0.0
 11
176.1925292182
 21
221.3009196396
 31
0.0
  0
ARC
  5
86
330
42
100
AcDbEntity
  8
AP_454_1925
  6
Continuous
 62
     7
100
AcDbCircle
 10
174.6882651495
 20
221.8009196396
 30
0.0
 40
0.5000000000000004
100
AcDbArc
 50
180.0
 51
270.0
  0
LINE
  5
87
330
42
100
AcDbEntity
  8
AP_454_1925
  6
Continuous
 62
     7
100
AcDbLine
 10
174.1882651495
 20
223.8045252259
 30
0.0
 11
174.1882651495
 21
221.8009196396
 31
0.0
  0
ARC
  5
88
330
42
100
AcDbEntity
  8
AP_454_1925
  6
Continuous
 62
     7
100
AcDbCircle
 10
174.6882651495
 20
223.8045252259
 30
0.0
 40
0.5000000000000004
100
AcDbArc
 50
90.0
 51
180.0
  0
LINE
  5
89
330
42
100
AcDbEntity
  8
AP_454_1925
  6
Continuous
 62
     7
100
AcDbLine
 10
176.1925292182
 20
224.3045252259
 30
0.0
 11
174.6882651495
 21
224.3045252259
 31
0.0
  0
LINE
  5
8A
330
42
100
AcDbEntity
  8
AP_454_1925
  6
Continuous
 62
     7
100
AcDbLine
 10
176.1925292182
 20
224.0045252259
 30
0.0
 11
176.1925292182
 21
224.3045252259
 31
0.0
  0
ARC
  5
8B
330
42
100
AcDbEntity
  8
AP_454_1925
  6
Continuous
 62
     7
100
AcDbCircle
 10
176.3925292182
 20
224.0045252259
 30
0.0
 40
0.1999999999999954
100
AcDbArc
 50
180.0
 51
315.0
  0
LINE
  5
8C
330
42
100
AcDbEntity
  8
AP_454_1925
  6
Continuous
 62
     7
100
AcDbLine
 10
174.6882651495
 20
225.3045252259
 30
0.0
 11
176.9882651495
 21
225.3045252259
 31
0.0
  0
ARC
  5
8D
330
42
100
AcDbEntity
  8
AP_454_1925
  6
Continuous
 62
     7
100
AcDbCircle
 10
174.6882651495
 20
223.8045252259
 30
0.0
 40
1.500000000000001
100
AcDbArc
 50
90.0
 51
180.0
  0
LINE
  5
8E
330
42
100
AcDbEntity
  8
AP_454_1925
  6
Continuous
 62
     7
100
AcDbLine
 10
173.1882651495
 20
212.8045252259
 30
0.0
 11
173.1882651495
 21
223.8045252259
 31
0.0
  0
ARC
  5
8F
330
42
100
AcDbEntity
  8
AP_454_1925
  6
Continuous
 62
     7
100
AcDbCircle
 10
174.6882651495
 20
212.8045252259
 30
0.0
 40
1.500000000000001
100
AcDbArc
 50
180.0
 51
270.0
  0
LINE
  5
90
330
42
100
AcDbEntity
  8
AP_454_1925
  6
Continuous
 62
     7
100
AcDbLine
 10
177.1882651495
 20
221.0051837084
 30
0.0
 11
177.1882651495
 21
215.6106078509
 31
0.0
  0
ARC
  5
91
330
42
100
AcDbEntity
  8
AP_454_1925
  6
Continuous
 62
     7
100
AcDbCircle
 10
176.9882651495
 20
221.0051837084
 30
0.0
 40
0.2000000000000057
100
AcDbArc
 50
0.0
 51
45.0
  0
LINE
  5
92
330
42
100
AcDbEntity
  8
AP_454_1925
  6
Continuous
 62
     7
100
AcDbLine
 10
177.1296865058
 20
215.4691864947
 30
0.0
 11
176.527209467
 21
214.8667094559
 31
0.0
  0
ARC
  5
93
330
42
100
AcDbEntity
  8
AP_454_1925
  6
Continuous
 62
     7
100
AcDbCircle
 10
176.9882651495
 20
215.6106078509
 30
0.0
 40
0.2000000000000052
100
AcDbArc
 50
315.0
 51
0.0
  0
LINE
  5
94
330
42
100
AcDbEntity
  8
AP_454_1925
  6
Continuous
 62
     7
100
AcDbLine
 10
177.1882651495
 20
212.0020481872
 30
0.0
 11
177.1882651495
 21
211.5045252259
 31
0.0
  0
LINE
  5
95
330
42
100
AcDbEntity
  8
AP_454_1925
  6
Continuous
 62
     7
100
AcDbLine
 10
177.1882651495
 20
225.1045252259
 30
0.0
 11
177.1882651495
 21
224.6002611572
 31
0.0
  0
ARC
  5
96
330
42
100
AcDbEntity
  8
AP_454_1925
  6
Continuous
 62
     7
100
AcDbCircle
 10
176.9882651495
 20
225.1045252259
 30
0.0
 40
0.2000000000000057
100
AcDbArc
 50
0.0
 51
90.0
  0
LINE
  5
97
330
42
100
AcDbEntity
  8
AP_454_1925
  6
Continuous
 62
     7
100
AcDbLine
 10
177.1296865058
 20
224.458839801
 30
0.0
 11
176.5339505745
 21
223.8631038697
 31
0.0
  0
ARC
  5
98
330
42
100
AcDbEntity
  8
AP_454_1925
  6
Continuous
 62
     7
100
AcDbCircle
 10
176.9882651495
 20
224.6002611572
 30
0.0
 40
0.2000000000000003
100
AcDbArc
 50
315.0
 51
0.0
  0
LINE
  5
99
330
42
100
AcDbEntity
  8
AP_454_1925
  6
HIDDEN2
 62
     7
100
AcDbLine
 10
174.9382651495
 20
219.8045252259
 30
0.0
 11
174.9382651495
 21
216.8045252259
 31
0.0
  0
LINE
  5
9A
330
42
100
AcDbEntity
  8
AP_454_1925
  6
HIDDEN2
 62
     7
100
AcDbLine
 10
174.9382651495
 20
216.8045252259
 30
0.0
 11
177.1882651495
 21
216.8045252259
 31
0.0
  0
LINE
  5
9B
330
42
100
AcDbEntity
  8
AP_454_1925
  6
HIDDEN2
 62
     7
100
AcDbLine
 10
177.1882651495
 20
219.8045252259
 30
0.0
 11
174.9382651495
 21
219.8045252259
 31
0.0
  0
LINE
  5
9C
330
42
100
AcDbEntity
  8
AP_454_1925
  6
HIDDEN2
 62
     7
100
AcDbLine
 10
173.1882651495
 20
215.0545252259
 30
0.0
 11
174.9382651495
 21
216.8045252259
 31
0.0
  0
LINE
  5
9D
330
42
100
AcDbEntity
  8
AP_454_1925
  6
HIDDEN2
 62
     7
100
AcDbLine
 10
174.9382651495
 20
219.8045252259
 30
0.0
 11
173.1882651495
 21
221.5545252259
 31
0.0
  0
ARC
  5
9F
330
42
100
AcDbEntity
  8
AP_468_1941
  6
HIDDEN2
 62
     7
100
AcDbCircle
 10
163.9755507933
 20
210.2058181316
 30
0.0
 40
0.2000000000000041
100
AcDbArc
 50
270.698694383
 51
0.698694383
  0
LINE
  5
A0
330
42
100
AcDbEntity
  8
AP_468_1941
  6
HIDDEN2
 62
     7
100
AcDbLine
 10
164.1755359229
 20
210.2082569746
 30
0.0
 11
164.1621222861
 21
211.3081751872
 31
0.0
  0
LINE
  5
A1
330
42
100
AcDbEntity
  8
AP_468_1941
  6
HIDDEN2
 62
     7
100
AcDbLine
 10
48.4162395954
 20
206.1645252259
 30
0.0
 11
48.370732768
 21
209.8960850711
 31
0.0
  0
LINE
  5
A2
330
42
100
AcDbEntity
  8
AP_468_1941
  6
Continuous
 62
     7
100
AcDbLine
 10
42.1882651495
 20
208.420585608
 30
0.0
 11
42.1589990401
 21
210.8204065785
 31
0.0
  0
ARC
  5
A3
330
42
100
AcDbEntity
  8
AP_468_1941
  6
Continuous
 62
     7
100
AcDbCircle
 10
43.1589246879
 20
210.8326007937
 30
0.0
 40
1.000000000000004
100
AcDbArc
 50
90.698694383
 51
180.698694383
  0
LINE
  5
A4
330
42
100
AcDbEntity
  8
AP_468_1941
  6
Continuous
 62
     7
100
AcDbLine
 10
43.1467304727
 20
211.8325264415
 30
0.0
 11
164.1377338557
 21
213.3080264828
 31
0.0
  0
ARC
  5
A5
330
42
100
AcDbEntity
  8
AP_468_1941
  6
Continuous
 62
     7
100
AcDbCircle
 10
164.1499280709
 20
212.308100835
 30
0.0
 40
1.0
100
AcDbArc
 50
9.2173654227
 51
90.698694383
  0
ARC
  5
A6
330
42
100
AcDbEntity
  8
AP_468_1941
  6
HIDDEN2
 62
     7
100
AcDbCircle
 10
164.1779747659
 20
210.008271845
 30
0.0
 40
0.99999999999999
100
AcDbArc
 50
270.698694383
 51
0.698694383
  0
LINE
  5
A7
330
42
100
AcDbEntity
  8
AP_468_1941
  6
HIDDEN2
 62
     7
100
AcDbLine
 10
164.1901689811
 20
209.0083461972
 30
0.0
 11
163.8901912868
 21
209.0046879327
 31
0.0
  0
ARC
  5
A8
330
42
100
AcDbEntity
  8
AP_468_1941
  6
HIDDEN2
 62
     7
100
AcDbCircle
 10
163.8877524438
 20
209.2046730622
 30
0.0
 40
0.2000000000000067
100
AcDbArc
 50
180.698694383
 51
270.698694383
  0
LINE
  5
A9
330
42
100
AcDbEntity
  8
AP_468_1941
  6
HIDDEN2
 62
     7
100
AcDbLine
 10
163.6877673142
 20
209.2022342192
 30
0.0
 11
163.6804507851
 21
209.8021896079
 31
0.0
  0
ARC
  5
AA
330
42
100
AcDbEntity
  8
AP_468_1941
  6
HIDDEN2
 62
     7
100
AcDbCircle
 10
163.8804359146
 20
209.8046284509
 30
0.0
 40
0.1999999999999772
100
AcDbArc
 50
90.698694383
 51
180.698694383
  0
LINE
  5
AB
330
42
100
AcDbEntity
  8
AP_468_1941
  6
HIDDEN2
 62
     7
100
AcDbLine
 10
163.8779970716
 20
210.0046135805
 30
0.0
 11
163.9779896364
 21
210.005833002
 31
0.0
  0
ARC
  5
AC
330
42
100
AcDbEntity
  8
AP_468_1941
  6
HIDDEN2
 62
     7
100
AcDbCircle
 10
48.1707476384
 20
209.893646228
 30
0.0
 40
0.199999999999998
100
AcDbArc
 50
0.698694383
 51
90.698694383
  0
LINE
  5
AD
330
42
100
AcDbEntity
  8
AP_468_1941
  6
HIDDEN2
 62
     7
100
AcDbLine
 10
43.2967193199
 20
211.8343555738
 30
0.0
 11
45.1185350733
 21
210.0564389951
 31
0.0
  0
LINE
  5
AE
330
42
100
AcDbEntity
  8
AP_468_1941
  6
HIDDEN2
 62
     7
100
AcDbLine
 10
48.2116983737
 20
210.0874717383
 30
0.0
 11
49.9962211601
 21
211.9160568157
 31
0.0
  0
ARC
  5
B0
330
42
100
AcDbEntity
  8
AA_045
  6
Continuous
 62
     7
100
AcDbCircle
 10
164.1882651495
 20
212.1522557462
 30
0.0
 40
0.999999999999987
100
AcDbArc
 50
0.0
 51
18.4227216022
  0
LINE
  5
B2
330
42
100
AcDbEntity
  8
AA_046
  6
Continuous
 62
     7
100
AcDbLine
 10
42.1882651495
 20
210.6766459901
 30
0.0
 11
42.1882651495
 21
206.1645252259
 31
0.0
  0
LINE
  5
B3
330
42
100
AcDbEntity
  8
AA_046
  6
Continuous
 62
     7
100
AcDbLine
 10
43.1782651495
 20
206.1645252259
 30
0.0
 11
164.1982651495
 21
206.1645252259
 31
0.0
  0
LINE
  5
B4
330
42
100
AcDbEntity
  8
AA_046
  6
Continuous
 62
     7
100
AcDbLine
 10
164.1982651495
 20
206.1645252259
 30
0.0
 11
165.1882651495
 21
206.1645252259
 31
0.0
  0
LINE
  5
B5
330
42
100
AcDbEntity
  8
AA_046
  6
Continuous
 62
     7
100
AcDbLine
 10
42.1882651495
 20
206.1645252259
 30
0.0
 11
43.1782651495
 21
206.1645252259
 31
0.0
  0
LINE
  5
B6
330
42
100
AcDbEntity
  8
AA_046
  6
Continuous
 62
     7
100
AcDbLine
 10
165.1882651495
 20
206.1645252259
 30
0.0
 11
165.1882651495
 21
212.1522557462
 31
0.0
  0
ARC
  5
B7
330
42
100
AcDbEntity
  8
AA_046
  6
Continuous
 62
     7
100
AcDbCircle
 10
43.1882651495
 20
210.6766459901
 30
0.0
 40
1.000000000000001
100
AcDbArc
 50
90.698694383
 51
180.0
  0
ARC
  5
B8
330
42
100
AcDbEntity
  8
AA_046
  6
Continuous
 62
     7
100
AcDbCircle
 10
164.1882651495
 20
212.1522557462
 30
0.0
 40
0.999999999999987
100
AcDbArc
 50
0.0
 51
90.698694383
  0
LINE
  5
B9
330
42
100
AcDbEntity
  8
AA_046
  6
Continuous
 62
     7
100
AcDbLine
 10
164.1760709343
 20
213.152181394
 30
0.0
 11
43.1760709343
 21
211.6765716379
 31
0.0
  0
ENDBLK
  5
BB
330
42
100
AcDbEntity
  8
0
100
AcDbBlockEnd
  0
BLOCK
  5
BE
330
BD
100
AcDbEntity
  8
0
100
AcDbBlockBegin
  2
_OBLIQUE
 70
     0
 10
0.0
 20
0.0
 30
0.0
  3
_OBLIQUE
  1

  0
LINE
  5
C0
330
BD
100
AcDbEntity
  8
0
  6
ByBlock
 62
     0
370
    -2
100
AcDbLine
 10
-0.5
 20
-0.5
 30
0.0
 11
0.5
 21
0.5
 31
0.0
  0
ENDBLK
  5
BF
330
BD
100
AcDbEntity
  8
0
100
AcDbBlockEnd
  0
BLOCK
  5
C2
330
C1
100
AcDbEntity
  8
0
100
AcDbBlockBegin
  2
_DOT
 70
     0
 10
0.0
 20
0.0
 30
0.0
  3
_DOT
  1

  0
POLYLINE
  5
C4
330
C1
100
AcDbEntity
  8
0
  6
ByBlock
 62
     0
100
AcDb2dPolyline
 66
     1
 10
0.0
 20
0.0
 30
0.0
 70
     1
 40
0.5
 41
0.5
  0
VERTEX
  5
C6
330
C4
100
AcDbEntity
  8
0
  6
ByBlock
 62
     0
100
AcDbVertex
100
AcDb2dVertex
 10
-0.25
 20
0.0
 30
0.0
 42
1.0
  0
VERTEX
  5
C7
330
C4
100
AcDbEntity
  8
0
  6
ByBlock
 62
     0
100
AcDbVertex
100
AcDb2dVertex
 10
0.25
 20
0.0
 30
0.0
 42
1.0
  0
SEQEND
  5
C8
330
C4
100
AcDbEntity
  8
0
  6
ByBlock
 62
     0
  0
LINE
  5
C5
330
C1
100
AcDbEntity
  8
0
  6
ByBlock
 62
     0
370
    -2
100
AcDbLine
 10
-0.5
 20
0.0
 30
0.0
 11
-1.0
 21
0.0
 31
0.0
  0
ENDBLK
  5
C3
330
C1
100
AcDbEntity
  8
0
100
AcDbBlockEnd
  0
BLOCK
  5
CC
330
C9
100
AcDbEntity
  8
0
100
AcDbBlockBegin
  2
_SE_FILLED
 70
     0
 10
0.0
 20
0.0
 30
0.0
  3
_SE_FILLED
  1

  0
SOLID
  5
CA
330
C9
100
AcDbEntity
  8
0
 62
     0
100
AcDbTrace
 10
0.0
 20
0.0
 30
0.0
 11
-1.0
 21
-0.1665
 31
0.0
 12
-1.0
 22
0.1665
 32
0.0
 13
0.0
 23
0.0
 33
0.0
  0
LINE
  5
CB
330
C9
100
AcDbEntity
  8
0
 62
     0
100
AcDbLine
 10
0.0
 20
0.0
 30
0.0
 11
-1.0
 21
0.0
 31
0.0
  0
ENDBLK
  5
CD
330
C9
100
AcDbEntity
  8
0
100
AcDbBlockEnd
  0
BLOCK
  5
D7
330
D0
100
AcDbEntity
  8
0
100
AcDbBlockBegin
  2
DMBLK93
 70
     0
 10
0.0
 20
0.0
 30
0.0
  3
DMBLK93
  1

  0
HATCH
  5
D1
330
D0
100
AcDbEntity
  8
Standard
  6
Continuous
 62
     7
100
AcDbHatch
 10
0.0
 20
0.0
 30
0.0
210
0.0
220
0.0
230
1.0
  2
SOLID
 70
     1
 71
     0
 91
        1
 92
        1
 93
        3
 72
     1
 10
183.8078823590328
 20
209.9145251420849
 11
182.5578823869725
 21
209.9145251420849
 72
     1
 10
182.5578823869725
 20
209.9145251420849
 11
183.1828823730026
 21
206.1645252259039
 72
     1
 10
183.1828823730026
 20
206.1645252259039
 11
183.8078823590328
 21
209.9145251420849
 97
        0
 75
     0
 76
     1
 98
        0
  0
HATCH
  5
D2
330
D0
100
AcDbEntity
  8
Standard
  6
Continuous
 62
     7
100
AcDbHatch
 10
0.0
 20
0.0
 30
0.0
210
0.0
220
0.0
230
1.0
  2
SOLID
 70
     1
 71
     0
 91
        1
 92
        1
 93
        3
 72
     1
 10
183.8078823590328
 20
221.5545248334818
 11
183.1828823730026
 21
225.3045247496628
 72
     1
 10
183.1828823730026
 20
225.3045247496628
 11
182.5578823869725
 21
221.5545248334818
 72
     1
 10
182.5578823869725
 20
221.5545248334818
 11
183.8078823590328
 21
221.5545248334818
 97
        0
 75
     0
 76
     1
 98
        0
  0
LINE
  5
D3
330
D0
100
AcDbEntity
  8
Standard
  6
Continuous
 62
     7
100
AcDbLine
 10
173.0325302293
 20
206.1645252259
 30
0.0
 11
184.4328823451
 21
206.1645252259
 31
0.0
  0
LINE
  5
D4
330
D0
100
AcDbEntity
  8
Standard
  6
Continuous
 62
     7
100
AcDbLine
 10
177.738265156
 20
225.3045252259
 30
0.0
 11
184.4328823451
 21
225.3045252259
 31
0.0
  0
LINE
  5
D5
330
D0
100
AcDbEntity
  8
Standard
  6
Continuous
 62
     7
100
AcDbLine
 10
183.182882373
 20
206.1645252259
 30
0.0
 11
183.182882373
 21
225.3045247497
 31
0.0
  0
TEXT
  5
D6
330
D0
100
AcDbEntity
  8
Standard
  6
Continuous
 62
     7
100
AcDbText
 10
182.557882373
 20
213.7780032487
 30
0.0
 40
2.5
  1
19
 50
90.0
  7
SEACAD_Arial
 11
180.057882373
 21
213.7780032487
 31
0.0
100
AcDbText
 73
     3
  0
ENDBLK
  5
D8
330
D0
100
AcDbEntity
  8
0
100
AcDbBlockEnd
  0
BLOCK
  5
E1
330
DA
100
AcDbEntity
  8
0
100
AcDbBlockBegin
  2
DMBLK94
 70
     0
 10
0.0
 20
0.0
 30
0.0
  3
DMBLK94
  1

  0
HATCH
  5
DB
330
DA
100
AcDbEntity
  8
Standard
  6
Continuous
 62
     7
100
AcDbHatch
 10
0.0
 20
0.0
 30
0.0
210
0.0
220
0.0
230
1.0
  2
SOLID
 70
     1
 71
     0
 91
        1
 92
        1
 93
        3
 72
     1
 10
45.93826506570013
 20
199.4914298273217
 11
45.93826506570013
 21
200.741429799382
 72
     1
 10
45.93826506570013
 20
200.741429799382
 11
42.18826514951916
 21
200.1164298133518
 72
     1
 10
42.18826514951916
 20
200.1164298133518
 11
45.93826506570013
 21
199.4914298273217
 97
        0
 75
     0
 76
     1
 98
        0
  0
HATCH
  5
DC
330
DA
100
AcDbEntity
  8
Standard
  6
Continuous
 62
     7
100
AcDbHatch
 10
0.0
 20
0.0
 30
0.0
210
0.0
220
0.0
230
1.0
  2
SOLID
 70
     1
 71
     0
 91
        1
 92
        1
 93
        3
 72
     1
 10
173.4382705977562
 20
199.4914298273217
 11
177.1882705139372
 21
200.1164298133518
 72
     1
 10
177.1882705139372
 20
200.1164298133518
 11
173.4382705977562
 21
200.741429799382
 72
     1
 10
173.4382705977562
 20
200.741429799382
 11
173.4382705977562
 21
199.4914298273217
 97
        0
 75
     0
 76
     1
 98
        0
  0
LINE
  5
DD
330
DA
100
AcDbEntity
  8
Standard
  6
Continuous
 62
     7
100
AcDbLine
 10
42.1882651495
 20
205.4145252194
 30
0.0
 11
42.1882651495
 21
198.8664298413
 31
0.0
  0
LINE
  5
DE
330
DA
100
AcDbEntity
  8
Standard
  6
Continuous
 62
     7
100
AcDbLine
 10
177.1882651495
 20
210.5237395042
 30
0.0
 11
177.1882651495
 21
198.8664298413
 31
0.0
  0
LINE
  5
DF
330
DA
100
AcDbEntity
  8
Standard
  6
Continuous
 62
     7
100
AcDbLine
 10
42.1882651495
 20
200.1164298134
 30
0.0
 11
177.1882705139
 21
200.1164298134
 31
0.0
  0
TEXT
  5
E0
330
DA
100
AcDbEntity
  8
Standard
  6
Continuous
 62
     7
100
AcDbText
 10
106.753485223
 20
200.7414298134
 30
0.0
 40
2.5
  1
135
  7
SEACAD_Arial
 11
106.753485223
 21
203.2414298134
 31
0.0
100
AcDbText
 73
     3
  0
ENDBLK
  5
E2
330
DA
100
AcDbEntity
  8
0
100
AcDbBlockEnd
  0
BLOCK
  5
EB
330
E4
100
AcDbEntity
  8
0
100
AcDbBlockBegin
  2
DMBLK95
 70
     0
 10
0.0
 20
0.0
 30
0.0
  3
DMBLK95
  1

  0
HATCH
  5
E5
330
E4
100
AcDbEntity
  8
Standard
  6
Continuous
 62
     7
100
AcDbHatch
 10
0.0
 20
0.0
 30
0.0
210
0.0
220
0.0
230
1.0
  2
SOLID
 70
     1
 71
     0
 91
        1
 92
        1
 93
        3
 72
     1
 10
168.9382650656995
 20
231.9008174125776
 11
165.1882651495185
 21
231.2758174265475
 72
     1
 10
165.1882651495185
 20
231.2758174265475
 11
168.9382650656995
 21
230.6508174405173
 72
     1
 10
168.9382650656995
 20
230.6508174405173
 11
168.9382650656995
 21
231.9008174125776
 97
        0
 75
     0
 76
     1
 98
        0
  0
HATCH
  5
E6
330
E4
100
AcDbEntity
  8
Standard
  6
Continuous
 62
     7
100
AcDbHatch
 10
0.0
 20
0.0
 30
0.0
210
0.0
220
0.0
230
1.0
  2
SOLID
 70
     1
 71
     0
 91
        1
 92
        1
 93
        3
 72
     1
 10
173.4382653376457
 20
231.9008174125776
 11
173.4382653376457
 21
230.6508174405173
 72
     1
 10
173.4382653376457
 20
230.6508174405173
 11
177.1882652538267
 21
231.2758174265475
 72
     1
 10
177.1882652538267
 20
231.2758174265475
 11
173.4382653376457
 21
231.9008174125776
 97
        0
 75
     0
 76
     1
 98
        0
  0
LINE
  5
E7
330
E4
100
AcDbEntity
  8
Standard
  6
Continuous
 62
     7
100
AcDbLine
 10
165.1882651495
 20
212.9022557527
 30
0.0
 11
165.1882651495
 21
232.5258173986
 31
0.0
  0
LINE
  5
E8
330
E4
100
AcDbEntity
  8
Standard
  6
Continuous
 62
     7
100
AcDbLine
 10
177.1882651495
 20
225.8545252324
 30
0.0
 11
177.1882651495
 21
232.5258173986
 31
0.0
  0
LINE
  5
E9
330
E4
100
AcDbEntity
  8
Standard
  6
Continuous
 62
     7
100
AcDbLine
 10
165.1882651495
 20
231.2758174265
 30
0.0
 11
177.1882652538
 21
231.2758174265
 31
0.0
  0
TEXT
  5
EA
330
E4
100
AcDbEntity
  8
Standard
  6
Continuous
 62
     7
100
AcDbText
 10
169.2317434625
 20
231.9008174265
 30
0.0
 40
2.5
  1
12
  7
SEACAD_Arial
 11
169.2317434625
 21
234.4008174265
 31
0.0
100
AcDbText
 73
     3
  0
ENDBLK
  5
EC
330
E4
100
AcDbEntity
  8
0
100
AcDbBlockEnd
  0
BLOCK
  5
F6
330
EE
100
AcDbEntity
  8
0
100
AcDbBlockBegin
  2
DMBLK96
 70
     0
 10
0.0
 20
0.0
 30
0.0
  3
DMBLK96
  1

  0
HATCH
  5
EF
330
EE
100
AcDbEntity
  8
Standard
  6
Continuous
 62
     7
100
AcDbHatch
 10
0.0
 20
0.0
 30
0.0
210
0.0
220
0.0
230
1.0
  2
SOLID
 70
     1
 71
     0
 91
        1
 92
        1
 93
        3
 72
     1
 10
56.41429002401918
 20
231.902629987482
 11
52.66429010783821
 21
231.2776300014519
 72
     1
 10
52.66429010783821
 20
231.2776300014519
 11
56.41429002401918
 21
230.6526300154217
 72
     1
 10
56.41429002401918
 20
230.6526300154217
 11
56.41429002401918
 21
231.902629987482
 97
        0
 75
     0
 76
     1
 98
        0
  0
HATCH
  5
F0
330
EE
100
AcDbEntity
  8
Standard
  6
Continuous
 62
     7
100
AcDbHatch
 10
0.0
 20
0.0
 30
0.0
210
0.0
220
0.0
230
1.0
  2
SOLID
 70
     1
 71
     0
 91
        1
 92
        1
 93
        3
 72
     1
 10
160.412124516494
 20
231.902629987482
 11
160.412124516494
 21
230.6526300154217
 72
     1
 10
160.412124516494
 20
230.6526300154217
 11
164.1621244326749
 21
231.2776300014519
 72
     1
 10
164.1621244326749
 20
231.2776300014519
 11
160.412124516494
 21
231.902629987482
 97
        0
 75
     0
 76
     1
 98
        0
  0
LINE
  5
F1
330
EE
100
AcDbEntity
  8
Standard
  6
Continuous
 62
     7
100
AcDbLine
 10
52.6642901078
 20
210.1645252324
 30
0.0
 11
52.6642901078
 21
232.5276299735
 31
0.0
  0
LINE
  5
F2
330
EE
100
AcDbEntity
  8
Standard
  6
Continuous
 62
     7
100
AcDbLine
 10
164.1621222861
 20
211.3030865834
 30
0.0
 11
164.1621222861
 21
232.5276299735
 31
0.0
  0
LINE
  5
F3
330
EE
100
AcDbEntity
  8
Standard
  6
Continuous
 62
     7
100
AcDbLine
 10
52.6642901078
 20
231.2776300015
 30
0.0
 11
164.1621244327
 21
231.2776300015
 31
0.0
  0
TEXT
  5
F4
330
EE
100
AcDbEntity
  8
Standard
  6
Continuous
 62
     7
100
AcDbText
 10
90.0653811833
 20
231.9026300015
 30
0.0
 40
2.5
  1
     Auszuglänge > 110
  7
SEACAD_Arial
 11
90.0653811833
 21
234.4026300015
 31
0.0
100
AcDbText
 73
     3
  0
TEXT
  5
F5
330
EE
100
AcDbEntity
  8
Standard
  6
Continuous
 62
     7
100
AcDbText
 10
90.0653811833
 20
228.1526300015
 30
0.0
 40
2.5
  1
extension length > 110
  7
SEACAD_Arial
 11
90.0653811833
 21
230.6526300015
 31
0.0
100
AcDbText
 73
     3
  0
ENDBLK
  5
F7
330
EE
100
AcDbEntity
  8
0
100
AcDbBlockEnd
  0
BLOCK
  5
16A
330
F8
100
AcDbEntity
  8
0
100
AcDbBlockBegin
  2
SE1
 70
     0
 10
0.0
 20
0.0
 30
0.0
  3
SE1
  1

  0
HATCH
  5
FB
330
F8
100
AcDbEntity
  8
DV2_Standard
  6
Continuous
 62
   254
100
AcDbHatch
 10
0.0
 20
0.0
 30
0.0
210
0.0
220
0.0
230
1.0
  2
SOLID
 70
     1
 71
     0
 91
        1
 92
        1
 93
        4
 72
     1
 10
174.9382651495192
 20
135.9454487430914
 11
174.9382651495192
 21
132.9454487430914
 72
     1
 10
174.9382651495192
 20
132.9454487430914
 11
177.1882651495192
 21
132.9454487430914
 72
     1
 10
177.1882651495192
 20
132.9454487430914
 11
177.1882651495192
 21
135.9454487430914
 72
     1
 10
177.1882651495192
 20
135.9454487430914
 11
174.9382651495192
 21
135.9454487430914
 97
        0
 75
     0
 76
     1
 98
        0
  0
HATCH
  5
FC
330
F8
100
AcDbEntity
  8
DV2_Standard
  6
Continuous
 62
   254
100
AcDbHatch
 10
0.0
 20
0.0
 30
0.0
210
0.0
220
0.0
230
1.0
  2
SOLID
 70
     1
 71
     0
 91
        1
 92
        1
 93
       15
 72
     1
 10
51.66298431635837
 20
123.3054487430913
 11
165.1882651495191
 21
123.3054487430913
 72
     1
 10
165.1882651495191
 20
123.3054487430913
 11
165.1882651495185
 21
128.2931792634179
 72
     2
 10
164.1882651495186
 20
128.2931792634178
 40
0.999999999999987
 50
0.0000000000065138
 51
90.69869438298998
 73
     1
 72
     1
 10
164.1760709343015
 20
129.2931049112113
 11
49.84183775744599
 21
127.8987849944085
 72
     1
 10
49.84183775744599
 20
127.8987849944085
 11
48.21326308269052
 21
126.2299985992885
 72
     2
 10
48.17074763842709
 20
126.0345697452288
 40
0.199999999999998
 50
282.2734269020901
 51
359.3013056170059
 73
     0
 72
     1
 10
48.37073276798579
 20
126.0370085882722
 11
48.41623959536641
 21
122.3054487430922
 72
     1
 10
48.41623959536641
 20
122.3054487430922
 11
51.6629843163586
 21
122.3054487430926
 72
     2
 10
51.66298431635842
 20
124.0554487430913
 40
1.749999999999974
 50
90.00000000000352
 51
270.0
 73
     0
 72
     1
 10
51.66298431635842
 20
125.8054487430912
 11
52.41429010783826
 21
125.8054487430912
 72
     2
 10
52.41429010783826
 20
125.5554487430913
 40
0.2500000000000002
 50
270.0
 51
360.0
 73
     0
 72
     1
 10
52.66429010783826
 20
125.5554487430913
 11
52.66429010783826
 21
125.0554487430913
 72
     2
 10
52.41429010783826
 20
125.0554487430913
 40
0.2499999999999998
 50
0.0
 51
90.0
 73
     0
 72
     1
 10
52.41429010783826
 20
124.8054487430913
 11
51.66298431635842
 21
124.8054487430913
 72
     2
 10
51.66298431635842
 20
124.0554487430913
 40
0.7499999999999989
 50
90.0
 51
269.9999999999951
 73
     1
 97
        0
 75
     0
 76
     1
 98
        0
  0
HATCH
  5
FD
330
F8
100
AcDbEntity
  8
DV2_Standard
  6
Continuous
 62
   254
100
AcDbHatch
 10
0.0
 20
0.0
 30
0.0
210
0.0
220
0.0
230
1.0
  2
SOLID
 70
     1
 71
     0
 91
        1
 92
        1
 93
       11
 72
     1
 10
51.6629843163586
 20
122.3054487430926
 11
164.1982651495192
 21
122.3054487431042
 72
     1
 10
164.1982651495192
 20
122.3054487431042
 11
165.188265149519
 21
122.3054487431043
 72
     1
 10
165.188265149519
 20
122.3054487431043
 11
165.1882651495191
 21
123.3054487430913
 72
     1
 10
165.1882651495191
 20
123.3054487430913
 11
51.66298431635836
 21
123.3054487430913
 72
     2
 10
51.66298431635842
 20
124.0554487430913
 40
0.7499999999999989
 50
90.00000000000487
 51
270.0
 73
     0
 72
     1
 10
51.66298431635842
 20
124.8054487430913
 11
52.41429010783826
 21
124.8054487430913
 72
     2
 10
52.41429010783826
 20
125.0554487430913
 40
0.2499999999999998
 50
270.0
 51
360.0
 73
     1
 72
     1
 10
52.66429010783826
 20
125.0554487430913
 11
52.66429010783826
 21
125.5554487430912
 72
     2
 10
52.41429010783826
 20
125.5554487430913
 40
0.2500000000000002
 50
0.0
 51
90.0
 73
     1
 72
     1
 10
52.41429010783826
 20
125.8054487430913
 11
51.66298431635842
 21
125.8054487430912
 72
     2
 10
51.66298431635842
 20
124.0554487430913
 40
1.749999999999974
 50
90.0
 51
269.9999999999965
 73
     1
 97
        0
 75
     0
 76
     1
 98
        0
  0
HATCH
  5
FE
330
F8
100
AcDbEntity
  8
DV2_Standard
  6
Continuous
 62
   251
100
AcDbHatch
 10
0.0
 20
0.0
 30
0.0
210
0.0
220
0.0
230
1.0
  2
SOLID
 70
     1
 71
     0
 91
        1
 92
        1
 93
       25
 72
     1
 10
172.2825302228009
 20
123.3054487430913
 11
165.1882651495191
 21
123.3054487430913
 72
     1
 10
165.1882651495191
 20
123.3054487430913
 11
165.1882651495192
 21
122.3054487430913
 72
     1
 10
165.1882651495192
 20
122.3054487430913
 11
172.2825302228009
 21
122.3054487430913
 72
     2
 10
171.1498851145555
 20
128.6110118619952
 40
6.406481966548693
 50
280.1832340926269
 51
325.7950147364684
 73
     1
 72
     2
 10
172.9099295336399
 20
127.4146630279518
 40
4.278335615879366
 50
325.795014736468
 51
360.0
 73
     1
 72
     1
 10
177.1882651495193
 20
127.4146630279518
 11
177.1882651495193
 21
130.8648802680536
 72
     1
 10
177.1882651495193
 20
130.8648802680536
 11
176.5015555446764
 21
130.985965699299
 72
     2
 10
176.3857881107975
 20
131.1490543293536
 40
0.1999999999999954
 50
54.63120317388735
 51
145.3687968261215
 73
     0
 72
     1
 10
176.2212227108281
 20
131.035395941485
 11
175.4054962839238
 21
131.1792305194251
 72
     2
 10
175.1882651495193
 20
129.9472515362218
 40
1.250984244828623
 50
80.00000000000001
 51
143.0700390331714
 73
     1
 72
     1
 10
174.1882651495192
 20
130.6988907986405
 11
174.1882651495192
 21
130.5472515362218
 72
     1
 10
174.1882651495192
 20
130.5472515362218
 11
174.736626648082
 21
130.5472515362218
 72
     2
 10
175.1882651495192
 20
129.9472515362218
 40
0.7509842448283752
 50
233.0300957131157
 51
280.0000000000018
 73
     0
 72
     1
 10
175.3186721950903
 20
130.6868266429188
 11
176.4382651495193
 21
130.4894121976415
 72
     1
 10
176.4382651495193
 20
130.4894121976415
 11
176.4382651495193
 21
129.4050908748034
 72
     1
 10
176.4382651495193
 20
129.4050908748034
 11
175.3186721950911
 21
129.2076764295252
 72
     2
 10
175.1882651495192
 20
129.9472515362218
 40
0.7509842448280787
 50
79.99999999993065
 51
126.9699042868813
 73
     0
 72
     1
 10
174.7366266480822
 20
129.347251536222
 11
174.1882651495192
 21
129.3472515362218
 72
     1
 10
174.1882651495192
 20
129.3472515362218
 11
174.1882651495192
 21
129.1956122738031
 72
     2
 10
175.1882651495193
 20
129.9472515362218
 40
1.250984244828588
 50
216.9299609668286
 51
280.0000000000662
 73
     1
 72
     1
 10
175.4054962839252
 20
128.7152725530187
 11
176.4382651495193
 21
128.8973775688598
 72
     1
 10
176.4382651495193
 20
128.8973775688598
 11
176.4382651495193
 21
127.4620977601701
 72
     2
 10
172.9099295336399
 20
127.4146630279518
 40
3.528654456319555
 50
359.2297653813294
 51
395.817256833635
 73
     0
 72
     1
 10
175.7712716756888
 20
125.3496876241663
 11
175.4230633389152
 21
125.2685826835736
 72
     2
 10
171.1498851145555
 20
128.6110118619952
 40
5.425116123172487
 50
38.03209472926629
 51
77.94924814742488
 73
     0
 97
        0
 75
     0
 76
     1
 98
        0
  0
HATCH
  5
100
330
F8
100
AcDbEntity
  8
DV2_Default
  6
Continuous
 62
   254
100
AcDbHatch
 10
0.0
 20
0.0
 30
0.0
210
0.0
220
0.0
230
1.0
  2
SOLID
 70
     1
 71
     0
 91
        1
 92
        1
 93
        7
 72
     2
 10
43.18826514951875
 20
126.8175695073077
 40
1.000000000000001
 50
179.9999999999943
 51
269.3013056170104
 73
     0
 72
     1
 10
43.17607093430165
 20
127.8174951551012
 11
43.45491465837402
 21
127.8208956883217
 72
     1
 10
43.45491465837402
 20
127.8208956883217
 11
43.29671931986795
 21
127.9752790909601
 72
     1
 10
43.29671931986795
 20
127.9752790909601
 11
43.14673047269891
 21
127.9734499586775
 72
     2
 10
43.15892468791603
 20
126.973524310884
 40
1.000000000000004
 50
90.69869438299078
 51
180.69869438299
 73
     1
 72
     1
 10
42.15899904012253
 20
126.9613300956669
 11
42.18826514951898
 21
124.5615091251777
 72
     1
 10
42.18826514951898
 20
124.5615091251777
 11
42.18826514951875
 21
126.8175695073076
 97
        0
 75
     0
 76
     1
 98
        0
  0
HATCH
  5
101
330
F8
100
AcDbEntity
  8
DV2_Default
  6
Continuous
 62
   254
100
AcDbHatch
 10
0.0
 20
0.0
 30
0.0
210
0.0
220
0.0
230
1.0
  2
SOLID
 70
     1
 71
     0
 91
        1
 92
        1
 93
        4
 72
     1
 10
43.45491465837402
 20
127.8208956883217
 11
49.84183775744599
 21
127.8987849944086
 72
     1
 10
49.84183775744598
 20
127.8987849944086
 11
49.99622116008437
 21
128.0569803329146
 72
     1
 10
49.99622116008437
 20
128.0569803329146
 11
43.29671931986796
 21
127.9752790909601
 72
     1
 10
43.29671931986796
 20
127.9752790909601
 11
43.45491465837402
 21
127.8208956883217
 97
        0
 75
     0
 76
     1
 98
        0
  0
HATCH
  5
102
330
F8
100
AcDbEntity
  8
DV2_Default
  6
Continuous
 62
   254
100
AcDbHatch
 10
0.0
 20
0.0
 30
0.0
210
0.0
220
0.0
230
1.0
  2
SOLID
 70
     1
 71
     0
 91
        1
 92
        1
 93
        5
 72
     1
 10
164.1377338557118
 20
129.4489499999463
 11
49.99622116008437
 21
128.0569803329146
 72
     1
 10
49.99622116008437
 20
128.0569803329146
 11
49.84183775744598
 21
127.8987849944085
 72
     1
 10
49.84183775744598
 20
127.8987849944085
 11
164.1760709343015
 21
129.2931049112113
 72
     2
 10
164.1882651495186
 20
128.2931792634178
 40
0.999999999999987
 50
269.30130561701
 51
341.5772781564785
 73
     0
 72
     2
 10
164.1499280709289
 20
128.4490243521528
 40
1.0
 50
9.217356027345987
 51
90.69869438298997
 73
     1
 97
        0
 75
     0
 76
     1
 98
        0
  0
HATCH
  5
103
330
F8
100
AcDbEntity
  8
DV2_Default
  6
Continuous
 62
   254
100
AcDbHatch
 10
0.0
 20
0.0
 30
0.0
210
0.0
220
0.0
230
1.0
  2
SOLID
 70
     1
 71
     0
 91
        1
 92
        1
 93
       30
 72
     1
 10
173.1882651495192
 20
131.1954487430914
 11
173.1882651495192
 21
128.9454487430914
 72
     2
 10
174.6882651495192
 20
128.9454487430914
 40
1.500000000000001
 50
180.0
 51
270.0
 73
     1
 72
     1
 10
174.6882651495192
 20
127.4454487430914
 11
176.4384496925517
 21
127.4454487430914
 72
     1
 10
176.4384496925517
 20
127.4454487430914
 11
176.4382651495193
 21
127.4620977601701
 72
     1
 10
176.4382651495193
 20
127.4620977601701
 11
176.4382651495193
 21
128.8973775688598
 72
     1
 10
176.4382651495193
 20
128.8973775688598
 11
176.1857881107975
 21
128.8528590549235
 72
     1
 10
176.1857881107975
 20
128.8528590549235
 11
176.1857881107975
 21
128.7454487430914
 72
     1
 10
176.1857881107975
 20
128.7454487430914
 11
176.1857881107975
 21
128.4454487430914
 72
     1
 10
176.1857881107975
 20
128.4454487430914
 11
174.6882651495192
 21
128.4454487430914
 72
     2
 10
174.6882651495192
 20
128.9454487430914
 40
0.5000000000000004
 50
90.0
 51
116.5237937120727
 73
     0
 72
     2
 10
174.6882651495192
 20
128.9454487430914
 40
0.5000000000000004
 50
116.5237937120727
 51
180.0
 73
     0
 72
     1
 10
174.1882651495192
 20
128.9454487430914
 11
174.1882651495192
 21
129.1956122738031
 72
     2
 10
175.1882651495193
 20
129.9472515362218
 40
1.250984244828588
 50
143.0700390331714
 51
151.3392601689278
 73
     0
 72
     1
 10
174.0905577291155
 20
129.3472515362218
 11
174.1882651495192
 21
129.3472515362218
 72
     1
 10
174.1882651495192
 20
129.3472515362218
 11
174.1882651495192
 21
130.5472515362218
 72
     1
 10
174.1882651495192
 20
130.5472515362218
 11
174.0905577291155
 21
130.5472515362218
 72
     2
 10
175.1882651495193
 20
129.9472515362218
 40
1.250984244828623
 50
208.6607398310698
 51
216.9299609668286
 73
     0
 72
     1
 10
174.1882651495192
 20
130.6988907986405
 11
174.1882651495192
 21
130.9490543293536
 72
     2
 10
174.6882651495192
 20
130.9490543293536
 40
0.5000000000000004
 50
180.0
 51
243.4762062879564
 73
     0
 72
     2
 10
174.6882651495192
 20
130.9490543293536
 40
0.5000000000000004
 50
243.4762062879564
 51
270.0
 73
     0
 72
     1
 10
174.6882651495192
 20
131.4490543293536
 11
176.1857881107975
 21
131.4490543293536
 72
     1
 10
176.1857881107975
 20
131.4490543293536
 11
176.1857881107975
 21
131.1490543293536
 72
     2
 10
176.3857881107975
 20
131.1490543293536
 40
0.1999999999999954
 50
180.0
 51
214.6312031738785
 73
     1
 72
     1
 10
176.2212227108281
 20
131.035395941485
 11
176.5015555446764
 21
130.985965699299
 72
     2
 10
176.3857881107975
 20
131.1490543293536
 40
0.1999999999999954
 50
305.3687968261127
 51
314.9999999999943
 73
     1
 72
     1
 10
176.5272094670348
 20
131.0076329731163
 11
177.1296865057565
 21
131.610110011838
 72
     2
 10
176.9882651495192
 20
131.7515313680753
 40
0.2000000000000052
 50
315.0
 51
360.0
 73
     1
 72
     1
 10
177.1882651495192
 20
131.7515313680753
 11
177.1882651495192
 21
132.9454487430914
 72
     1
 10
177.1882651495192
 20
132.9454487430914
 11
174.9382651495192
 21
132.9454487430914
 72
     1
 10
174.9382651495192
 20
132.9454487430914
 11
173.1882651495192
 21
131.1954487430914
 97
        0
 75
     0
 76
     1
 98
        0
  0
HATCH
  5
104
330
F8
100
AcDbEntity
  8
DV2_Default
  6
Continuous
 62
   254
100
AcDbHatch
 10
0.0
 20
0.0
 30
0.0
210
0.0
220
0.0
230
1.0
  2
SOLID
 70
     1
 71
     0
 91
        1
 92
        1
 93
        4
 72
     1
 10
173.1882651495192
 20
137.6954487430914
 11
173.1882651495192
 21
131.1954487430914
 72
     1
 10
173.1882651495192
 20
131.1954487430914
 11
174.9382651495192
 21
132.9454487430914
 72
     1
 10
174.9382651495192
 20
132.9454487430914
 11
174.9382651495192
 21
135.9454487430914
 72
     1
 10
174.9382651495192
 20
135.9454487430914
 11
173.1882651495192
 21
137.6954487430914
 97
        0
 75
     0
 76
     1
 98
        0
  0
HATCH
  5
105
330
F8
100
AcDbEntity
  8
DV2_Default
  6
Continuous
 62
   254
100
AcDbHatch
 10
0.0
 20
0.0
 30
0.0
210
0.0
220
0.0
230
1.0
  2
SOLID
 70
     1
 71
     0
 91
        1
 92
        1
 93
       21
 72
     1
 10
176.1925292182311
 20
137.4418431568292
 11
174.6882651495192
 21
137.4418431568292
 72
     2
 10
174.6882651495192
 20
137.9418431568292
 40
0.5000000000000004
 50
90.0
 51
180.0
 73
     0
 72
     1
 10
174.1882651495192
 20
137.9418431568292
 11
174.1882651495192
 21
139.9454487430914
 72
     2
 10
174.6882651495192
 20
139.9454487430914
 40
0.5000000000000004
 50
180.0
 51
270.0
 73
     0
 72
     1
 10
174.6882651495192
 20
140.4454487430914
 11
176.1925292182312
 21
140.4454487430914
 72
     1
 10
176.1925292182311
 20
140.4454487430914
 11
176.1925292182311
 21
140.1454487430914
 72
     2
 10
176.3925292182311
 20
140.1454487430914
 40
0.1999999999999954
 50
180.0
 51
315.0000000000057
 73
     1
 72
     1
 10
176.5339505744685
 20
140.0040273868541
 11
177.1296865057565
 21
140.5997633181421
 72
     2
 10
176.9882651495192
 20
140.7411846743794
 40
0.2000000000000003
 50
315.0
 51
360.0
 73
     1
 72
     1
 10
177.1882651495192
 20
140.7411846743794
 11
177.1882651495192
 21
141.2454487430914
 72
     2
 10
176.9882651495192
 20
141.2454487430914
 40
0.2000000000000057
 50
0.0
 51
90.0
 73
     1
 72
     1
 10
176.9882651495192
 20
141.4454487430914
 11
174.6882651495192
 21
141.4454487430914
 72
     2
 10
174.6882651495192
 20
139.9454487430914
 40
1.500000000000001
 50
90.0
 51
180.0
 73
     1
 72
     1
 10
173.1882651495192
 20
139.9454487430914
 11
173.1882651495192
 21
137.6954487430914
 72
     1
 10
173.1882651495192
 20
137.6954487430914
 11
174.9382651495192
 21
135.9454487430914
 72
     1
 10
174.9382651495192
 20
135.9454487430914
 11
177.1882651495192
 21
135.9454487430914
 72
     1
 10
177.1882651495192
 20
135.9454487430914
 11
177.1882651495192
 21
137.1461072255411
 72
     2
 10
176.9882651495192
 20
137.1461072255411
 40
0.2000000000000057
 50
0.0
 51
45.0
 73
     1
 72
     1
 10
177.1296865057565
 20
137.2875285817784
 11
176.5339505744685
 21
137.8832645130665
 72
     2
 10
176.3925292182311
 20
137.7418431568291
 40
0.2000000000000057
 50
45.0
 51
180.0
 73
     1
 72
     1
 10
176.1925292182311
 20
137.7418431568291
 11
176.1925292182311
 21
137.4418431568292
 97
        0
 75
     0
 76
     1
 98
        0
  0
HATCH
  5
106
330
F8
100
AcDbEntity
  8
DV2_Default
  6
Continuous
 62
   251
100
AcDbHatch
 10
0.0
 20
0.0
 30
0.0
210
0.0
220
0.0
230
1.0
  2
SOLID
 70
     1
 71
     0
 91
        1
 92
        1
 93
        2
 72
     1
 10
176.5015555446764
 20
130.985965699299
 11
176.2212227108281
 21
131.0353959414849
 72
     2
 10
176.3857881107975
 20
131.1490543293536
 40
0.1999999999999954
 50
214.6312031738785
 51
305.3687968261127
 73
     1
 97
        0
 75
     0
 76
     1
 98
        0
  0
HATCH
  5
107
330
F8
100
AcDbEntity
  8
DV2_Default
  6
Continuous
 62
   251
100
AcDbHatch
 10
0.0
 20
0.0
 30
0.0
210
0.0
220
0.0
230
1.0
  2
SOLID
 70
     1
 71
     0
 91
        1
 92
        1
 93
        3
 72
     1
 10
174.0905577291155
 20
130.5472515362218
 11
174.1882651495192
 21
130.5472515362218
 72
     1
 10
174.1882651495192
 20
130.5472515362218
 11
174.1882651495192
 21
130.6988907986405
 72
     2
 10
175.1882651495193
 20
129.9472515362218
 40
1.250984244828623
 50
143.0700390331714
 51
151.3392601689302
 73
     1
 97
        0
 75
     0
 76
     1
 98
        0
  0
HATCH
  5
108
330
F8
100
AcDbEntity
  8
DV2_Default
  6
Continuous
 62
   251
100
AcDbHatch
 10
0.0
 20
0.0
 30
0.0
210
0.0
220
0.0
230
1.0
  2
SOLID
 70
     1
 71
     0
 91
        1
 92
        1
 93
        3
 72
     1
 10
174.1882651495192
 20
129.3472515362218
 11
174.0905577291155
 21
129.3472515362218
 72
     2
 10
175.1882651495193
 20
129.9472515362218
 40
1.250984244828588
 50
208.6607398310722
 51
216.9299609668286
 73
     1
 72
     1
 10
174.1882651495192
 20
129.1956122738031
 11
174.1882651495192
 21
129.3472515362218
 97
        0
 75
     0
 76
     1
 98
        0
  0
LINE
  5
109
330
F8
100
AcDbEntity
  8
DV2_Default
  6
Continuous
 62
     7
100
AcDbLine
 10
176.1857881108
 20
128.7454487431
 30
0.0
 11
176.1857881108
 21
128.8528590549
 31
0.0
  0
LINE
  5
10A
330
F8
100
AcDbEntity
  8
DV2_Default
  6
Continuous
 62
     7
100
AcDbLine
 10
174.6882651495
 20
127.4454487431
 30
0.0
 11
176.4384496926
 21
127.4454487431
 31
0.0
  0
HATCH
  5
10B
330
F8
100
AcDbEntity
  8
DV2_Default
  6
Continuous
 62
   254
100
AcDbHatch
 10
0.0
 20
0.0
 30
0.0
210
0.0
220
0.0
230
1.0
  2
SOLID
 70
     1
 71
     0
 91
        1
 92
        1
 93
        5
 72
     1
 10
45.11853507328704
 20
126.1973625123226
 11
48.16830879538367
 21
126.2345548747875
 72
     2
 10
48.17074763842709
 20
126.0345697452288
 40
0.199999999999998
 50
269.3013056170101
 51
282.2734269020902
 73
     0
 72
     1
 10
48.21326308269052
 20
126.2299985992884
 11
49.84183775744598
 21
127.8987849944086
 72
     1
 10
49.84183775744598
 20
127.8987849944086
 11
43.45491465837403
 21
127.8208956883216
 72
     1
 10
43.45491465837404
 20
127.8208956883216
 11
45.11853507328704
 21
126.1973625123226
 97
        0
 75
     0
 76
     1
 98
        0
  0
HATCH
  5
10C
330
F8
100
AcDbEntity
  8
DV2_Default
  6
Continuous
 62
   254
100
AcDbHatch
 10
0.0
 20
0.0
 30
0.0
210
0.0
220
0.0
230
1.0
  2
SOLID
 70
     1
 71
     0
 91
        1
 92
        1
 93
        8
 72
     1
 10
42.18826514951875
 20
126.8175695073076
 11
42.1882651495192
 21
122.3054487430916
 72
     1
 10
42.1882651495192
 20
122.3054487430916
 11
43.17826514951922
 21
122.3054487430917
 72
     1
 10
43.17826514951923
 20
122.3054487430917
 11
44.9140224451836
 21
122.3054487430919
 72
     1
 10
44.9140224451836
 20
122.3054487430919
 11
44.95912624950179
 21
126.0039606971517
 72
     2
 10
45.15911137906046
 20
126.0015218541083
 40
0.199999999999998
 50
180.6986943829859
 51
258.2944862025316
 73
     0
 72
     1
 10
45.11853507328704
 20
126.1973625123226
 11
43.45491465837402
 21
127.8208956883217
 72
     1
 10
43.45491465837402
 20
127.8208956883217
 11
43.17607093430168
 21
127.8174951551012
 72
     2
 10
43.18826514951875
 20
126.8175695073077
 40
1.000000000000001
 50
90.69869438298956
 51
180.0000000000057
 73
     1
 97
        0
 75
     0
 76
     1
 98
        0
  0
HATCH
  5
10D
330
F8
100
AcDbEntity
  8
DV2_Default
  6
Continuous
 62
   254
100
AcDbHatch
 10
0.0
 20
0.0
 30
0.0
210
0.0
220
0.0
230
1.0
  2
SOLID
 70
     1
 71
     0
 91
        1
 92
        1
 93
        6
 72
     1
 10
48.41623959536641
 20
122.3054487430922
 11
48.37073276798578
 21
126.0370085882722
 72
     2
 10
48.17074763842709
 20
126.0345697452288
 40
0.199999999999998
 50
0.6986943829940454
 51
90.69869438298993
 73
     1
 72
     1
 10
48.16830879538367
 20
126.2345548747875
 11
45.11853507328704
 21
126.1973625123226
 72
     2
 10
45.15911137906046
 20
126.0015218541083
 40
0.199999999999998
 50
101.7055137974684
 51
179.3013056170141
 73
     1
 72
     1
 10
44.95912624950177
 20
126.0039606971517
 11
44.9140224451836
 21
122.3054487430918
 72
     1
 10
44.9140224451836
 20
122.3054487430918
 11
48.41623959536641
 21
122.3054487430922
 97
        0
 75
     0
 76
     1
 98
        0
  0
LINE
  5
10E
330
F8
100
AcDbEntity
  8
DV2_Default
  6
HIDDEN2
 62
     7
100
AcDbLine
 10
48.1683087954
 20
126.2345548748
 30
0.0
 11
45.1185350733
 21
126.1973625123
 31
0.0
  0
ARC
  5
10F
330
F8
100
AcDbEntity
  8
DV2_Standard
  6
HIDDEN2
 62
     7
100
AcDbCircle
 10
45.1591113791
 20
126.0015218541
 30
0.0
 40
0.199999999999998
100
AcDbArc
 50
101.7055137975
 51
179.301305617
  0
LINE
  5
110
330
F8
100
AcDbEntity
  8
DV2_Standard
  6
HIDDEN2
 62
     7
100
AcDbLine
 10
44.9140224452
 20
122.3054487431
 30
0.0
 11
44.9591262495
 21
126.0039606972
 31
0.0
  0
LINE
  5
111
330
F8
100
AcDbEntity
  8
AP_453_90GRAD_19
  6
Continuous
 62
     7
100
AcDbLine
 10
165.1882651495
 20
122.3054487431
 30
0.0
 11
172.2825302228
 21
122.3054487431
 31
0.0
  0
ARC
  5
112
330
F8
100
AcDbEntity
  8
AP_453_90GRAD_19
  6
Continuous
 62
     7
100
AcDbCircle
 10
171.1498851146
 20
128.611011862
 30
0.0
 40
6.406481966548693
100
AcDbArc
 50
280.1832340926
 51
325.7950147365
  0
ARC
  5
113
330
F8
100
AcDbEntity
  8
AP_453_90GRAD_19
  6
Continuous
 62
     7
100
AcDbCircle
 10
172.9099295336
 20
127.414663028
 30
0.0
 40
4.278335615879366
100
AcDbArc
 50
325.7950147365
 51
0.0
  0
LINE
  5
114
330
F8
100
AcDbEntity
  8
AP_453_90GRAD_19
  6
Continuous
 62
     7
100
AcDbLine
 10
177.1882651495
 20
127.414663028
 30
0.0
 11
177.1882651495
 21
130.8648802681
 31
0.0
  0
LINE
  5
115
330
F8
100
AcDbEntity
  8
AP_453_90GRAD_19
  6
Continuous
 62
     7
100
AcDbLine
 10
177.1882651495
 20
130.8648802681
 30
0.0
 11
175.4054962839
 21
131.1792305194
 31
0.0
  0
ARC
  5
116
330
F8
100
AcDbEntity
  8
AP_453_90GRAD_19
  6
Continuous
 62
     7
100
AcDbCircle
 10
175.1882651495
 20
129.9472515362
 30
0.0
 40
1.250984244828623
100
AcDbArc
 50
80.0
 51
151.3392601689
  0
LINE
  5
117
330
F8
100
AcDbEntity
  8
AP_453_90GRAD_19
  6
Continuous
 62
     7
100
AcDbLine
 10
174.0905577291
 20
130.5472515362
 30
0.0
 11
174.7366266481
 21
130.5472515362
 31
0.0
  0
ARC
  5
118
330
F8
100
AcDbEntity
  8
AP_453_90GRAD_19
  6
Continuous
 62
     7
100
AcDbCircle
 10
175.1882651495
 20
129.9472515362
 30
0.0
 40
0.7509842448283752
100
AcDbArc
 50
80.0
 51
126.9699042869
  0
LINE
  5
119
330
F8
100
AcDbEntity
  8
AP_453_90GRAD_19
  6
Continuous
 62
     7
100
AcDbLine
 10
175.3186721951
 20
130.6868266429
 30
0.0
 11
176.4382651495
 21
130.4894121976
 31
0.0
  0
LINE
  5
11A
330
F8
100
AcDbEntity
  8
AP_453_90GRAD_19
  6
Continuous
 62
     7
100
AcDbLine
 10
176.4382651495
 20
130.4894121976
 30
0.0
 11
176.4382651495
 21
129.4050908748
 31
0.0
  0
LINE
  5
11B
330
F8
100
AcDbEntity
  8
AP_453_90GRAD_19
  6
Continuous
 62
     7
100
AcDbLine
 10
176.4382651495
 20
129.4050908748
 30
0.0
 11
175.3186721951
 21
129.2076764295
 31
0.0
  0
ARC
  5
11C
330
F8
100
AcDbEntity
  8
AP_453_90GRAD_19
  6
Continuous
 62
     7
100
AcDbCircle
 10
175.1882651495
 20
129.9472515362
 30
0.0
 40
0.7509842448280787
100
AcDbArc
 50
233.0300957131
 51
280.0000000001
  0
LINE
  5
11D
330
F8
100
AcDbEntity
  8
AP_453_90GRAD_19
  6
Continuous
 62
     7
100
AcDbLine
 10
174.7366266481
 20
129.3472515362
 30
0.0
 11
174.0905577291
 21
129.3472515362
 31
0.0
  0
ARC
  5
11E
330
F8
100
AcDbEntity
  8
AP_453_90GRAD_19
  6
Continuous
 62
     7
100
AcDbCircle
 10
175.1882651495
 20
129.9472515362
 30
0.0
 40
1.250984244828588
100
AcDbArc
 50
208.6607398311
 51
280.0000000001
  0
LINE
  5
11F
330
F8
100
AcDbEntity
  8
AP_453_90GRAD_19
  6
Continuous
 62
     7
100
AcDbLine
 10
175.4054962839
 20
128.715272553
 30
0.0
 11
176.4382651495
 21
128.8973775689
 31
0.0
  0
LINE
  5
120
330
F8
100
AcDbEntity
  8
AP_453_90GRAD_19
  6
Continuous
 62
     7
100
AcDbLine
 10
176.4382651495
 20
128.8973775689
 30
0.0
 11
176.4382651495
 21
127.4620977602
 31
0.0
  0
ARC
  5
121
330
F8
100
AcDbEntity
  8
AP_453_90GRAD_19
  6
Continuous
 62
     7
100
AcDbCircle
 10
172.9099295336
 20
127.414663028
 30
0.0
 40
3.528654456319555
100
AcDbArc
 50
324.1827431664
 51
0.7702346187
  0
LINE
  5
122
330
F8
100
AcDbEntity
  8
AP_453_90GRAD_19
  6
Continuous
 62
     7
100
AcDbLine
 10
175.7712716757
 20
125.3496876242
 30
0.0
 11
175.4230633389
 21
125.2685826836
 31
0.0
  0
ARC
  5
123
330
F8
100
AcDbEntity
  8
AP_453_90GRAD_19
  6
Continuous
 62
     7
100
AcDbCircle
 10
171.1498851146
 20
128.611011862
 30
0.0
 40
5.425116123172487
100
AcDbArc
 50
282.0507518526
 51
321.9679052707
  0
LINE
  5
124
330
F8
100
AcDbEntity
  8
AP_453_90GRAD_19
  6
Continuous
 62
     7
100
AcDbLine
 10
172.2825302228
 20
123.3054487431
 30
0.0
 11
165.1882651495
 21
123.3054487431
 31
0.0
  0
LINE
  5
125
330
F8
100
AcDbEntity
  8
AP_453_90GRAD_19
  6
HIDDEN2
 62
     7
100
AcDbLine
 10
165.1882651495
 20
123.3054487431
 30
0.0
 11
51.6629843164
 21
123.3054487431
 31
0.0
  0
ARC
  5
126
330
F8
100
AcDbEntity
  8
AP_453_90GRAD_19
  6
HIDDEN2
 62
     7
100
AcDbCircle
 10
51.6629843164
 20
124.0554487431
 30
0.0
 40
0.7499999999999989
100
AcDbArc
 50
90.0
 51
270.0
  0
LINE
  5
127
330
F8
100
AcDbEntity
  8
AP_453_90GRAD_19
  6
HIDDEN2
 62
     7
100
AcDbLine
 10
51.6629843164
 20
124.8054487431
 30
0.0
 11
52.4142901078
 21
124.8054487431
 31
0.0
  0
ARC
  5
128
330
F8
100
AcDbEntity
  8
AP_453_90GRAD_19
  6
HIDDEN2
 62
     7
100
AcDbCircle
 10
52.4142901078
 20
125.0554487431
 30
0.0
 40
0.2499999999999998
100
AcDbArc
 50
270.0
 51
0.0
  0
LINE
  5
129
330
F8
100
AcDbEntity
  8
AP_453_90GRAD_19
  6
HIDDEN2
 62
     7
100
AcDbLine
 10
52.6642901078
 20
125.0554487431
 30
0.0
 11
52.6642901078
 21
125.5554487431
 31
0.0
  0
ARC
  5
12A
330
F8
100
AcDbEntity
  8
AP_453_90GRAD_19
  6
HIDDEN2
 62
     7
100
AcDbCircle
 10
52.4142901078
 20
125.5554487431
 30
0.0
 40
0.2500000000000002
100
AcDbArc
 50
0.0
 51
90.0
  0
LINE
  5
12B
330
F8
100
AcDbEntity
  8
AP_453_90GRAD_19
  6
HIDDEN2
 62
     7
100
AcDbLine
 10
52.4142901078
 20
125.8054487431
 30
0.0
 11
51.6629843164
 21
125.8054487431
 31
0.0
  0
ARC
  5
12C
330
F8
100
AcDbEntity
  8
AP_453_90GRAD_19
  6
HIDDEN2
 62
     7
100
AcDbCircle
 10
51.6629843164
 20
124.0554487431
 30
0.0
 40
1.749999999999974
100
AcDbArc
 50
90.0
 51
270.0
  0
LINE
  5
12D
330
F8
100
AcDbEntity
  8
AP_454_1925
  6
Continuous
 62
     7
100
AcDbLine
 10
176.1857881108
 20
128.4454487431
 30
0.0
 11
176.1857881108
 21
128.7454487431
 31
0.0
  0
LINE
  5
12E
330
F8
100
AcDbEntity
  8
AP_454_1925
  6
Continuous
 62
     7
100
AcDbLine
 10
174.6882651495
 20
128.4454487431
 30
0.0
 11
176.1857881108
 21
128.4454487431
 31
0.0
  0
ARC
  5
12F
330
F8
100
AcDbEntity
  8
AP_454_1925
  6
Continuous
 62
     7
100
AcDbCircle
 10
174.6882651495
 20
128.9454487431
 30
0.0
 40
0.5000000000000004
100
AcDbArc
 50
180.0
 51
270.0
  0
LINE
  5
130
330
F8
100
AcDbEntity
  8
AP_454_1925
  6
Continuous
 62
     7
100
AcDbLine
 10
174.1882651495
 20
130.9490543294
 30
0.0
 11
174.1882651495
 21
128.9454487431
 31
0.0
  0
ARC
  5
131
330
F8
100
AcDbEntity
  8
AP_454_1925
  6
Continuous
 62
     7
100
AcDbCircle
 10
174.6882651495
 20
130.9490543294
 30
0.0
 40
0.5000000000000004
100
AcDbArc
 50
90.0
 51
180.0
  0
LINE
  5
132
330
F8
100
AcDbEntity
  8
AP_454_1925
  6
Continuous
 62
     7
100
AcDbLine
 10
176.1857881108
 20
131.4490543294
 30
0.0
 11
174.6882651495
 21
131.4490543294
 31
0.0
  0
LINE
  5
133
330
F8
100
AcDbEntity
  8
AP_454_1925
  6
Continuous
 62
     7
100
AcDbLine
 10
176.1857881108
 20
131.1490543294
 30
0.0
 11
176.1857881108
 21
131.4490543294
 31
0.0
  0
ARC
  5
134
330
F8
100
AcDbEntity
  8
AP_454_1925
  6
Continuous
 62
     7
100
AcDbCircle
 10
176.3857881108
 20
131.1490543294
 30
0.0
 40
0.1999999999999954
100
AcDbArc
 50
180.0
 51
315.0
  0
LINE
  5
135
330
F8
100
AcDbEntity
  8
AP_454_1925
  6
Continuous
 62
     7
100
AcDbLine
 10
176.5339505745
 20
137.8832645131
 30
0.0
 11
177.1296865058
 21
137.2875285818
 31
0.0
  0
ARC
  5
136
330
F8
100
AcDbEntity
  8
AP_454_1925
  6
Continuous
 62
     7
100
AcDbCircle
 10
176.3925292182
 20
137.7418431568
 30
0.0
 40
0.2000000000000057
100
AcDbArc
 50
45.0
 51
180.0
  0
LINE
  5
137
330
F8
100
AcDbEntity
  8
AP_454_1925
  6
Continuous
 62
     7
100
AcDbLine
 10
176.1925292182
 20
137.4418431568
 30
0.0
 11
176.1925292182
 21
137.7418431568
 31
0.0
  0
LINE
  5
138
330
F8
100
AcDbEntity
  8
AP_454_1925
  6
Continuous
 62
     7
100
AcDbLine
 10
174.6882651495
 20
137.4418431568
 30
0.0
 11
176.1925292182
 21
137.4418431568
 31
0.0
  0
ARC
  5
139
330
F8
100
AcDbEntity
  8
AP_454_1925
  6
Continuous
 62
     7
100
AcDbCircle
 10
174.6882651495
 20
137.9418431568
 30
0.0
 40
0.5000000000000004
100
AcDbArc
 50
180.0
 51
270.0
  0
LINE
  5
13A
330
F8
100
AcDbEntity
  8
AP_454_1925
  6
Continuous
 62
     7
100
AcDbLine
 10
174.1882651495
 20
139.9454487431
 30
0.0
 11
174.1882651495
 21
137.9418431568
 31
0.0
  0
ARC
  5
13B
330
F8
100
AcDbEntity
  8
AP_454_1925
  6
Continuous
 62
     7
100
AcDbCircle
 10
174.6882651495
 20
139.9454487431
 30
0.0
 40
0.5000000000000004
100
AcDbArc
 50
90.0
 51
180.0
  0
LINE
  5
13C
330
F8
100
AcDbEntity
  8
AP_454_1925
  6
Continuous
 62
     7
100
AcDbLine
 10
176.1925292182
 20
140.4454487431
 30
0.0
 11
174.6882651495
 21
140.4454487431
 31
0.0
  0
LINE
  5
13D
330
F8
100
AcDbEntity
  8
AP_454_1925
  6
Continuous
 62
     7
100
AcDbLine
 10
176.1925292182
 20
140.1454487431
 30
0.0
 11
176.1925292182
 21
140.4454487431
 31
0.0
  0
ARC
  5
13E
330
F8
100
AcDbEntity
  8
AP_454_1925
  6
Continuous
 62
     7
100
AcDbCircle
 10
176.3925292182
 20
140.1454487431
 30
0.0
 40
0.1999999999999954
100
AcDbArc
 50
180.0
 51
315.0
  0
LINE
  5
13F
330
F8
100
AcDbEntity
  8
AP_454_1925
  6
Continuous
 62
     7
100
AcDbLine
 10
174.6882651495
 20
141.4454487431
 30
0.0
 11
176.9882651495
 21
141.4454487431
 31
0.0
  0
ARC
  5
140
330
F8
100
AcDbEntity
  8
AP_454_1925
  6
Continuous
 62
     7
100
AcDbCircle
 10
174.6882651495
 20
139.9454487431
 30
0.0
 40
1.500000000000001
100
AcDbArc
 50
90.0
 51
180.0
  0
LINE
  5
141
330
F8
100
AcDbEntity
  8
AP_454_1925
  6
Continuous
 62
     7
100
AcDbLine
 10
173.1882651495
 20
128.9454487431
 30
0.0
 11
173.1882651495
 21
139.9454487431
 31
0.0
  0
ARC
  5
142
330
F8
100
AcDbEntity
  8
AP_454_1925
  6
Continuous
 62
     7
100
AcDbCircle
 10
174.6882651495
 20
128.9454487431
 30
0.0
 40
1.500000000000001
100
AcDbArc
 50
180.0
 51
270.0
  0
LINE
  5
143
330
F8
100
AcDbEntity
  8
AP_454_1925
  6
Continuous
 62
     7
100
AcDbLine
 10
177.1882651495
 20
137.1461072255
 30
0.0
 11
177.1882651495
 21
131.7515313681
 31
0.0
  0
ARC
  5
144
330
F8
100
AcDbEntity
  8
AP_454_1925
  6
Continuous
 62
     7
100
AcDbCircle
 10
176.9882651495
 20
137.1461072255
 30
0.0
 40
0.2000000000000057
100
AcDbArc
 50
0.0
 51
45.0
  0
LINE
  5
145
330
F8
100
AcDbEntity
  8
AP_454_1925
  6
Continuous
 62
     7
100
AcDbLine
 10
177.1296865058
 20
131.6101100118
 30
0.0
 11
176.527209467
 21
131.0076329731
 31
0.0
  0
ARC
  5
146
330
F8
100
AcDbEntity
  8
AP_454_1925
  6
Continuous
 62
     7
100
AcDbCircle
 10
176.9882651495
 20
131.7515313681
 30
0.0
 40
0.2000000000000052
100
AcDbArc
 50
315.0
 51
0.0
  0
LINE
  5
147
330
F8
100
AcDbEntity
  8
AP_454_1925
  6
Continuous
 62
     7
100
AcDbLine
 10
177.1882651495
 20
128.1429717044
 30
0.0
 11
177.1882651495
 21
127.6454487431
 31
0.0
  0
LINE
  5
148
330
F8
100
AcDbEntity
  8
AP_454_1925
  6
Continuous
 62
     7
100
AcDbLine
 10
177.1882651495
 20
141.2454487431
 30
0.0
 11
177.1882651495
 21
140.7411846744
 31
0.0
  0
ARC
  5
149
330
F8
100
AcDbEntity
  8
AP_454_1925
  6
Continuous
 62
     7
100
AcDbCircle
 10
176.9882651495
 20
141.2454487431
 30
0.0
 40
0.2000000000000057
100
AcDbArc
 50
0.0
 51
90.0
  0
LINE
  5
14A
330
F8
100
AcDbEntity
  8
AP_454_1925
  6
Continuous
 62
     7
100
AcDbLine
 10
177.1296865058
 20
140.5997633181
 30
0.0
 11
176.5339505745
 21
140.0040273869
 31
0.0
  0
ARC
  5
14B
330
F8
100
AcDbEntity
  8
AP_454_1925
  6
Continuous
 62
     7
100
AcDbCircle
 10
176.9882651495
 20
140.7411846744
 30
0.0
 40
0.2000000000000003
100
AcDbArc
 50
315.0
 51
0.0
  0
LINE
  5
14C
330
F8
100
AcDbEntity
  8
AP_454_1925
  6
HIDDEN2
 62
     7
100
AcDbLine
 10
174.9382651495
 20
135.9454487431
 30
0.0
 11
174.9382651495
 21
132.9454487431
 31
0.0
  0
LINE
  5
14D
330
F8
100
AcDbEntity
  8
AP_454_1925
  6
HIDDEN2
 62
     7
100
AcDbLine
 10
174.9382651495
 20
132.9454487431
 30
0.0
 11
177.1882651495
 21
132.9454487431
 31
0.0
  0
LINE
  5
14E
330
F8
100
AcDbEntity
  8
AP_454_1925
  6
HIDDEN2
 62
     7
100
AcDbLine
 10
177.1882651495
 20
135.9454487431
 30
0.0
 11
174.9382651495
 21
135.9454487431
 31
0.0
  0
LINE
  5
14F
330
F8
100
AcDbEntity
  8
AP_454_1925
  6
HIDDEN2
 62
     7
100
AcDbLine
 10
173.1882651495
 20
131.1954487431
 30
0.0
 11
174.9382651495
 21
132.9454487431
 31
0.0
  0
LINE
  5
150
330
F8
100
AcDbEntity
  8
AP_454_1925
  6
HIDDEN2
 62
     7
100
AcDbLine
 10
174.9382651495
 20
135.9454487431
 30
0.0
 11
173.1882651495
 21
137.6954487431
 31
0.0
  0
ARC
  5
151
330
F8
100
AcDbEntity
  8
AP_468_1941
  6
HIDDEN2
 62
     7
100
AcDbCircle
 10
163.9755507933
 20
126.3467416487
 30
0.0
 40
0.2000000000000041
100
AcDbArc
 50
270.698694383
 51
0.698694383
  0
LINE
  5
152
330
F8
100
AcDbEntity
  8
AP_468_1941
  6
HIDDEN2
 62
     7
100
AcDbLine
 10
164.1755359229
 20
126.3491804918
 30
0.0
 11
164.1621222861
 21
127.4490987044
 31
0.0
  0
LINE
  5
153
330
F8
100
AcDbEntity
  8
AP_468_1941
  6
HIDDEN2
 62
     7
100
AcDbLine
 10
48.4162395954
 20
122.3054487431
 30
0.0
 11
48.370732768
 21
126.0370085883
 31
0.0
  0
LINE
  5
154
330
F8
100
AcDbEntity
  8
AP_468_1941
  6
Continuous
 62
     7
100
AcDbLine
 10
42.1882651495
 20
124.5615091252
 30
0.0
 11
42.1589990401
 21
126.9613300957
 31
0.0
  0
ARC
  5
155
330
F8
100
AcDbEntity
  8
AP_468_1941
  6
Continuous
 62
     7
100
AcDbCircle
 10
43.1589246879
 20
126.9735243109
 30
0.0
 40
1.000000000000004
100
AcDbArc
 50
90.698694383
 51
180.698694383
  0
LINE
  5
156
330
F8
100
AcDbEntity
  8
AP_468_1941
  6
Continuous
 62
     7
100
AcDbLine
 10
43.1467304727
 20
127.9734499587
 30
0.0
 11
164.1377338557
 21
129.4489499999
 31
0.0
  0
ARC
  5
157
330
F8
100
AcDbEntity
  8
AP_468_1941
  6
Continuous
 62
     7
100
AcDbCircle
 10
164.1499280709
 20
128.4490243522
 30
0.0
 40
1.0
100
AcDbArc
 50
9.2173654227
 51
90.698694383
  0
ARC
  5
158
330
F8
100
AcDbEntity
  8
AP_468_1941
  6
HIDDEN2
 62
     7
100
AcDbCircle
 10
164.1779747659
 20
126.1491953622
 30
0.0
 40
0.99999999999999
100
AcDbArc
 50
270.698694383
 51
0.698694383
  0
LINE
  5
159
330
F8
100
AcDbEntity
  8
AP_468_1941
  6
HIDDEN2
 62
     7
100
AcDbLine
 10
164.1901689811
 20
125.1492697144
 30
0.0
 11
163.8901912868
 21
125.1456114499
 31
0.0
  0
ARC
  5
15A
330
F8
100
AcDbEntity
  8
AP_468_1941
  6
HIDDEN2
 62
     7
100
AcDbCircle
 10
163.8877524438
 20
125.3455965794
 30
0.0
 40
0.2000000000000067
100
AcDbArc
 50
180.698694383
 51
270.698694383
  0
LINE
  5
15B
330
F8
100
AcDbEntity
  8
AP_468_1941
  6
HIDDEN2
 62
     7
100
AcDbLine
 10
163.6877673142
 20
125.3431577364
 30
0.0
 11
163.6804507851
 21
125.9431131251
 31
0.0
  0
ARC
  5
15C
330
F8
100
AcDbEntity
  8
AP_468_1941
  6
HIDDEN2
 62
     7
100
AcDbCircle
 10
163.8804359146
 20
125.9455519681
 30
0.0
 40
0.1999999999999772
100
AcDbArc
 50
90.698694383
 51
180.698694383
  0
LINE
  5
15D
330
F8
100
AcDbEntity
  8
AP_468_1941
  6
HIDDEN2
 62
     7
100
AcDbLine
 10
163.8779970716
 20
126.1455370977
 30
0.0
 11
163.9779896364
 21
126.1467565192
 31
0.0
  0
ARC
  5
15E
330
F8
100
AcDbEntity
  8
AP_468_1941
  6
HIDDEN2
 62
     7
100
AcDbCircle
 10
48.1707476384
 20
126.0345697452
 30
0.0
 40
0.199999999999998
100
AcDbArc
 50
0.698694383
 51
90.698694383
  0
LINE
  5
15F
330
F8
100
AcDbEntity
  8
AP_468_1941
  6
HIDDEN2
 62
     7
100
AcDbLine
 10
43.2967193199
 20
127.975279091
 30
0.0
 11
45.1185350733
 21
126.1973625123
 31
0.0
  0
LINE
  5
160
330
F8
100
AcDbEntity
  8
AP_468_1941
  6
HIDDEN2
 62
     7
100
AcDbLine
 10
48.2116983737
 20
126.2283952555
 30
0.0
 11
49.9962211601
 21
128.0569803329
 31
0.0
  0
ARC
  5
161
330
F8
100
AcDbEntity
  8
AA_045
  6
Continuous
 62
     7
100
AcDbCircle
 10
164.1882651495
 20
128.2931792634
 30
0.0
 40
0.999999999999987
100
AcDbArc
 50
0.0
 51
18.4227216022
  0
LINE
  5
162
330
F8
100
AcDbEntity
  8
AA_046
  6
Continuous
 62
     7
100
AcDbLine
 10
42.1882651495
 20
126.8175695073
 30
0.0
 11
42.1882651495
 21
122.3054487431
 31
0.0
  0
LINE
  5
163
330
F8
100
AcDbEntity
  8
AA_046
  6
Continuous
 62
     7
100
AcDbLine
 10
43.1782651495
 20
122.3054487431
 30
0.0
 11
164.1982651495
 21
122.3054487431
 31
0.0
  0
LINE
  5
164
330
F8
100
AcDbEntity
  8
AA_046
  6
Continuous
 62
     7
100
AcDbLine
 10
164.1982651495
 20
122.3054487431
 30
0.0
 11
165.1882651495
 21
122.3054487431
 31
0.0
  0
LINE
  5
165
330
F8
100
AcDbEntity
  8
AA_046
  6
Continuous
 62
     7
100
AcDbLine
 10
42.1882651495
 20
122.3054487431
 30
0.0
 11
43.1782651495
 21
122.3054487431
 31
0.0
  0
LINE
  5
166
330
F8
100
AcDbEntity
  8
AA_046
  6
Continuous
 62
     7
100
AcDbLine
 10
165.1882651495
 20
122.3054487431
 30
0.0
 11
165.1882651495
 21
128.2931792634
 31
0.0
  0
ARC
  5
167
330
F8
100
AcDbEntity
  8
AA_046
  6
Continuous
 62
     7
100
AcDbCircle
 10
43.1882651495
 20
126.8175695073
 30
0.0
 40
1.000000000000001
100
AcDbArc
 50
90.698694383
 51
180.0
  0
ARC
  5
168
330
F8
100
AcDbEntity
  8
AA_046
  6
Continuous
 62
     7
100
AcDbCircle
 10
164.1882651495
 20
128.2931792634
 30
0.0
 40
0.999999999999987
100
AcDbArc
 50
0.0
 51
90.698694383
  0
LINE
  5
169
330
F8
100
AcDbEntity
  8
AA_046
  6
Continuous
 62
     7
100
AcDbLine
 10
164.1760709343
 20
129.2931049112
 30
0.0
 11
43.1760709343
 21
127.8174951551
 31
0.0
  0
ENDBLK
  5
16B
330
F8
100
AcDbEntity
  8
0
100
AcDbBlockEnd
  0
ENDSEC
  0
SECTION
  2
ENTITIES
  0
TEXT
  5
40
330
1F
100
AcDbEntity
  8
Standard
  6
Continuous
 62
     7
100
AcDbText
 10
93.7226995566
 20
34.0334897237
 30
0.0
 40
3.5
  1
/athmer/5-528--q
  7
SEACAD_Arial
 11
93.7226995566
 21
37.5334897237
 31
0.0
100
AcDbText
 73
     3
  0
INSERT
  5
43
330
1F
100
AcDbEntity
  8
Standard
100
AcDbBlockReference
  2
SE
 10
0.0
 20
0.0
 30
0.0
  0
DIMENSION
  5
CF
330
1F
100
AcDbEntity
  8
Standard
  6
Continuous
 62
     7
100
AcDbDimension
  2
DMBLK93
 10
183.182882373
 20
225.3045252259
 30
0.0
 11
183.182882373
 21
215.7345249878
 31
0.0
 70
   160
  1
\A1;<>
 71
     5
 42
-1.0
  3
E-Katalog
100
AcDbAlignedDimension
 13
172.2825302228
 23
206.1645252259
 33
0.0
 14
176.9882651495
 24
225.3045252259
 34
0.0
 50
90.0
100
AcDbRotatedDimension
  0
DIMENSION
  5
D9
330
1F
100
AcDbEntity
  8
Standard
  6
Continuous
 62
     7
100
AcDbDimension
  2
DMBLK94
 10
177.1882651495
 20
200.1164298134
 30
0.0
 11
109.6882678317
 21
200.1164298134
 31
0.0
 70
   160
  1
\A1;<>
 71
     5
 42
-1.0
  3
E-Katalog
100
AcDbAlignedDimension
 13
42.1882651495
 23
206.1645252259
 33
0.0
 14
177.1882651495
 24
211.2737395108
 34
0.0
100
AcDbRotatedDimension
1001
ACAD
1000
DSTYLE
1002
{
1070
   271
1070
     2
1070
   272
1070
     2
1070
     0
1002
}
  0
DIMENSION
  5
E3
330
1F
100
AcDbEntity
  8
Standard
  6
Continuous
 62
     7
100
AcDbDimension
  2
DMBLK95
 10
177.1882651495
 20
231.2758174265
 30
0.0
 11
171.1882652017
 21
231.2758174265
 31
0.0
 70
   160
  1
\A1;<>
 71
     5
 42
-1.0
  3
E-Katalog
100
AcDbAlignedDimension
 13
165.1882651495
 23
212.1522557462
 33
0.0
 14
177.1882651495
 24
225.1045252259
 34
0.0
100
AcDbRotatedDimension
1001
ACAD
1000
DSTYLE
1002
{
1070
   271
1070
     2
1070
   272
1070
     2
1070
     0
1002
}
  0
DIMENSION
  5
ED
330
1F
100
AcDbEntity
  8
Standard
  6
Continuous
 62
     7
100
AcDbDimension
  2
DMBLK96
 10
164.1621222861
 20
231.2776300015
 30
0.0
 11
108.4132072703
 21
231.2776300015
 31
0.0
 70
   160
  1
\A1;     Auszuglänge > 110 {}\Pextension length > 110
 71
     5
 42
-1.0
  3
E-Katalog
100
AcDbAlignedDimension
 13
52.6642901078
 23
209.4145252259
 33
0.0
 14
164.1621222861
 24
211.3081751872
 34
0.0
100
AcDbRotatedDimension
1001
ACAD
1000
DSTYLE
1002
{
1070
   271
1070
     2
1070
   272
1070
     2
1070
     0
1002
}
  0
INSERT
  5
F9
330
1F
100
AcDbEntity
  8
Standard
100
AcDbBlockReference
  2
SE1
 10
0.0
 20
0.0
 30
0.0
  0
LINE
  5
16C
330
1F
100
AcDbEntity
  8
Standard
  6
Continuous
 62
     7
100
AcDbLine
 10
98.0850191236
 20
161.0856000139
 30
0.0
 11
118.0850191236
 21
161.0856000139
 31
0.0
  0
LINE
  5
16D
330
1F
100
AcDbEntity
  8
Standard
  6
Continuous
 62
     7
100
AcDbLine
 10
118.0850191236
 20
161.0856000139
 30
0.0
 11
118.0850191236
 21
181.0856000139
 31
0.0
  0
LINE
  5
16E
330
1F
100
AcDbEntity
  8
Standard
  6
Continuous
 62
     7
100
AcDbLine
 10
118.0850191236
 20
181.0856000139
 30
0.0
 11
98.0850191236
 21
181.0856000139
 31
0.0
  0
LINE
  5
16F
330
1F
100
AcDbEntity
  8
Standard
  6
Continuous
 62
     7
100
AcDbLine
 10
98.0850191236
 20
181.0856000139
 30
0.0
 11
98.0850191236
 21
161.0856000139
 31
0.0
  0
TEXT
  5
170
330
1F
100
AcDbEntity
  8
Standard
  6
Continuous
 62
     7
100
AcDbText
 10
106.3741115425
 20
174.9007366669
 30
0.0
 40
3.5
  1
A     
  7
SEACAD_Arial
 11
106.3741115425
 21
178.4007366669
 31
0.0
100
AcDbText
 73
     3
  0
TEXT
  5
171
330
1F
100
AcDbEntity
  8
Standard
  6
Continuous
 62
     7
100
AcDbText
 10
106.3741115425
 20
169.4224757973
 30
0.0
 40
3.5
  1
 
  7
SEACAD_Arial
 11
106.3741115425
 21
172.9224757973
 31
0.0
100
AcDbText
 73
     3
  0
TEXT
  5
172
330
1F
100
AcDbEntity
  8
Standard
  6
Continuous
 62
     7
100
AcDbText
 10
106.3741115425
 20
163.9442149277
 30
0.0
 40
3.5
  1
B
  7
SEACAD_Arial
 11
106.3741115425
 21
167.4442149277
 31
0.0
100
AcDbText
 73
     3
  0
LINE
  5
173
330
1F
100
AcDbEntity
  8
Standard
  6
Continuous
 62
     7
100
AcDbLine
 10
32.3514547099
 20
171.0856000139
 30
0.0
 11
188.5232955934
 21
171.0856000139
 31
0.0
  0
ENDSEC
  0
SECTION
  2
OBJECTS
  0
DICTIONARY
  5
C
330
0
100
AcDbDictionary
281
     1
  3
ACAD_GROUP
350
D
  3
ACAD_LAYOUT
350
1A
  3
ACAD_MATERIAL
350
3B
  3
ACAD_MLEADERSTYLE
350
176
  3
ACAD_MLINESTYLE
350
17
  3
ACAD_PLOTSETTINGS
350
19
  3
ACAD_PLOTSTYLENAME
350
E
  3
ACAD_VISUALSTYLE
350
2A
  3
AcDbVariableDictionary
350
174
  0
DICTIONARY
  5
D
102
{ACAD_REACTORS
330
C
102
}
330
C
100
AcDbDictionary
281
     1
  0
DICTIONARY
  5
1A
102
{ACAD_REACTORS
330
C
102
}
330
C
100
AcDbDictionary
281
     1
  3
Layout1
350
1E
  3
Model
350
22
  0
DICTIONARY
  5
3B
102
{ACAD_REACTORS
330
C
102
}
330
C
100
AcDbDictionary
281
     1
  3
ByBlock
350
3D
  3
ByLayer
350
3C
  3
Global
350
3E
  0
DICTIONARY
  5
176
102
{ACAD_REACTORS
330
C
102
}
330
C
100
AcDbDictionary
281
     1
  0
DICTIONARY
  5
17
102
{ACAD_REACTORS
330
C
102
}
330
C
100
AcDbDictionary
281
     1
  3
Standard
350
18
  0
DICTIONARY
  5
19
102
{ACAD_REACTORS
330
C
102
}
330
C
100
AcDbDictionary
281
     1
  0
ACDBDICTIONARYWDFLT
  5
E
102
{ACAD_REACTORS
330
C
102
}
330
C
100
AcDbDictionary
281
     1
  3
Normal
350
F
100
AcDbDictionaryWithDefault
340
F
  0
DICTIONARY
  5
2A
102
{ACAD_REACTORS
330
C
102
}
330
C
100
AcDbDictionary
281
     1
  3
2dWireframe
350
2F
  3
3D Hidden
350
31
  3
3dWireframe
350
30
  3
Basic
350
32
  3
Brighten
350
36
  3
ColorChange
350
3A
  3
Conceptual
350
34
  3
Dim
350
35
  3
Facepattern
350
39
  3
Flat
350
2B
  3
FlatWithEdges
350
2C
  3
Gouraud
350
2D
  3
GouraudWithEdges
350
2E
  3
Linepattern
350
38
  3
Realistic
350
33
  3
Thicken
350
37
  0
DICTIONARY
  5
174
102
{ACAD_REACTORS
330
C
102
}
330
C
100
AcDbDictionary
281
     1
  3
DIMASSOC
350
179
  3
HIDETEXT
350
17A
  3
PSOLHEIGHT
350
178
  3
PSOLWIDTH
350
177
  0
LAYOUT
  5
1E
102
{ACAD_REACTORS
330
1A
102
}
330
1A
100
AcDbPlotSettings
  1

  2
none_device
  4

  6

 40
0.0
 41
0.0
 42
0.0
 43
0.0
 44
0.0
 45
0.0
 46
0.0
 47
0.0
 48
0.0
 49
0.0
140
0.0
141
0.0
142
1.0
143
1.0
 70
   688
 72
     0
 73
     0
 74
     5
  7

 75
    16
147
1.0
148
0.0
149
0.0
100
AcDbLayout
  1
Layout1
 70
     1
 71
     1
 10
0.0
 20
0.0
 11
215.9
 21
279.4
 12
0.0
 22
0.0
 32
0.0
 14
0.0
 24
0.0
 34
0.0
 15
215.9
 25
279.4
 35
0.0
146
0.0
 13
0.0
 23
0.0
 33
0.0
 16
1.0
 26
0.0
 36
0.0
 17
0.0
 27
1.0
 37
0.0
 76
     0
330
1B
  0
LAYOUT
  5
22
102
{ACAD_REACTORS
330
1A
102
}
330
1A
100
AcDbPlotSettings
  1

  2
none_device
  4

  6

 40
0.0
 41
0.0
 42
0.0
 43
0.0
 44
0.0
 45
0.0
 46
0.0
 47
0.0
 48
0.0
 49
0.0
140
0.0
141
0.0
142
1.0
143
1.0
 70
  1712
 72
     0
 73
     0
 74
     0
  7

 75
     0
147
1.0
148
0.0
149
0.0
100
AcDbLayout
  1
Model
 70
     1
 71
     0
 10
0.0
 20
0.0
 11
215.9
 21
279.4
 12
0.0
 22
0.0
 32
0.0
 14
0.0
 24
0.0
 34
0.0
 15
215.9
 25
279.4
 35
0.0
146
0.0
 13
0.0
 23
0.0
 33
0.0
 16
1.0
 26
0.0
 36
0.0
 17
0.0
 27
1.0
 37
0.0
 76
     0
330
1F
331
29
  0
MATERIAL
  5
3D
102
{ACAD_REACTORS
330
3B
102
}
102
{ACAD_XDICTIONARY
360
19D
102
}
330
3B
100
AcDbMaterial
  1
ByBlock
  0
MATERIAL
  5
3C
102
{ACAD_REACTORS
330
3B
102
}
102
{ACAD_XDICTIONARY
360
19B
102
}
330
3B
100
AcDbMaterial
  1
ByLayer
  0
MATERIAL
  5
3E
102
{ACAD_REACTORS
330
3B
102
}
102
{ACAD_XDICTIONARY
360
19F
102
}
330
3B
100
AcDbMaterial
  1
Global
  0
MLINESTYLE
  5
18
102
{ACAD_REACTORS
330
17
102
}
330
17
100
AcDbMlineStyle
  2
Standard
 70
     0
  3

 62
   256
 51
90.0
 52
90.0
 71
     2
 49
0.5
 62
   256
  6
BYLAYER
 49
-0.5
 62
   256
  6
BYLAYER
  0
ACDBPLACEHOLDER
  5
F
102
{ACAD_REACTORS
330
E
102
}
330
E
  0
VISUALSTYLE
  5
2F
102
{ACAD_REACTORS
330
2A
102
}
102
{ACAD_XDICTIONARY
360
183
102
}
330
2A
100
AcDbVisualStyle
  2
2dWireframe
 70
     4
 71
     0
 72
     2
 73
     0
 90
        0
 40
-0.6
 41
-30.0
 62
     5
 63
     7
 74
     1
 91
        4
 64
     7
 65
   257
 75
     1
175
     1
 42
1.0
 92
        0
 66
   257
 43
1.0
 76
     1
 77
     6
 78
     2
 67
     7
 79
     5
170
     0
171
     0
290
     0
174
     0
 93
        1
 44
0.0
173
     0
291
     0
 45
0.0
1001
ACAD
1000
AcDbSavedByObjectVersion
1070
     0
  0
VISUALSTYLE
  5
31
102
{ACAD_REACTORS
330
2A
102
}
102
{ACAD_XDICTIONARY
360
187
102
}
330
2A
100
AcDbVisualStyle
  2
3D Hidden
 70
     6
 71
     1
 72
     2
 73
     2
 90
        0
 40
-0.6
 41
-30.0
 62
     5
 63
     7
 74
     2
 91
        2
 64
     7
 65
   257
 75
     2
175
     1
 42
40.0
 92
        0
 66
   257
 43
1.0
 76
     1
 77
     6
 78
     2
 67
     7
 79
     3
170
     0
171
     0
290
     0
174
     0
 93
        1
 44
0.0
173
     0
291
     0
 45
0.0
1001
ACAD
1000
AcDbSavedByObjectVersion
1070
     0
  0
VISUALSTYLE
  5
30
102
{ACAD_REACTORS
330
2A
102
}
102
{ACAD_XDICTIONARY
360
185
102
}
330
2A
100
AcDbVisualStyle
  2
3dWireframe
 70
     5
 71
     0
 72
     2
 73
     0
 90
        0
 40
-0.6
 41
-30.0
 62
     5
 63
     7
 74
     1
 91
        4
 64
     7
 65
   257
 75
     1
175
     1
 42
1.0
 92
        0
 66
   257
 43
1.0
 76
     1
 77
     6
 78
     2
 67
     7
 79
     5
170
     0
171
     0
290
     0
174
     0
 93
        1
 44
0.0
173
     0
291
     0
 45
0.0
1001
ACAD
1000
AcDbSavedByObjectVersion
1070
     0
  0
VISUALSTYLE
  5
32
102
{ACAD_REACTORS
330
2A
102
}
102
{ACAD_XDICTIONARY
360
189
102
}
330
2A
100
AcDbVisualStyle
  2
Basic
 70
     7
 71
     1
 72
     0
 73
     1
 90
        0
 40
-0.6
 41
-30.0
 62
     5
 63
     7
 74
     0
 91
        4
 64
     7
 65
   257
 75
     1
175
     1
 42
1.0
 92
        8
 66
     7
 43
1.0
 76
     1
 77
     6
 78
     2
 67
     7
 79
     5
170
     0
171
     0
290
     0
174
     0
 93
        1
 44
0.0
173
     0
291
     1
 45
0.0
1001
ACAD
1000
AcDbSavedByObjectVersion
1070
     0
  0
VISUALSTYLE
  5
36
102
{ACAD_REACTORS
330
2A
102
}
102
{ACAD_XDICTIONARY
360
191
102
}
330
2A
100
AcDbVisualStyle
  2
Brighten
 70
    12
 71
     2
 72
     2
 73
     0
 90
        0
 40
-0.6
 41
-30.0
 62
     5
 63
     7
 74
     1
 91
        4
 64
     7
 65
   257
 75
     1
175
     1
 42
1.0
 92
        8
 66
     7
 43
1.0
 76
     1
 77
     6
 78
     2
 67
     7
 79
     5
170
     0
171
     0
290
     0
174
     0
 93
        1
 44
50.0
173
     0
291
     1
 45
0.0
1001
ACAD
1000
AcDbSavedByObjectVersion
1070
     0
  0
VISUALSTYLE
  5
3A
102
{ACAD_REACTORS
330
2A
102
}
102
{ACAD_XDICTIONARY
360
199
102
}
330
2A
100
AcDbVisualStyle
  2
ColorChange
 70
    16
 71
     2
 72
     2
 73
     3
 90
        0
 40
-0.6
 41
-30.0
 62
     5
 63
     8
 74
     1
 91
        4
 64
     7
 65
   257
 75
     1
175
     1
 42
1.0
 92
        8
 66
     8
 43
1.0
 76
     1
 77
     6
 78
     2
 67
     7
 79
     5
170
     0
171
     0
290
     0
174
     0
 93
        1
 44
0.0
173
     0
291
     1
 45
0.0
1001
ACAD
1000
AcDbSavedByObjectVersion
1070
     0
  0
VISUALSTYLE
  5
34
102
{ACAD_REACTORS
330
2A
102
}
102
{ACAD_XDICTIONARY
360
18D
102
}
330
2A
100
AcDbVisualStyle
  2
Conceptual
 70
     9
 71
     3
 72
     2
 73
     0
 90
        0
 40
-0.6
 41
-30.0
 62
     5
 63
     7
 74
     2
 91
        2
 64
     7
 65
   257
 75
     1
175
     1
 42
40.0
 92
        8
 66
     7
 43
1.0
 76
     1
 77
     6
 78
     2
 67
     7
 79
     3
170
     0
171
     0
290
     0
174
     0
 93
        1
 44
0.0
173
     0
291
     0
 45
0.0
1001
ACAD
1000
AcDbSavedByObjectVersion
1070
     0
  0
VISUALSTYLE
  5
35
102
{ACAD_REACTORS
330
2A
102
}
102
{ACAD_XDICTIONARY
360
18F
102
}
330
2A
100
AcDbVisualStyle
  2
Dim
 70
    11
 71
     2
 72
     2
 73
     0
 90
        0
 40
-0.6
 41
-30.0
 62
     5
 63
     7
 74
     1
 91
        4
 64
     7
 65
   257
 75
     1
175
     1
 42
1.0
 92
        8
 66
     7
 43
1.0
 76
     1
 77
     6
 78
     2
 67
     7
 79
     5
170
     0
171
     0
290
     0
174
     0
 93
        1
 44
-50.0
173
     0
291
     1
 45
0.0
1001
ACAD
1000
AcDbSavedByObjectVersion
1070
     0
  0
VISUALSTYLE
  5
39
102
{ACAD_REACTORS
330
2A
102
}
102
{ACAD_XDICTIONARY
360
197
102
}
330
2A
100
AcDbVisualStyle
  2
Facepattern
 70
    15
 71
     2
 72
     2
 73
     0
 90
        0
 40
-0.6
 41
-30.0
 62
     5
 63
     7
 74
     1
 91
        4
 64
     7
 65
   257
 75
     1
175
     1
 42
1.0
 92
        8
 66
     7
 43
1.0
 76
     1
 77
     6
 78
     2
 67
     7
 79
     5
170
     0
171
     0
290
     0
174
     0
 93
        1
 44
0.0
173
     0
291
     1
 45
0.0
1001
ACAD
1000
AcDbSavedByObjectVersion
1070
     0
  0
VISUALSTYLE
  5
2B
102
{ACAD_REACTORS
330
2A
102
}
102
{ACAD_XDICTIONARY
360
17B
102
}
330
2A
100
AcDbVisualStyle
  2
Flat
 70
     0
 71
     2
 72
     1
 73
     1
 90
        2
 40
-0.6
 41
30.0
 62
     5
 63
     7
 74
     0
 91
        4
 64
     7
 65
   257
 75
     1
175
     1
 42
1.0
 92
        8
 66
     7
 43
1.0
 76
     1
 77
     6
 78
     2
 67
     7
 79
     5
170
     0
171
     0
290
     0
174
     0
 93
       13
 44
0.0
173
     0
291
     1
 45
0.0
1001
ACAD
1000
AcDbSavedByObjectVersion
1070
     0
  0
VISUALSTYLE
  5
2C
102
{ACAD_REACTORS
330
2A
102
}
102
{ACAD_XDICTIONARY
360
17D
102
}
330
2A
100
AcDbVisualStyle
  2
FlatWithEdges
 70
     1
 71
     2
 72
     1
 73
     1
 90
        2
 40
-0.6
 41
30.0
 62
     5
 63
     7
 74
     1
 91
        4
 64
     7
 65
   257
 75
     1
175
     1
 42
1.0
 92
        0
 66
   257
 43
1.0
 76
     1
 77
     6
 78
     2
 67
     7
 79
     5
170
     0
171
     0
290
     0
174
     0
 93
       13
 44
0.0
173
     0
291
     1
 45
0.0
1001
ACAD
1000
AcDbSavedByObjectVersion
1070
     0
  0
VISUALSTYLE
  5
2D
102
{ACAD_REACTORS
330
2A
102
}
102
{ACAD_XDICTIONARY
360
17F
102
}
330
2A
100
AcDbVisualStyle
  2
Gouraud
 70
     2
 71
     2
 72
     2
 73
     1
 90
        2
 40
-0.6
 41
30.0
 62
     5
 63
     7
 74
     0
 91
        4
 64
     7
 65
   257
 75
     1
175
     1
 42
1.0
 92
        0
 66
     7
 43
1.0
 76
     1
 77
     6
 78
     2
 67
     7
 79
     5
170
     0
171
     0
290
     0
174
     0
 93
       13
 44
0.0
173
     0
291
     1
 45
0.0
1001
ACAD
1000
AcDbSavedByObjectVersion
1070
     0
  0
VISUALSTYLE
  5
2E
102
{ACAD_REACTORS
330
2A
102
}
102
{ACAD_XDICTIONARY
360
181
102
}
330
2A
100
AcDbVisualStyle
  2
GouraudWithEdges
 70
     3
 71
     2
 72
     2
 73
     1
 90
        2
 40
-0.6
 41
30.0
 62
     5
 63
     7
 74
     1
 91
        4
 64
     7
 65
   257
 75
     1
175
     1
 42
1.0
 92
        0
 66
   257
 43
1.0
 76
     1
 77
     6
 78
     2
 67
     7
 79
     5
170
     0
171
     0
290
     0
174
     0
 93
       13
 44
0.0
173
     0
291
     1
 45
0.0
1001
ACAD
1000
AcDbSavedByObjectVersion
1070
     0
  0
VISUALSTYLE
  5
38
102
{ACAD_REACTORS
330
2A
102
}
102
{ACAD_XDICTIONARY
360
195
102
}
330
2A
100
AcDbVisualStyle
  2
Linepattern
 70
    14
 71
     2
 72
     2
 73
     0
 90
        0
 40
-0.6
 41
-30.0
 62
     5
 63
     7
 74
     1
 91
        4
 64
     7
 65
   257
 75
     7
175
     7
 42
1.0
 92
        8
 66
     7
 43
1.0
 76
     1
 77
     6
 78
     2
 67
     7
 79
     5
170
     0
171
     0
290
     0
174
     0
 93
        1
 44
0.0
173
     0
291
     1
 45
0.0
1001
ACAD
1000
AcDbSavedByObjectVersion
1070
     0
  0
VISUALSTYLE
  5
33
102
{ACAD_REACTORS
330
2A
102
}
102
{ACAD_XDICTIONARY
360
18B
102
}
330
2A
100
AcDbVisualStyle
  2
Realistic
 70
     8
 71
     2
 72
     2
 73
     0
 90
        0
 40
-0.6
 41
-30.0
 62
     5
 63
     7
 74
     1
 91
        0
 64
     7
 65
   257
 75
     1
175
     1
 42
1.0
 92
        8
 66
     8
 43
1.0
 76
     1
 77
     6
 78
     2
 67
     7
 79
     5
170
     0
171
     0
290
     0
174
     0
 93
       13
 44
0.0
173
     0
291
     0
 45
0.0
1001
ACAD
1000
AcDbSavedByObjectVersion
1070
     0
  0
VISUALSTYLE
  5
37
102
{ACAD_REACTORS
330
2A
102
}
102
{ACAD_XDICTIONARY
360
193
102
}
330
2A
100
AcDbVisualStyle
  2
Thicken
 70
    13
 71
     2
 72
     2
 73
     0
 90
        0
 40
-0.6
 41
-30.0
 62
     5
 63
     7
 74
     1
 91
        4
 64
     7
 65
   257
 75
     1
175
     1
 42
1.0
 92
       12
 66
     7
 43
1.0
 76
     1
 77
     6
 78
     2
 67
     7
 79
     5
170
     0
171
     0
290
     0
174
     0
 93
        1
 44
0.0
173
     0
291
     1
 45
0.0
1001
ACAD
1000
AcDbSavedByObjectVersion
1070
     0
  0
DICTIONARYVAR
  5
179
102
{ACAD_REACTORS
330
174
102
}
330
174
100
DictionaryVariables
280
     0
  1
2
  0
DICTIONARYVAR
  5
17A
102
{ACAD_REACTORS
330
174
102
}
330
174
100
DictionaryVariables
280
     0
  1
1
  0
DICTIONARYVAR
  5
178
102
{ACAD_REACTORS
330
174
102
}
330
174
100
DictionaryVariables
280
     0
  1
80.000000
  0
DICTIONARYVAR
  5
177
102
{ACAD_REACTORS
330
174
102
}
330
174
100
DictionaryVariables
280
     0
  1
5.000000
  0
DICTIONARY
  5
19D
330
3D
100
AcDbDictionary
280
     1
281
     1
  3
ACAD_XREC_ROUNDTRIP
360
19E
  0
DICTIONARY
  5
19B
330
3C
100
AcDbDictionary
280
     1
281
     1
  3
ACAD_XREC_ROUNDTRIP
360
19C
  0
DICTIONARY
  5
19F
330
3E
100
AcDbDictionary
280
     1
281
     1
  3
ACAD_XREC_ROUNDTRIP
360
1A0
  0
DICTIONARY
  5
183
330
2F
100
AcDbDictionary
280
     1
281
     1
  3
ACAD_XREC_ROUNDTRIP
360
184
  0
DICTIONARY
  5
187
330
31
100
AcDbDictionary
280
     1
281
     1
  3
ACAD_XREC_ROUNDTRIP
360
188
  0
DICTIONARY
  5
185
330
30
100
AcDbDictionary
280
     1
281
     1
  3
ACAD_XREC_ROUNDTRIP
360
186
  0
DICTIONARY
  5
189
330
32
100
AcDbDictionary
280
     1
281
     1
  3
ACAD_XREC_ROUNDTRIP
360
18A
  0
DICTIONARY
  5
191
330
36
100
AcDbDictionary
280
     1
281
     1
  3
ACAD_XREC_ROUNDTRIP
360
192
  0
DICTIONARY
  5
199
330
3A
100
AcDbDictionary
280
     1
281
     1
  3
ACAD_XREC_ROUNDTRIP
360
19A
  0
DICTIONARY
  5
18D
330
34
100
AcDbDictionary
280
     1
281
     1
  3
ACAD_XREC_ROUNDTRIP
360
18E
  0
DICTIONARY
  5
18F
330
35
100
AcDbDictionary
280
     1
281
     1
  3
ACAD_XREC_ROUNDTRIP
360
190
  0
DICTIONARY
  5
197
330
39
100
AcDbDictionary
280
     1
281
     1
  3
ACAD_XREC_ROUNDTRIP
360
198
  0
DICTIONARY
  5
17B
330
2B
100
AcDbDictionary
280
     1
281
     1
  3
ACAD_XREC_ROUNDTRIP
360
17C
  0
DICTIONARY
  5
17D
330
2C
100
AcDbDictionary
280
     1
281
     1
  3
ACAD_XREC_ROUNDTRIP
360
17E
  0
DICTIONARY
  5
17F
330
2D
100
AcDbDictionary
280
     1
281
     1
  3
ACAD_XREC_ROUNDTRIP
360
180
  0
DICTIONARY
  5
181
330
2E
100
AcDbDictionary
280
     1
281
     1
  3
ACAD_XREC_ROUNDTRIP
360
182
  0
DICTIONARY
  5
195
330
38
100
AcDbDictionary
280
     1
281
     1
  3
ACAD_XREC_ROUNDTRIP
360
196
  0
DICTIONARY
  5
18B
330
33
100
AcDbDictionary
280
     1
281
     1
  3
ACAD_XREC_ROUNDTRIP
360
18C
  0
DICTIONARY
  5
193
330
37
100
AcDbDictionary
280
     1
281
     1
  3
ACAD_XREC_ROUNDTRIP
360
194
  0
XRECORD
  5
19E
102
{ACAD_REACTORS
330
19D
102
}
330
19D
100
AcDbXrecord
280
     1
102
MATERIAL
148
0.0
149
0.0
149
0.0
 93
        0
 94
      127
282
     0
 72
     1
 77
     1
171
     1
175
     1
179
     1
273
     0
  0
XRECORD
  5
19C
102
{ACAD_REACTORS
330
19B
102
}
330
19B
100
AcDbXrecord
280
     1
102
MATERIAL
148
0.0
149
0.0
149
0.0
 93
        0
 94
      127
282
     0
 72
     1
 77
     1
171
     1
175
     1
179
     1
273
     0
  0
XRECORD
  5
1A0
102
{ACAD_REACTORS
330
19F
102
}
330
19F
100
AcDbXrecord
280
     1
102
MATERIAL
148
0.0
149
0.0
149
0.0
 93
        0
 94
      127
282
     0
 72
     1
 77
     1
171
     1
175
     1
179
     1
273
     0
  0
XRECORD
  5
184
102
{ACAD_REACTORS
330
183
102
}
330
183
100
AcDbXrecord
280
     1
102
RTVSPropertyOp0
 70
     1
102
RTVSPropertyOp1
 70
     1
102
RTVSPropertyOp2
 70
     1
102
RTVSPropertyOp3
 70
     1
102
RTVSPropertyOp4
 70
     1
102
RTVSPropertyOp5
 70
     1
102
RTVSPropertyOp6
 70
     1
102
RTVSPropertyOp7
 70
     1
102
RTVSPropertyOp8
 70
     1
102
RTVSPropertyOp9
 70
     1
102
RTVSPropertyOp10
 70
     1
102
RTVSPropertyOp11
 70
     1
102
RTVSPropertyOp12
 70
     1
102
RTVSPropertyOp13
 70
     1
102
RTVSPropertyOp14
 70
     1
102
RTVSPropertyOp15
 70
     1
102
RTVSPropertyOp16
 70
     1
102
RTVSPropertyOp17
 70
     1
102
RTVSPropertyOp18
 70
     1
102
RTVSPropertyOp19
 70
     1
102
RTVSPropertyOp20
 70
     1
102
RTVSPropertyOp21
 70
     1
102
RTVSPropertyOp22
 70
     1
102
RTVSPropertyOp23
 70
     1
102
RTVSPropertyOp24
 70
     1
102
RTVSPropertyOp25
 70
     1
102
RTVSPropertyOp26
 70
     1
102
RTVSPropertyOp27
 70
     1
  0
XRECORD
  5
188
102
{ACAD_REACTORS
330
187
102
}
330
187
100
AcDbXrecord
280
     1
102
RTVSPropertyOp0
 70
     1
102
RTVSPropertyOp1
 70
     1
102
RTVSPropertyOp2
 70
     1
102
RTVSPropertyOp3
 70
     1
102
RTVSPropertyOp4
 70
     1
102
RTVSPropertyOp5
 70
     1
102
RTVSPropertyOp6
 70
     1
102
RTVSPropertyOp7
 70
     1
102
RTVSPropertyOp8
 70
     1
102
RTVSPropertyOp9
 70
     1
102
RTVSPropertyOp10
 70
     1
102
RTVSPropertyOp11
 70
     1
102
RTVSPropertyOp12
 70
     1
102
RTVSPropertyOp13
 70
     1
102
RTVSPropertyOp14
 70
     1
102
RTVSPropertyOp15
 70
     1
102
RTVSPropertyOp16
 70
     1
102
RTVSPropertyOp17
 70
     1
102
RTVSPropertyOp18
 70
     1
102
RTVSPropertyOp19
 70
     1
102
RTVSPropertyOp20
 70
     1
102
RTVSPropertyOp21
 70
     1
102
RTVSPropertyOp22
 70
     1
102
RTVSPropertyOp23
 70
     1
102
RTVSPropertyOp24
 70
     1
102
RTVSPropertyOp25
 70
     1
102
RTVSPropertyOp26
 70
     1
102
RTVSPropertyOp27
 70
     1
  0
XRECORD
  5
186
102
{ACAD_REACTORS
330
185
102
}
330
185
100
AcDbXrecord
280
     1
102
RTVSPropertyOp0
 70
     1
102
RTVSPropertyOp1
 70
     1
102
RTVSPropertyOp2
 70
     1
102
RTVSPropertyOp3
 70
     1
102
RTVSPropertyOp4
 70
     1
102
RTVSPropertyOp5
 70
     1
102
RTVSPropertyOp6
 70
     1
102
RTVSPropertyOp7
 70
     1
102
RTVSPropertyOp8
 70
     1
102
RTVSPropertyOp9
 70
     1
102
RTVSPropertyOp10
 70
     1
102
RTVSPropertyOp11
 70
     1
102
RTVSPropertyOp12
 70
     1
102
RTVSPropertyOp13
 70
     1
102
RTVSPropertyOp14
 70
     1
102
RTVSPropertyOp15
 70
     1
102
RTVSPropertyOp16
 70
     1
102
RTVSPropertyOp17
 70
     1
102
RTVSPropertyOp18
 70
     1
102
RTVSPropertyOp19
 70
     1
102
RTVSPropertyOp20
 70
     1
102
RTVSPropertyOp21
 70
     1
102
RTVSPropertyOp22
 70
     1
102
RTVSPropertyOp23
 70
     1
102
RTVSPropertyOp24
 70
     1
102
RTVSPropertyOp25
 70
     1
102
RTVSPropertyOp26
 70
     1
102
RTVSPropertyOp27
 70
     1
  0
XRECORD
  5
18A
102
{ACAD_REACTORS
330
189
102
}
330
189
100
AcDbXrecord
280
     1
102
RTVSPropertyOp0
 70
     1
102
RTVSPropertyOp1
 70
     1
102
RTVSPropertyOp2
 70
     1
102
RTVSPropertyOp3
 70
     1
102
RTVSPropertyOp4
 70
     1
102
RTVSPropertyOp5
 70
     1
102
RTVSPropertyOp6
 70
     1
102
RTVSPropertyOp7
 70
     1
102
RTVSPropertyOp8
 70
     1
102
RTVSPropertyOp9
 70
     1
102
RTVSPropertyOp10
 70
     1
102
RTVSPropertyOp11
 70
     1
102
RTVSPropertyOp12
 70
     1
102
RTVSPropertyOp13
 70
     1
102
RTVSPropertyOp14
 70
     1
102
RTVSPropertyOp15
 70
     1
102
RTVSPropertyOp16
 70
     1
102
RTVSPropertyOp17
 70
     1
102
RTVSPropertyOp18
 70
     1
102
RTVSPropertyOp19
 70
     1
102
RTVSPropertyOp20
 70
     1
102
RTVSPropertyOp21
 70
     1
102
RTVSPropertyOp22
 70
     1
102
RTVSPropertyOp23
 70
     1
102
RTVSPropertyOp24
 70
     1
102
RTVSPropertyOp25
 70
     1
102
RTVSPropertyOp26
 70
     1
102
RTVSPropertyOp27
 70
     1
  0
XRECORD
  5
192
102
{ACAD_REACTORS
330
191
102
}
330
191
100
AcDbXrecord
280
     1
102
RTVSPropertyOp0
 70
     1
102
RTVSPropertyOp1
 70
     1
102
RTVSPropertyOp2
 70
     1
102
RTVSPropertyOp3
 70
     1
102
RTVSPropertyOp4
 70
     1
102
RTVSPropertyOp5
 70
     1
102
RTVSPropertyOp6
 70
     1
102
RTVSPropertyOp7
 70
     1
102
RTVSPropertyOp8
 70
     1
102
RTVSPropertyOp9
 70
     1
102
RTVSPropertyOp10
 70
     1
102
RTVSPropertyOp11
 70
     1
102
RTVSPropertyOp12
 70
     1
102
RTVSPropertyOp13
 70
     1
102
RTVSPropertyOp14
 70
     1
102
RTVSPropertyOp15
 70
     1
102
RTVSPropertyOp16
 70
     1
102
RTVSPropertyOp17
 70
     1
102
RTVSPropertyOp18
 70
     1
102
RTVSPropertyOp19
 70
     1
102
RTVSPropertyOp20
 70
     1
102
RTVSPropertyOp21
 70
     1
102
RTVSPropertyOp22
 70
     1
102
RTVSPropertyOp23
 70
     1
102
RTVSPropertyOp24
 70
     1
102
RTVSPropertyOp25
 70
     1
102
RTVSPropertyOp26
 70
     1
102
RTVSPropertyOp27
 70
     1
  0
XRECORD
  5
19A
102
{ACAD_REACTORS
330
199
102
}
330
199
100
AcDbXrecord
280
     1
102
RTVSPropertyOp0
 70
     1
102
RTVSPropertyOp1
 70
     1
102
RTVSPropertyOp2
 70
     1
102
RTVSPropertyOp3
 70
     1
102
RTVSPropertyOp4
 70
     1
102
RTVSPropertyOp5
 70
     1
102
RTVSPropertyOp6
 70
     1
102
RTVSPropertyOp7
 70
     1
102
RTVSPropertyOp8
 70
     1
102
RTVSPropertyOp9
 70
     1
102
RTVSPropertyOp10
 70
     1
102
RTVSPropertyOp11
 70
     1
102
RTVSPropertyOp12
 70
     1
102
RTVSPropertyOp13
 70
     1
102
RTVSPropertyOp14
 70
     1
102
RTVSPropertyOp15
 70
     1
102
RTVSPropertyOp16
 70
     1
102
RTVSPropertyOp17
 70
     1
102
RTVSPropertyOp18
 70
     1
102
RTVSPropertyOp19
 70
     1
102
RTVSPropertyOp20
 70
     1
102
RTVSPropertyOp21
 70
     1
102
RTVSPropertyOp22
 70
     1
102
RTVSPropertyOp23
 70
     1
102
RTVSPropertyOp24
 70
     1
102
RTVSPropertyOp25
 70
     1
102
RTVSPropertyOp26
 70
     1
102
RTVSPropertyOp27
 70
     1
  0
XRECORD
  5
18E
102
{ACAD_REACTORS
330
18D
102
}
330
18D
100
AcDbXrecord
280
     1
102
RTVSPropertyOp0
 70
     1
102
RTVSPropertyOp1
 70
     1
102
RTVSPropertyOp2
 70
     1
102
RTVSPropertyOp3
 70
     1
102
RTVSPropertyOp4
 70
     1
102
RTVSPropertyOp5
 70
     1
102
RTVSPropertyOp6
 70
     1
102
RTVSPropertyOp7
 70
     1
102
RTVSPropertyOp8
 70
     1
102
RTVSPropertyOp9
 70
     1
102
RTVSPropertyOp10
 70
     1
102
RTVSPropertyOp11
 70
     1
102
RTVSPropertyOp12
 70
     1
102
RTVSPropertyOp13
 70
     1
102
RTVSPropertyOp14
 70
     1
102
RTVSPropertyOp15
 70
     1
102
RTVSPropertyOp16
 70
     1
102
RTVSPropertyOp17
 70
     1
102
RTVSPropertyOp18
 70
     1
102
RTVSPropertyOp19
 70
     1
102
RTVSPropertyOp20
 70
     1
102
RTVSPropertyOp21
 70
     1
102
RTVSPropertyOp22
 70
     1
102
RTVSPropertyOp23
 70
     1
102
RTVSPropertyOp24
 70
     1
102
RTVSPropertyOp25
 70
     1
102
RTVSPropertyOp26
 70
     1
102
RTVSPropertyOp27
 70
     1
  0
XRECORD
  5
190
102
{ACAD_REACTORS
330
18F
102
}
330
18F
100
AcDbXrecord
280
     1
102
RTVSPropertyOp0
 70
     1
102
RTVSPropertyOp1
 70
     1
102
RTVSPropertyOp2
 70
     1
102
RTVSPropertyOp3
 70
     1
102
RTVSPropertyOp4
 70
     1
102
RTVSPropertyOp5
 70
     1
102
RTVSPropertyOp6
 70
     1
102
RTVSPropertyOp7
 70
     1
102
RTVSPropertyOp8
 70
     1
102
RTVSPropertyOp9
 70
     1
102
RTVSPropertyOp10
 70
     1
102
RTVSPropertyOp11
 70
     1
102
RTVSPropertyOp12
 70
     1
102
RTVSPropertyOp13
 70
     1
102
RTVSPropertyOp14
 70
     1
102
RTVSPropertyOp15
 70
     1
102
RTVSPropertyOp16
 70
     1
102
RTVSPropertyOp17
 70
     1
102
RTVSPropertyOp18
 70
     1
102
RTVSPropertyOp19
 70
     1
102
RTVSPropertyOp20
 70
     1
102
RTVSPropertyOp21
 70
     1
102
RTVSPropertyOp22
 70
     1
102
RTVSPropertyOp23
 70
     1
102
RTVSPropertyOp24
 70
     1
102
RTVSPropertyOp25
 70
     1
102
RTVSPropertyOp26
 70
     1
102
RTVSPropertyOp27
 70
     1
  0
XRECORD
  5
198
102
{ACAD_REACTORS
330
197
102
}
330
197
100
AcDbXrecord
280
     1
102
RTVSPropertyOp0
 70
     1
102
RTVSPropertyOp1
 70
     1
102
RTVSPropertyOp2
 70
     1
102
RTVSPropertyOp3
 70
     1
102
RTVSPropertyOp4
 70
     1
102
RTVSPropertyOp5
 70
     1
102
RTVSPropertyOp6
 70
     1
102
RTVSPropertyOp7
 70
     1
102
RTVSPropertyOp8
 70
     1
102
RTVSPropertyOp9
 70
     1
102
RTVSPropertyOp10
 70
     1
102
RTVSPropertyOp11
 70
     1
102
RTVSPropertyOp12
 70
     1
102
RTVSPropertyOp13
 70
     1
102
RTVSPropertyOp14
 70
     1
102
RTVSPropertyOp15
 70
     1
102
RTVSPropertyOp16
 70
     1
102
RTVSPropertyOp17
 70
     1
102
RTVSPropertyOp18
 70
     1
102
RTVSPropertyOp19
 70
     1
102
RTVSPropertyOp20
 70
     1
102
RTVSPropertyOp21
 70
     1
102
RTVSPropertyOp22
 70
     1
102
RTVSPropertyOp23
 70
     1
102
RTVSPropertyOp24
 70
     1
102
RTVSPropertyOp25
 70
     1
102
RTVSPropertyOp26
 70
     1
102
RTVSPropertyOp27
 70
     1
  0
XRECORD
  5
17C
102
{ACAD_REACTORS
330
17B
102
}
330
17B
100
AcDbXrecord
280
     1
102
RTVSPropertyOp0
 70
     1
102
RTVSPropertyOp1
 70
     1
102
RTVSPropertyOp2
 70
     1
102
RTVSPropertyOp3
 70
     1
102
RTVSPropertyOp4
 70
     1
102
RTVSPropertyOp5
 70
     1
102
RTVSPropertyOp6
 70
     1
102
RTVSPropertyOp7
 70
     1
102
RTVSPropertyOp8
 70
     1
102
RTVSPropertyOp9
 70
     1
102
RTVSPropertyOp10
 70
     1
102
RTVSPropertyOp11
 70
     1
102
RTVSPropertyOp12
 70
     1
102
RTVSPropertyOp13
 70
     1
102
RTVSPropertyOp14
 70
     1
102
RTVSPropertyOp15
 70
     1
102
RTVSPropertyOp16
 70
     1
102
RTVSPropertyOp17
 70
     1
102
RTVSPropertyOp18
 70
     1
102
RTVSPropertyOp19
 70
     1
102
RTVSPropertyOp20
 70
     1
102
RTVSPropertyOp21
 70
     1
102
RTVSPropertyOp22
 70
     1
102
RTVSPropertyOp23
 70
     1
102
RTVSPropertyOp24
 70
     1
102
RTVSPropertyOp25
 70
     1
102
RTVSPropertyOp26
 70
     1
102
RTVSPropertyOp27
 70
     1
  0
XRECORD
  5
17E
102
{ACAD_REACTORS
330
17D
102
}
330
17D
100
AcDbXrecord
280
     1
102
RTVSPropertyOp0
 70
     1
102
RTVSPropertyOp1
 70
     1
102
RTVSPropertyOp2
 70
     1
102
RTVSPropertyOp3
 70
     1
102
RTVSPropertyOp4
 70
     1
102
RTVSPropertyOp5
 70
     1
102
RTVSPropertyOp6
 70
     1
102
RTVSPropertyOp7
 70
     1
102
RTVSPropertyOp8
 70
     1
102
RTVSPropertyOp9
 70
     1
102
RTVSPropertyOp10
 70
     1
102
RTVSPropertyOp11
 70
     1
102
RTVSPropertyOp12
 70
     1
102
RTVSPropertyOp13
 70
     1
102
RTVSPropertyOp14
 70
     1
102
RTVSPropertyOp15
 70
     1
102
RTVSPropertyOp16
 70
     1
102
RTVSPropertyOp17
 70
     1
102
RTVSPropertyOp18
 70
     1
102
RTVSPropertyOp19
 70
     1
102
RTVSPropertyOp20
 70
     1
102
RTVSPropertyOp21
 70
     1
102
RTVSPropertyOp22
 70
     1
102
RTVSPropertyOp23
 70
     1
102
RTVSPropertyOp24
 70
     1
102
RTVSPropertyOp25
 70
     1
102
RTVSPropertyOp26
 70
     1
102
RTVSPropertyOp27
 70
     1
  0
XRECORD
  5
180
102
{ACAD_REACTORS
330
17F
102
}
330
17F
100
AcDbXrecord
280
     1
102
RTVSPropertyOp0
 70
     1
102
RTVSPropertyOp1
 70
     1
102
RTVSPropertyOp2
 70
     1
102
RTVSPropertyOp3
 70
     1
102
RTVSPropertyOp4
 70
     1
102
RTVSPropertyOp5
 70
     1
102
RTVSPropertyOp6
 70
     1
102
RTVSPropertyOp7
 70
     1
102
RTVSPropertyOp8
 70
     1
102
RTVSPropertyOp9
 70
     1
102
RTVSPropertyOp10
 70
     1
102
RTVSPropertyOp11
 70
     1
102
RTVSPropertyOp12
 70
     1
102
RTVSPropertyOp13
 70
     1
102
RTVSPropertyOp14
 70
     1
102
RTVSPropertyOp15
 70
     1
102
RTVSPropertyOp16
 70
     1
102
RTVSPropertyOp17
 70
     1
102
RTVSPropertyOp18
 70
     1
102
RTVSPropertyOp19
 70
     1
102
RTVSPropertyOp20
 70
     1
102
RTVSPropertyOp21
 70
     1
102
RTVSPropertyOp22
 70
     1
102
RTVSPropertyOp23
 70
     1
102
RTVSPropertyOp24
 70
     1
102
RTVSPropertyOp25
 70
     1
102
RTVSPropertyOp26
 70
     1
102
RTVSPropertyOp27
 70
     1
  0
XRECORD
  5
182
102
{ACAD_REACTORS
330
181
102
}
330
181
100
AcDbXrecord
280
     1
102
RTVSPropertyOp0
 70
     1
102
RTVSPropertyOp1
 70
     1
102
RTVSPropertyOp2
 70
     1
102
RTVSPropertyOp3
 70
     1
102
RTVSPropertyOp4
 70
     1
102
RTVSPropertyOp5
 70
     1
102
RTVSPropertyOp6
 70
     1
102
RTVSPropertyOp7
 70
     1
102
RTVSPropertyOp8
 70
     1
102
RTVSPropertyOp9
 70
     1
102
RTVSPropertyOp10
 70
     1
102
RTVSPropertyOp11
 70
     1
102
RTVSPropertyOp12
 70
     1
102
RTVSPropertyOp13
 70
     1
102
RTVSPropertyOp14
 70
     1
102
RTVSPropertyOp15
 70
     1
102
RTVSPropertyOp16
 70
     1
102
RTVSPropertyOp17
 70
     1
102
RTVSPropertyOp18
 70
     1
102
RTVSPropertyOp19
 70
     1
102
RTVSPropertyOp20
 70
     1
102
RTVSPropertyOp21
 70
     1
102
RTVSPropertyOp22
 70
     1
102
RTVSPropertyOp23
 70
     1
102
RTVSPropertyOp24
 70
     1
102
RTVSPropertyOp25
 70
     1
102
RTVSPropertyOp26
 70
     1
102
RTVSPropertyOp27
 70
     1
  0
XRECORD
  5
196
102
{ACAD_REACTORS
330
195
102
}
330
195
100
AcDbXrecord
280
     1
102
RTVSPropertyOp0
 70
     1
102
RTVSPropertyOp1
 70
     1
102
RTVSPropertyOp2
 70
     1
102
RTVSPropertyOp3
 70
     1
102
RTVSPropertyOp4
 70
     1
102
RTVSPropertyOp5
 70
     1
102
RTVSPropertyOp6
 70
     1
102
RTVSPropertyOp7
 70
     1
102
RTVSPropertyOp8
 70
     1
102
RTVSPropertyOp9
 70
     1
102
RTVSPropertyOp10
 70
     1
102
RTVSPropertyOp11
 70
     1
102
RTVSPropertyOp12
 70
     1
102
RTVSPropertyOp13
 70
     1
102
RTVSPropertyOp14
 70
     1
102
RTVSPropertyOp15
 70
     1
102
RTVSPropertyOp16
 70
     1
102
RTVSPropertyOp17
 70
     1
102
RTVSPropertyOp18
 70
     1
102
RTVSPropertyOp19
 70
     1
102
RTVSPropertyOp20
 70
     1
102
RTVSPropertyOp21
 70
     1
102
RTVSPropertyOp22
 70
     1
102
RTVSPropertyOp23
 70
     1
102
RTVSPropertyOp24
 70
     1
102
RTVSPropertyOp25
 70
     1
102
RTVSPropertyOp26
 70
     1
102
RTVSPropertyOp27
 70
     1
  0
XRECORD
  5
18C
102
{ACAD_REACTORS
330
18B
102
}
330
18B
100
AcDbXrecord
280
     1
102
RTVSPropertyOp0
 70
     1
102
RTVSPropertyOp1
 70
     1
102
RTVSPropertyOp2
 70
     1
102
RTVSPropertyOp3
 70
     1
102
RTVSPropertyOp4
 70
     1
102
RTVSPropertyOp5
 70
     1
102
RTVSPropertyOp6
 70
     1
102
RTVSPropertyOp7
 70
     1
102
RTVSPropertyOp8
 70
     1
102
RTVSPropertyOp9
 70
     1
102
RTVSPropertyOp10
 70
     1
102
RTVSPropertyOp11
 70
     1
102
RTVSPropertyOp12
 70
     1
102
RTVSPropertyOp13
 70
     1
102
RTVSPropertyOp14
 70
     1
102
RTVSPropertyOp15
 70
     1
102
RTVSPropertyOp16
 70
     1
102
RTVSPropertyOp17
 70
     1
102
RTVSPropertyOp18
 70
     1
102
RTVSPropertyOp19
 70
     1
102
RTVSPropertyOp20
 70
     1
102
RTVSPropertyOp21
 70
     1
102
RTVSPropertyOp22
 70
     1
102
RTVSPropertyOp23
 70
     1
102
RTVSPropertyOp24
 70
     1
102
RTVSPropertyOp25
 70
     1
102
RTVSPropertyOp26
 70
     1
102
RTVSPropertyOp27
 70
     1
  0
XRECORD
  5
194
102
{ACAD_REACTORS
330
193
102
}
330
193
100
AcDbXrecord
280
     1
102
RTVSPropertyOp0
 70
     1
102
RTVSPropertyOp1
 70
     1
102
RTVSPropertyOp2
 70
     1
102
RTVSPropertyOp3
 70
     1
102
RTVSPropertyOp4
 70
     1
102
RTVSPropertyOp5
 70
     1
102
RTVSPropertyOp6
 70
     1
102
RTVSPropertyOp7
 70
     1
102
RTVSPropertyOp8
 70
     1
102
RTVSPropertyOp9
 70
     1
102
RTVSPropertyOp10
 70
     1
102
RTVSPropertyOp11
 70
     1
102
RTVSPropertyOp12
 70
     1
102
RTVSPropertyOp13
 70
     1
102
RTVSPropertyOp14
 70
     1
102
RTVSPropertyOp15
 70
     1
102
RTVSPropertyOp16
 70
     1
102
RTVSPropertyOp17
 70
     1
102
RTVSPropertyOp18
 70
     1
102
RTVSPropertyOp19
 70
     1
102
RTVSPropertyOp20
 70
     1
102
RTVSPropertyOp21
 70
     1
102
RTVSPropertyOp22
 70
     1
102
RTVSPropertyOp23
 70
     1
102
RTVSPropertyOp24
 70
     1
102
RTVSPropertyOp25
 70
     1
102
RTVSPropertyOp26
 70
     1
102
RTVSPropertyOp27
 70
     1
  0
ENDSEC
  0
EOF
