  0
SECTION
  2
HEADER
  9
$ACADVER
  1
AC1015
  9
$ACADMAINTVER
 70
     6
  9
$DWGCODEPAGE
  3
ANSI_1252
  9
$INSBASE
 10
0.0
 20
0.0
 30
0.0
  9
$EXTMIN
 10
0.0
 20
0.0
 30
0.0
  9
$EXTMAX
 10
297.0
 20
210.0
 30
0.0
  9
$LIMMIN
 10
0.0
 20
0.0
  9
$LIMMAX
 10
0.0
 20
0.0
  9
$ORTHOMODE
 70
     0
  9
$REGENMODE
 70
     1
  9
$FILLMODE
 70
     1
  9
$QTEXTMODE
 70
     0
  9
$MIRRTEXT
 70
     1
  9
$LTSCALE
 40
1.0
  9
$ATTMODE
 70
     1
  9
$TEXTSIZE
 40
3.5
  9
$TRACEWID
 40
1.0
  9
$TEXTSTYLE
  7
Standard
  9
$CLAYER
  8
0
  9
$CELTYPE
  6
ByLayer
  9
$CECOLOR
 62
   256
  9
$CELTSCALE
 40
1.0
  9
$DISPSILH
 70
     0
  9
$DIMSCALE
 40
1.0
  9
$DIMASZ
 40
3.302
  9
$DIMEXO
 40
0.0
  9
$DIMDLI
 40
3.75
  9
$DIMRND
 40
0.0
  9
$DIMDLE
 40
0.0
  9
$DIMEXE
 40
1.0
  9
$DIMTP
 40
0.0
  9
$DIMTM
 40
0.0
  9
$DIMTXT
 40
3.5
  9
$DIMCEN
 40
2.5
  9
$DIMTSZ
 40
0.0
  9
$DIMTOL
 70
     0
  9
$DIMLIM
 70
     0
  9
$DIMTIH
 70
     1
  9
$DIMTOH
 70
     1
  9
$DIMSE1
 70
     0
  9
$DIMSE2
 70
     0
  9
$DIMTAD
 70
     1
  9
$DIMZIN
 70
     0
  9
$DIMBLK
  1

  9
$DIMASO
 70
     1
  9
$DIMSHO
 70
     1
  9
$DIMPOST
  1

  9
$DIMAPOST
  1

  9
$DIMALT
 70
     0
  9
$DIMALTD
 70
     3
  9
$DIMALTF
 40
0.0393700787
  9
$DIMLFAC
 40
1.0
  9
$DIMTOFL
 70
     1
  9
$DIMTVP
 40
0.0
  9
$DIMTIX
 70
     0
  9
$DIMSOXD
 70
     0
  9
$DIMSAH
 70
     0
  9
$DIMBLK1
  1

  9
$DIMBLK2
  1

  9
$DIMSTYLE
  2
ISO-25
  9
$DIMCLRD
 70
     0
  9
$DIMCLRE
 70
     0
  9
$DIMCLRT
 70
     0
  9
$DIMTFAC
 40
1.0
  9
$DIMGAP
 40
3.0
  9
$DIMJUST
 70
     0
  9
$DIMSD1
 70
     0
  9
$DIMSD2
 70
     0
  9
$DIMTOLJ
 70
     0
  9
$DIMTZIN
 70
     0
  9
$DIMALTZ
 70
     0
  9
$DIMALTTZ
 70
     0
  9
$DIMUPT
 70
     0
  9
$DIMDEC
 70
     2
  9
$DIMTDEC
 70
     2
  9
$DIMALTU
 70
     2
  9
$DIMALTTD
 70
     3
  9
$DIMTXSTY
  7
Standard
  9
$DIMAUNIT
 70
     0
  9
$DIMADEC
 70
     0
  9
$DIMALTRND
 40
0.0
  9
$DIMAZIN
 70
     0
  9
$DIMDSEP
 70
    44
  9
$DIMATFIT
 70
     3
  9
$DIMFRAC
 70
     0
  9
$DIMLDRBLK
  1

  9
$DIMLUNIT
 70
     2
  9
$DIMLWD
 70
    -2
  9
$DIMLWE
 70
    -2
  9
$DIMTMOVE
 70
     0
  9
$LUNITS
 70
     2
  9
$LUPREC
 70
     2
  9
$SKETCHINC
 40
1.0
  9
$FILLETRAD
 40
10.0
  9
$AUNITS
 70
     0
  9
$AUPREC
 70
     0
  9
$MENU
  1
.
  9
$ELEVATION
 40
0.0
  9
$PELEVATION
 40
0.0
  9
$THICKNESS
 40
0.0
  9
$LIMCHECK
 70
     0
  9
$CHAMFERA
 40
10.0
  9
$CHAMFERB
 40
10.0
  9
$CHAMFERC
 40
20.0
  9
$CHAMFERD
 40
0.0
  9
$SKPOLY
 70
     0
  9
$TDCREATE
 40
2454721.441384907
  9
$TDUCREATE
 40
2454721.358051574
  9
$TDUPDATE
 40
2454721.441384919
  9
$TDUUPDATE
 40
2454721.358051585
  9
$TDINDWG
 40
0.0000000116
  9
$TDUSRTIMER
 40
0.0000000116
  9
$USRTIMER
 70
     1
  9
$ANGBASE
 50
0.0
  9
$ANGDIR
 70
     0
  9
$PDMODE
 70
     0
  9
$PDSIZE
 40
-1.0
  9
$PLINEWID
 40
0.0
  9
$SPLFRAME
 70
     0
  9
$SPLINETYPE
 70
     6
  9
$SPLINESEGS
 70
     8
  9
$HANDSEED
  5
9E
  9
$SURFTAB1
 70
     6
  9
$SURFTAB2
 70
     6
  9
$SURFTYPE
 70
     6
  9
$SURFU
 70
     6
  9
$SURFV
 70
     6
  9
$UCSBASE
  2

  9
$UCSNAME
  2

  9
$UCSORG
 10
0.0
 20
0.0
 30
0.0
  9
$UCSXDIR
 10
1.0
 20
0.0
 30
0.0
  9
$UCSYDIR
 10
0.0
 20
1.0
 30
0.0
  9
$UCSORTHOREF
  2

  9
$UCSORTHOVIEW
 70
     0
  9
$UCSORGTOP
 10
0.0
 20
0.0
 30
0.0
  9
$UCSORGBOTTOM
 10
0.0
 20
0.0
 30
0.0
  9
$UCSORGLEFT
 10
0.0
 20
0.0
 30
0.0
  9
$UCSORGRIGHT
 10
0.0
 20
0.0
 30
0.0
  9
$UCSORGFRONT
 10
0.0
 20
0.0
 30
0.0
  9
$UCSORGBACK
 10
0.0
 20
0.0
 30
0.0
  9
$PUCSBASE
  2

  9
$PUCSNAME
  2

  9
$PUCSORG
 10
0.0
 20
0.0
 30
0.0
  9
$PUCSXDIR
 10
1.0
 20
0.0
 30
0.0
  9
$PUCSYDIR
 10
0.0
 20
1.0
 30
0.0
  9
$PUCSORTHOREF
  2

  9
$PUCSORTHOVIEW
 70
     0
  9
$PUCSORGTOP
 10
0.0
 20
0.0
 30
0.0
  9
$PUCSORGBOTTOM
 10
0.0
 20
0.0
 30
0.0
  9
$PUCSORGLEFT
 10
0.0
 20
0.0
 30
0.0
  9
$PUCSORGRIGHT
 10
0.0
 20
0.0
 30
0.0
  9
$PUCSORGFRONT
 10
0.0
 20
0.0
 30
0.0
  9
$PUCSORGBACK
 10
0.0
 20
0.0
 30
0.0
  9
$USERI1
 70
     0
  9
$USERI2
 70
     0
  9
$USERI3
 70
     0
  9
$USERI4
 70
     0
  9
$USERI5
 70
     0
  9
$USERR1
 40
0.0
  9
$USERR2
 40
0.0
  9
$USERR3
 40
0.0
  9
$USERR4
 40
0.0
  9
$USERR5
 40
0.0
  9
$WORLDVIEW
 70
     1
  9
$SHADEDGE
 70
     3
  9
$SHADEDIF
 70
    70
  9
$TILEMODE
 70
     1
  9
$MAXACTVP
 70
    64
  9
$PINSBASE
 10
0.0
 20
0.0
 30
0.0
  9
$PLIMCHECK
 70
     0
  9
$PEXTMIN
 10
1.0000000000E+20
 20
1.0000000000E+20
 30
1.0000000000E+20
  9
$PEXTMAX
 10
-1.0000000000E+20
 20
-1.0000000000E+20
 30
-1.0000000000E+20
  9
$PLIMMIN
 10
0.0
 20
0.0
  9
$PLIMMAX
 10
420.0
 20
297.0
  9
$UNITMODE
 70
     0
  9
$VISRETAIN
 70
     1
  9
$PLINEGEN
 70
     0
  9
$PSLTSCALE
 70
     1
  9
$TREEDEPTH
 70
  3020
  9
$CMLSTYLE
  2
Standard
  9
$CMLJUST
 70
     0
  9
$CMLSCALE
 40
20.0
  9
$PROXYGRAPHICS
 70
     1
  9
$MEASUREMENT
 70
     1
  9
$CELWEIGHT
370
    -1
  9
$ENDCAPS
280
     0
  9
$JOINSTYLE
280
     0
  9
$LWDISPLAY
290
     1
  9
$INSUNITS
 70
     4
  9
$HYPERLINKBASE
  1

  9
$STYLESHEET
  1

  9
$XEDIT
290
     1
  9
$CEPSNTYPE
380
     0
  9
$PSTYLEMODE
290
     1
  9
$FINGERPRINTGUID
  2
{B33AD98A-207A-4748-9974-7F3A6A28174B}
  9
$VERSIONGUID
  2
{FAEB1C32-E019-11D5-929B-00C0DF256EC4}
  9
$EXTNAMES
290
     1
  9
$PSVPSCALE
 40
0.0
  9
$OLESTARTUP
290
     0
  0
ENDSEC
  0
SECTION
  2
CLASSES
  0
CLASS
  1
ACDBDICTIONARYWDFLT
  2
AcDbDictionaryWithDefault
  3
ObjectDBX Classes
 90
        0
280
     0
281
     0
  0
CLASS
  1
ACDBPLACEHOLDER
  2
AcDbPlaceHolder
  3
ObjectDBX Classes
 90
        0
280
     0
281
     0
  0
CLASS
  1
LAYOUT
  2
AcDbLayout
  3
ObjectDBX Classes
 90
        0
280
     0
281
     0
  0
ENDSEC
  0
SECTION
  2
TABLES
  0
TABLE
  2
VPORT
  5
8
330
0
100
AcDbSymbolTable
 70
     1
  0
VPORT
  5
29
330
8
100
AcDbSymbolTableRecord
100
AcDbViewportTableRecord
  2
*Active
 70
     0
 10
0.0
 20
0.0
 11
1.0
 21
1.0
 12
148.5
 22
105.0
 13
0.0
 23
0.0
 14
10.0
 24
10.0
 15
10.0
 25
10.0
 16
0.0
 26
0.0
 36
1.0
 17
0.0
 27
0.0
 37
0.0
 40
210.0
 41
1.4142857143
 42
50.0
 43
0.0
 44
0.0
 50
0.0
 51
0.0
 71
     0
 72
  2000
 73
     1
 74
     3
 75
     0
 76
     0
 77
     0
 78
     0
281
     0
 65
     1
110
0.0
120
0.0
130
0.0
111
1.0
121
0.0
131
0.0
112
0.0
122
1.0
132
0.0
 79
     0
146
0.0
  0
ENDTAB
  0
TABLE
  2
LTYPE
  5
5
330
0
100
AcDbSymbolTable
 70
     6
  0
LTYPE
  5
14
330
5
100
AcDbSymbolTableRecord
100
AcDbLinetypeTableRecord
  2
ByBlock
 70
     0
  3

 72
    65
 73
     0
 40
0.0
  0
LTYPE
  5
15
330
5
100
AcDbSymbolTableRecord
100
AcDbLinetypeTableRecord
  2
ByLayer
 70
     0
  3

 72
    65
 73
     0
 40
0.0
  0
LTYPE
  5
16
330
5
100
AcDbSymbolTableRecord
100
AcDbLinetypeTableRecord
  2
Continuous
 70
     0
  3
Solid line
 72
    65
 73
     0
 40
0.0
  0
LTYPE
  5
2A
330
5
100
AcDbSymbolTableRecord
100
AcDbLinetypeTableRecord
  2
HIDDEN
 70
     0
  3
Hidden __ __ __ __ __ __ __ __ __ __ __ __ __ __
 72
    65
 73
     2
 40
1.905
 49
1.27
 74
     0
 49
-0.635
 74
     0
  0
LTYPE
  5
2B
330
5
100
AcDbSymbolTableRecord
100
AcDbLinetypeTableRecord
  2
PHANTOM
 70
     0
  3
Phantom ______  __  __  ______  __  __  ______
 72
    65
 73
     6
 40
12.7
 49
6.35
 74
     0
 49
-1.27
 74
     0
 49
1.27
 74
     0
 49
-1.27
 74
     0
 49
1.27
 74
     0
 49
-1.27
 74
     0
  0
LTYPE
  5
2C
330
5
100
AcDbSymbolTableRecord
100
AcDbLinetypeTableRecord
  2
CENTER
 70
     0
  3
Center ____ _ ____ _ ____ _ ____ _ ____ _ ____
 72
    65
 73
     4
 40
10.16
 49
6.35
 74
     0
 49
-1.27
 74
     0
 49
1.27
 74
     0
 49
-1.27
 74
     0
  0
LTYPE
  5
2D
330
5
100
AcDbSymbolTableRecord
100
AcDbLinetypeTableRecord
  2
CENTERX2
 70
     0
  3
Center (2x) ________  __  ________  __  _____
 72
    65
 73
     4
 40
20.32
 49
12.7
 74
     0
 49
-2.54
 74
     0
 49
2.54
 74
     0
 49
-2.54
 74
     0
  0
LTYPE
  5
2E
330
5
100
AcDbSymbolTableRecord
100
AcDbLinetypeTableRecord
  2
DOT2
 70
     0
  3
Dot (.5x) ........................................
 72
    65
 73
     2
 40
0.635
 49
0.0
 74
     0
 49
-0.635
 74
     0
  0
ENDTAB
  0
TABLE
  2
LAYER
  5
2
330
0
100
AcDbSymbolTable
 70
     1
  0
LAYER
  5
10
330
2
100
AcDbSymbolTableRecord
100
AcDbLayerTableRecord
  2
0
 70
     0
 62
     7
  6
Continuous
370
    -3
390
F
  0
ENDTAB
  0
TABLE
  2
STYLE
  5
3
330
0
100
AcDbSymbolTable
 70
     4
  0
STYLE
  5
11
330
3
100
AcDbSymbolTableRecord
100
AcDbTextStyleTableRecord
  2
Standard
 70
     0
 40
0.0
 41
1.0
 50
0.0
 71
     0
 42
2.5
  3
txt
  4

  0
STYLE
  5
6A
330
3
100
AcDbSymbolTableRecord
100
AcDbTextStyleTableRecord
  2
SLDTEXTSTYLE0
 70
     0
 40
0.0
 41
0.75
 50
0.0
 71
     0
 42
0.2
  3
TXT
  4

  0
STYLE
  5
97
330
3
100
AcDbSymbolTableRecord
100
AcDbTextStyleTableRecord
  2
SLDTEXTSTYLE1
 70
     0
 40
0.0
 41
0.6428571429
 50
0.0
 71
     0
 42
0.2
  3
TXT
  4

  0
STYLE
  5
99
330
3
100
AcDbSymbolTableRecord
100
AcDbTextStyleTableRecord
  2
SLDTEXTSTYLE2
 70
     0
 40
0.0
 41
0.6397058824
 50
0.0
 71
     0
 42
0.2
  3
TXT
  4

  0
ENDTAB
  0
TABLE
  2
VIEW
  5
6
330
0
100
AcDbSymbolTable
 70
     0
  0
ENDTAB
  0
TABLE
  2
UCS
  5
7
330
0
100
AcDbSymbolTable
 70
     0
  0
ENDTAB
  0
TABLE
  2
APPID
  5
9
330
0
100
AcDbSymbolTable
 70
     1
  0
APPID
  5
12
330
9
100
AcDbSymbolTableRecord
100
AcDbRegAppTableRecord
  2
ACAD
 70
     0
  0
ENDTAB
  0
TABLE
  2
DIMSTYLE
  5
A
330
0
100
AcDbSymbolTable
 70
     2
100
AcDbDimStyleTable
  0
DIMSTYLE
105
27
330
A
100
AcDbSymbolTableRecord
100
AcDbDimStyleTableRecord
  2
ISO-25
 70
     0
 41
2.5
 42
0.625
 43
3.75
 44
1.25
 73
     0
 74
     0
 77
     1
 78
     8
140
2.5
141
2.5
143
0.0393700787
147
0.625
171
     3
172
     1
271
     2
272
     2
274
     3
278
    44
283
     0
284
     8
340
11
  0
DIMSTYLE
105
6B
102
{ACAD_REACTORS
330
69
330
75
330
7F
330
89
102
}
330
A
100
AcDbSymbolTableRecord
100
AcDbDimStyleTableRecord
  2
SLDDIMSTYLE0
 70
     0
 41
3.302
 44
0.0
 73
     0
 74
     0
 77
     1
 78
    12
140
3.5
147
0.875
173
     1
271
     2
272
     2
284
    12
340
6A
  0
ENDTAB
  0
TABLE
  2
BLOCK_RECORD
  5
1
330
0
100
AcDbSymbolTable
 70
     6
  0
BLOCK_RECORD
  5
1F
330
1
100
AcDbSymbolTableRecord
100
AcDbBlockTableRecord
  2
*Model_Space
340
22
  0
BLOCK_RECORD
  5
1B
330
1
100
AcDbSymbolTableRecord
100
AcDbBlockTableRecord
  2
*Paper_Space
340
1E
  0
BLOCK_RECORD
  5
23
330
1
100
AcDbSymbolTableRecord
100
AcDbBlockTableRecord
  2
*Paper_Space0
340
26
  0
BLOCK_RECORD
  5
6C
330
1
100
AcDbSymbolTableRecord
100
AcDbBlockTableRecord
  2
*D1
340
0
  0
BLOCK_RECORD
  5
76
330
1
100
AcDbSymbolTableRecord
100
AcDbBlockTableRecord
  2
*D2
340
0
  0
BLOCK_RECORD
  5
80
330
1
100
AcDbSymbolTableRecord
100
AcDbBlockTableRecord
  2
*D3
340
0
  0
BLOCK_RECORD
  5
8A
330
1
100
AcDbSymbolTableRecord
100
AcDbBlockTableRecord
  2
*D4
340
0
  0
BLOCK_RECORD
  5
94
330
1
100
AcDbSymbolTableRecord
100
AcDbBlockTableRecord
  2
SW_NOTE_0
340
0
102
{BLKREFS
331
9B
102
}
1001
ACAD
1000
DesignCenter Data
1002
{
1070
     1
1070
     0
1002
}
  0
ENDTAB
  0
ENDSEC
  0
SECTION
  2
BLOCKS
  0
BLOCK
  5
20
330
1F
100
AcDbEntity
  8
0
100
AcDbBlockBegin
  2
*Model_Space
 70
     0
 71
     0
 10
0.0
 20
0.0
 30
0.0
  3
*Model_Space
  1

  0
ENDBLK
  5
21
330
1F
100
AcDbEntity
  8
0
100
AcDbBlockEnd
  0
BLOCK
  5
1C
330
1B
100
AcDbEntity
 67
     1
  8
0
100
AcDbBlockBegin
  2
*Paper_Space
 70
     0
 71
     0
 10
0.0
 20
0.0
 30
0.0
  3
*Paper_Space
  1

  0
ENDBLK
  5
1D
330
1B
100
AcDbEntity
 67
     1
  8
0
100
AcDbBlockEnd
  0
BLOCK
  5
24
330
23
100
AcDbEntity
  8
0
100
AcDbBlockBegin
  2
*Paper_Space0
 70
     0
 71
     0
 10
0.0
 20
0.0
 30
0.0
  3
*Paper_Space0
  1

  0
ENDBLK
  5
25
330
23
100
AcDbEntity
  8
0
100
AcDbBlockEnd
  0
BLOCK
  5
6D
330
6C
100
AcDbEntity
  8
0
100
AcDbBlockBegin
  2
*D1
 70
     1
 71
     0
 10
0.0
 20
0.0
 30
0.0
  3
*D1
  1

  0
SOLID
  5
6F
330
6C
100
AcDbEntity
  8
0
  6
Continuous
 62
     7
370
     0
100
AcDbTrace
 10
227.1962318856
 20
76.7163462316
 30
0.0
 11
223.8942318856
 21
77.2243462316
 31
0.0
 12
223.8942318856
 22
76.2083462316
 32
0.0
 13
223.8942318856
 23
76.2083462316
 33
0.0
  0
SOLID
  5
70
330
6C
100
AcDbEntity
  8
0
  6
Continuous
 62
     7
370
     0
100
AcDbTrace
 10
89.1962318856
 20
76.7163462316
 30
0.0
 11
92.4982318856
 21
76.2083462316
 31
0.0
 12
92.4982318856
 22
77.2243462316
 32
0.0
 13
92.4982318856
 23
77.2243462316
 33
0.0
  0
LINE
  5
71
330
6C
100
AcDbEntity
  8
0
  6
Continuous
 62
     7
370
     0
100
AcDbLine
 10
227.1962318856
 20
125.4332249202
 30
0.0
 11
227.1962318856
 21
75.7163462316
 31
0.0
  0
LINE
  5
72
330
6C
100
AcDbEntity
  8
0
  6
Continuous
 62
     7
370
     0
100
AcDbLine
 10
89.1962318856
 20
145.9489876548
 30
0.0
 11
89.1962318856
 21
75.7163462316
 31
0.0
  0
LINE
  5
73
330
6C
100
AcDbEntity
  8
0
  6
Continuous
 62
     7
370
     0
100
AcDbLine
 10
227.1962318856
 20
76.7163462316
 30
0.0
 11
89.1962318856
 21
76.7163462316
 31
0.0
  0
MTEXT
  5
74
330
6C
100
AcDbEntity
  8
0
  6
Continuous
 62
     7
370
     0
100
AcDbMText
 10
151.3436197017
 20
81.187049182
 30
0.0
 40
3.5
 41
0.0
 71
     1
 72
     1
  1
138
  7
SLDTEXTSTYLE0
 73
     1
 44
1.0
  0
ENDBLK
  5
6E
330
6C
100
AcDbEntity
  8
0
100
AcDbBlockEnd
  0
BLOCK
  5
77
330
76
100
AcDbEntity
  8
0
100
AcDbBlockBegin
  2
*D2
 70
     1
 71
     0
 10
0.0
 20
0.0
 30
0.0
  3
*D2
  1

  0
SOLID
  5
79
330
76
100
AcDbEntity
  8
0
  6
Continuous
 62
     7
370
     0
100
AcDbTrace
 10
79.1462364226
 20
86.7277435379
 30
0.0
 11
79.6542364226
 21
90.0297435379
 31
0.0
 12
78.6382364226
 22
90.0297435379
 32
0.0
 13
78.6382364226
 23
90.0297435379
 33
0.0
  0
SOLID
  5
7A
330
76
100
AcDbEntity
  8
0
  6
Continuous
 62
     7
370
     0
100
AcDbTrace
 10
79.1462364226
 20
149.7277435379
 30
0.0
 11
78.6382364226
 21
146.4257435379
 31
0.0
 12
79.6542364226
 22
146.4257435379
 32
0.0
 13
79.6542364226
 23
146.4257435379
 33
0.0
  0
LINE
  5
7B
330
76
100
AcDbEntity
  8
0
  6
Continuous
 62
     7
370
     0
100
AcDbLine
 10
137.1560501232
 20
86.7277435379
 30
0.0
 11
78.1462364226
 21
86.7277435379
 31
0.0
  0
LINE
  5
7C
330
76
100
AcDbEntity
  8
0
  6
Continuous
 62
     7
370
     0
100
AcDbLine
 10
89.1962318856
 20
149.7277435379
 30
0.0
 11
78.1462364226
 21
149.7277435379
 31
0.0
  0
LINE
  5
7D
330
76
100
AcDbEntity
  8
0
  6
Continuous
 62
     7
370
     0
100
AcDbLine
 10
79.1462364226
 20
86.7277435379
 30
0.0
 11
79.1462364226
 21
149.7277435379
 31
0.0
  0
MTEXT
  5
7E
330
76
100
AcDbEntity
  8
0
  6
Continuous
 62
     7
370
     0
100
AcDbMText
 10
74.6755334722
 20
115.8386786037
 30
0.0
 40
3.5
 41
0.0
 71
     1
 72
     1
  1
63
  7
SLDTEXTSTYLE0
 11
6.123031769111886E-17
 21
1.0
 31
0.0
 73
     1
 44
1.0
  0
ENDBLK
  5
78
330
76
100
AcDbEntity
  8
0
100
AcDbBlockEnd
  0
BLOCK
  5
81
330
80
100
AcDbEntity
  8
0
100
AcDbBlockBegin
  2
*D3
 70
     1
 71
     0
 10
0.0
 20
0.0
 30
0.0
  3
*D3
  1

  0
SOLID
  5
83
330
80
100
AcDbEntity
  8
0
  6
Continuous
 62
     7
370
     0
100
AcDbTrace
 10
239.0087806654
 20
131.2277435379
 30
0.0
 11
238.5007806654
 21
127.9257435379
 31
0.0
 12
239.5167806654
 22
127.9257435379
 32
0.0
 13
239.5167806654
 23
127.9257435379
 33
0.0
  0
SOLID
  5
84
330
80
100
AcDbEntity
  8
0
  6
Continuous
 62
     7
370
     0
100
AcDbTrace
 10
239.0087806654
 20
86.7277435379
 30
0.0
 11
239.5167806654
 21
90.0297435379
 31
0.0
 12
238.5007806654
 22
90.0297435379
 32
0.0
 13
238.5007806654
 23
90.0297435379
 33
0.0
  0
LINE
  5
85
330
80
100
AcDbEntity
  8
0
  6
Continuous
 62
     7
370
     0
100
AcDbLine
 10
225.1128047528
 20
131.2277435379
 30
0.0
 11
240.0087806654
 21
131.2277435379
 31
0.0
  0
LINE
  5
86
330
80
100
AcDbEntity
  8
0
  6
Continuous
 62
     7
370
     0
100
AcDbLine
 10
144.8555050759
 20
86.7277435379
 30
0.0
 11
240.0087806654
 21
86.7277435379
 31
0.0
  0
LINE
  5
87
330
80
100
AcDbEntity
  8
0
  6
Continuous
 62
     7
370
     0
100
AcDbLine
 10
239.0087806654
 20
131.2277435379
 30
0.0
 11
239.0087806654
 21
86.7277435379
 31
0.0
  0
MTEXT
  5
88
330
80
100
AcDbEntity
  8
0
  6
Continuous
 62
     7
370
     0
100
AcDbMText
 10
234.5380777151
 20
102.4709596755
 30
0.0
 40
3.5
 41
0.0
 71
     1
 72
     1
  1
44,5
  7
SLDTEXTSTYLE0
 11
-7.044197039909883E-15
 21
1.0
 31
0.0
 73
     1
 44
1.0
  0
ENDBLK
  5
82
330
80
100
AcDbEntity
  8
0
100
AcDbBlockEnd
  0
BLOCK
  5
8B
330
8A
100
AcDbEntity
  8
0
100
AcDbBlockBegin
  2
*D4
 70
     1
 71
     0
 10
0.0
 20
0.0
 30
0.0
  3
*D4
  1

  0
SOLID
  5
8D
330
8A
100
AcDbEntity
  8
0
  6
Continuous
 62
     7
370
     0
100
AcDbTrace
 10
89.1962318856
 20
169.5319225886
 30
0.0
 11
92.4982318856
 21
169.0239225886
 31
0.0
 12
92.4982318856
 22
170.0399225886
 32
0.0
 13
92.4982318856
 23
170.0399225886
 33
0.0
  0
SOLID
  5
8E
330
8A
100
AcDbEntity
  8
0
  6
Continuous
 62
     7
370
     0
100
AcDbTrace
 10
112.6962318856
 20
169.5319225886
 30
0.0
 11
109.3942318856
 21
170.0399225886
 31
0.0
 12
109.3942318856
 22
169.0239225886
 32
0.0
 13
109.3942318856
 23
169.0239225886
 33
0.0
  0
LINE
  5
8F
330
8A
100
AcDbEntity
  8
0
  6
Continuous
 62
     7
370
     0
100
AcDbLine
 10
89.1962318856
 20
149.7277435379
 30
0.0
 11
89.1962318856
 21
170.5319225886
 31
0.0
  0
LINE
  5
90
330
8A
100
AcDbEntity
  8
0
  6
Continuous
 62
     7
370
     0
100
AcDbLine
 10
112.6962318856
 20
149.7277435379
 30
0.0
 11
112.6962318856
 21
170.5319225886
 31
0.0
  0
LINE
  5
91
330
8A
100
AcDbEntity
  8
0
  6
Continuous
 62
     7
370
     0
100
AcDbLine
 10
89.1962318856
 20
169.5319225886
 30
0.0
 11
112.6962318856
 21
169.5319225886
 31
0.0
  0
MTEXT
  5
92
330
8A
100
AcDbEntity
  8
0
  6
Continuous
 62
     7
370
     0
100
AcDbMText
 10
92.5764008455
 20
174.0026257136
 30
0.0
 40
3.5
 41
0.0
 71
     1
 72
     1
  1
%%c
  7
SLDTEXTSTYLE0
 73
     1
 44
1.0
  0
MTEXT
  5
93
330
8A
100
AcDbEntity
  8
0
  6
Continuous
 62
     7
370
     0
100
AcDbMText
 10
97.8544396899
 20
174.002625539
 30
0.0
 40
3.5
 41
0.0
 71
     1
 72
     1
  1
23,5
  7
SLDTEXTSTYLE0
 73
     1
 44
1.0
  0
ENDBLK
  5
8C
330
8A
100
AcDbEntity
  8
0
100
AcDbBlockEnd
  0
BLOCK
  5
95
330
94
100
AcDbEntity
  8
0
100
AcDbBlockBegin
  2
SW_NOTE_0
 70
     0
 71
     0
 10
0.0
 20
0.0
 30
0.0
  3
SW_NOTE_0
  1

  0
MTEXT
  5
98
330
94
100
AcDbEntity
  8
0
  6
Continuous
 62
     0
370
     0
100
AcDbMText
 10
0.0
 20
4.470703125
 30
0.0
 40
3.5
 41
0.0
 71
     1
 72
     1
  1
PR 8527 Al- / ER
  7
SLDTEXTSTYLE1
 73
     1
 44
1.0
  0
MTEXT
  5
9A
330
94
100
AcDbEntity
  8
0
  6
Continuous
 62
     0
370
     0
100
AcDbMText
 10
0.0
 20
-0.0549914055
 30
0.0
 40
3.5
 41
0.0
 71
     1
 72
     1
  1
PR 8527 FS Al- / ER
  7
SLDTEXTSTYLE2
 73
     1
 44
1.0
  0
ENDBLK
  5
96
330
94
100
AcDbEntity
  8
0
100
AcDbBlockEnd
  0
ENDSEC
  0
SECTION
  2
ENTITIES
  0
LINE
  5
2F
330
1F
100
AcDbEntity
  8
0
  6
Continuous
 62
     7
370
     0
100
AcDbLine
 10
223.5721864234
 20
131.2277435379
 30
0.0
 11
225.1128047528
 21
131.2277435379
 31
0.0
  0
LINE
  5
30
330
1F
100
AcDbEntity
  8
0
  6
Continuous
 62
     7
370
     0
100
AcDbLine
 10
227.1962318856
 20
127.5642800225
 30
0.0
 11
227.1962318856
 21
125.4332249202
 31
0.0
  0
LINE
  5
31
330
1F
100
AcDbEntity
  8
0
  6
Continuous
 62
     7
370
     0
100
AcDbLine
 10
137.1560501232
 20
86.7277435379
 30
0.0
 11
144.8555050759
 21
86.7277435379
 31
0.0
  0
LINE
  5
32
330
1F
100
AcDbEntity
  8
0
  6
Continuous
 62
     7
370
     0
100
AcDbLine
 10
89.1962318856
 20
156.0695604783
 30
0.0
 11
89.1962318856
 21
145.9489876548
 31
0.0
  0
ARC
  5
33
330
1F
100
AcDbEntity
  8
0
  6
Continuous
 62
     7
370
    15
100
AcDbCircle
 10
124.1196525631
 20
113.7221103362
 30
0.0
 40
11.09157134517728
100
AcDbArc
 50
190.0344683181
 51
267.933615441
  0
LWPOLYLINE
  5
34
330
1F
100
AcDbEntity
  8
0
  6
Continuous
 62
     7
370
    15
100
AcDbPolyline
 90
       16
 70
   128
 43
0.0
 10
89.8646080408
 20
109.8911078887
 10
90.1176930878
 20
108.576769592
 10
90.947311512
 20
105.8361405747
 10
92.029572605
 20
103.3083224909
 10
93.3572022718
 20
100.9888896959
 10
94.9230330538
 20
98.8732861595
 10
96.7200106483
 20
96.9566056745
 10
98.7413515344
 20
95.233409317
 10
100.9805860689
 20
93.6978558319
 10
103.431423568
 20
92.3439214246
 10
106.0873033952
 20
91.1657313125
 10
108.9410447989
 20
90.1576081531
 10
111.9846675087
 20
89.314079495
 10
115.2099279229
 20
88.6297362165
 10
118.6085875619
 20
88.099318208
 10
122.1727441538
 20
87.7177367227
  0
LINE
  5
35
330
1F
100
AcDbEntity
  8
0
  6
Continuous
 62
     7
370
    15
100
AcDbLine
 10
89.196232288
 20
149.7277435854
 30
0.0
 11
89.196232288
 21
116.727742018
 31
0.0
  0
LINE
  5
36
330
1F
100
AcDbEntity
  8
0
  6
Continuous
 62
     7
370
    15
100
AcDbLine
 10
112.6962314833
 20
116.727742018
 30
0.0
 11
112.6962314833
 21
149.7277435854
 31
0.0
  0
LWPOLYLINE
  5
37
330
1F
100
AcDbEntity
  8
0
  6
Continuous
 62
     7
370
    15
100
AcDbPolyline
 90
       55
 70
   128
 43
0.0
 10
122.1727460165
 20
87.7177367227
 10
125.820637821
 20
87.4245340245
 10
129.1283249397
 20
87.2042538838
 10
132.094518422
 20
87.0428072529
 10
134.7183838029
 20
86.9286047535
 10
136.9993492503
 20
86.8511298912
 10
138.9370627243
 20
86.8012184517
 10
140.5775650878
 20
86.7703842239
 10
141.8517671067
 20
86.7536613958
 10
142.7596725065
 20
86.7455961423
 10
143.5010052759
 20
86.7413865643
 10
144.7149507243
 20
86.7391141372
 10
146.0207208533
 20
86.7430666702
 10
147.837533756
 20
86.7596032338
 10
149.9508462388
 20
86.7949972169
 10
152.2908314604
 20
86.8544752018
 10
156.5736598808
 20
87.018618943
 10
160.967140599
 20
87.2614445405
 10
165.4521144468
 20
87.5873254852
 10
169.3776018459
 20
87.9374841468
 10
173.1856084902
 20
88.3353041725
 10
176.8740631182
 20
88.7751119452
 10
180.459289952
 20
89.2572725432
 10
183.9824832518
 20
89.7763321416
 10
187.8469429452
 20
90.5590603368
 10
191.5559760768
 20
91.5814178305
 10
195.1905779082
 20
92.8564654903
 10
198.7511507709
 20
94.3880031126
 10
202.2661335308
 20
96.200539382
 10
206.1198345859
 20
98.5735791044
 10
209.8477325875
 20
101.3144651668
 10
211.2531356055
 20
102.4789573865
 10
212.4731607277
 20
103.5554209964
 10
213.484323724
 20
104.4974947588
 10
214.2987764914
 20
105.2915739136
 10
214.9367101032
 20
105.9368836002
 10
215.4092482764
 20
106.4288007336
 10
215.9926510889
 20
107.0532152669
 10
216.7673252065
 20
107.9131128507
 10
217.7184290726
 20
109.0203734355
 10
219.1227294047
 20
110.7704477625
 10
220.54503779
 20
112.7040410655
 10
221.9627789695
 20
114.8243421929
 10
223.1523908217
 20
116.7843180017
 10
224.281101628
 20
118.8279731439
 10
225.3514147837
 20
120.8931213485
 10
226.3496212203
 20
123.1634864824
 10
226.7480484683
 20
124.3109727519
 10
227.0449690063
 20
125.4392421113
 10
227.2154531915
 20
126.528399648
 10
227.2352270324
 20
127.5590794401
 10
227.0807466943
 20
128.5124352442
 10
226.7291090924
 20
129.370133044
 10
226.1581263978
 20
130.1143454628
 10
225.3462291796
 20
130.7277443128
  0
LWPOLYLINE
  5
38
330
1F
100
AcDbEntity
  8
0
  6
Continuous
 62
     7
370
    15
100
AcDbPolyline
 90
       56
 70
   128
 43
0.0
 10
225.3462291796
 20
130.7277443128
 10
224.4552216966
 20
131.11342548
 10
223.5733188231
 20
131.2527830021
 10
222.7036050994
 20
131.1690515147
 10
221.8491352636
 20
130.8859741555
 10
221.012978955
 20
130.4277876632
 10
220.2084727127
 20
129.8277588801
 10
218.743375643
 20
128.3648504185
 10
217.5504184801
 20
126.855664538
 10
216.6037849624
 20
125.4834221916
 10
215.7632030089
 20
124.1615606712
 10
214.9173013408
 20
122.8077044951
 10
214.0025190551
 20
121.4407800006
 10
212.9684753258
 20
120.0158005821
 10
212.2085235555
 20
119.0391114222
 10
211.4088303883
 20
118.0684535073
 10
210.5686805684
 20
117.1056838946
 10
209.6877164681
 20
116.1530526595
 10
208.871907695
 20
115.3183641152
 10
208.2184023697
 20
114.6802367883
 10
207.7379963834
 20
114.2274389284
 10
207.3578603108
 20
113.8785207884
 10
206.725484832
 20
113.3156704025
 10
205.8962650139
 20
112.6093702631
 10
204.8596508343
 20
111.7740670459
 10
203.6040119369
 20
110.8283238726
 10
202.2400937516
 20
109.8770039396
 10
199.5265028913
 20
108.197706403
 10
196.7874981005
 20
106.761428179
 10
193.6722464401
 20
105.4102355855
 10
190.576515301
 20
104.3386446552
 10
187.4900228817
 20
103.5197699683
 10
184.4269550879
 20
102.9400998967
 10
180.2051059444
 20
102.4253020303
 10
175.7963589866
 20
101.9656682627
 10
171.3701702196
 20
101.5868136899
 10
166.9098205406
 20
101.287557395
 10
162.4127320487
 20
101.0691175478
 10
157.8226565857
 20
100.9321497993
 10
149.8474508066
 20
100.9004475789
 10
148.2723012108
 20
100.9251462536
 10
146.9139001805
 20
100.9546580033
 10
145.8092435736
 20
100.98425916
 10
144.9582084555
 20
101.0104963796
 10
144.298835798
 20
101.0328779237
 10
144.0586439807
 20
101.041479619
 10
143.6594046194
 20
101.0562988238
 10
142.8237214226
 20
101.0894464569
 10
141.641534074
 20
101.1412689703
 10
140.1131853003
 20
101.2168253081
 10
138.2391742904
 20
101.3226570802
 10
136.0202125747
 20
101.4667811112
 10
133.4572687287
 20
101.6586968915
 10
130.5516447414
 20
101.9093195217
 10
127.3050281692
 20
102.2308493273
 10
123.719719379
 20
102.6377478855
  0
LINE
  5
39
330
1F
100
AcDbEntity
  8
0
  6
Continuous
 62
     7
370
    15
100
AcDbLine
 10
108.8962323506
 20
152.127743583
 30
0.0
 11
108.8962323506
 21
159.9473586546
 31
0.0
  0
LINE
  5
3A
330
1F
100
AcDbEntity
  8
0
  6
Continuous
 62
     7
370
    15
100
AcDbLine
 10
92.9962314207
 20
159.9473586546
 30
0.0
 11
92.9962314207
 21
152.127743583
 31
0.0
  0
LINE
  5
3B
330
1F
100
AcDbEntity
  8
0
  6
Continuous
 62
     7
370
    15
100
AcDbLine
 10
108.8962323506
 20
149.7277435854
 30
0.0
 11
108.8962323506
 21
151.0277435889
 31
0.0
  0
LINE
  5
3C
330
1F
100
AcDbEntity
  8
0
  6
Continuous
 62
     7
370
    15
100
AcDbLine
 10
92.9962314207
 20
151.0277435889
 30
0.0
 11
92.9962314207
 21
149.7277435854
 31
0.0
  0
LINE
  5
3D
330
1F
100
AcDbEntity
  8
0
  6
Continuous
 62
     7
370
    15
100
AcDbLine
 10
108.3462318879
 20
151.0277435889
 30
0.0
 11
108.3462318879
 21
152.127743583
 31
0.0
  0
LINE
  5
3E
330
1F
100
AcDbEntity
  8
0
  6
Continuous
 62
     7
370
    15
100
AcDbLine
 10
93.5462318834
 20
152.127743583
 30
0.0
 11
93.5462318834
 21
151.0277435889
 31
0.0
  0
ARC
  5
3F
330
1F
100
AcDbEntity
  8
0
  6
Continuous
 62
     7
370
    15
100
AcDbCircle
 10
108.5962318856
 20
159.9473587802
 30
0.0
 40
0.3000000000000078
100
AcDbArc
 50
0.0
 51
30.0
  0
LINE
  5
40
330
1F
100
AcDbEntity
  8
0
  6
Continuous
 62
     7
370
    15
100
AcDbLine
 10
108.8560392622
 20
160.0973583998
 30
0.0
 11
108.1168089535
 21
161.3777434694
 31
0.0
  0
ARC
  5
41
330
1F
100
AcDbEntity
  8
0
  6
Continuous
 62
     7
370
    15
100
AcDbCircle
 10
107.8570014011
 20
161.2277435379
 30
0.0
 40
0.3000000000000114
100
AcDbArc
 50
30.0
 51
90.0
  0
ARC
  5
42
330
1F
100
AcDbEntity
  8
0
  6
Continuous
 62
     7
370
    15
100
AcDbCircle
 10
94.0354623702
 20
161.2277435379
 30
0.0
 40
0.3000000000000114
100
AcDbArc
 50
90.0
 51
150.0
  0
LINE
  5
43
330
1F
100
AcDbEntity
  8
0
  6
Continuous
 62
     7
370
    15
100
AcDbLine
 10
93.7756548178
 20
161.3777434694
 30
0.0
 11
93.0364245091
 21
160.0973583998
 31
0.0
  0
ARC
  5
44
330
1F
100
AcDbEntity
  8
0
  6
Continuous
 62
     7
370
    15
100
AcDbCircle
 10
93.2962318856
 20
159.9473587802
 30
0.0
 40
0.3000000000000078
100
AcDbArc
 50
150.0
 51
180.0
  0
LINE
  5
45
330
1F
100
AcDbEntity
  8
0
  6
Continuous
 62
     7
370
    15
100
AcDbLine
 10
89.2677811448
 20
115.0825010853
 30
0.0
 11
89.2568036456
 21
114.5116972046
 31
0.0
  0
SPLINE
  5
46
330
1F
100
AcDbEntity
  8
0
  6
Continuous
 62
     7
370
    15
100
AcDbSpline
210
0.0
220
0.0
230
1.0
 70
     8
 71
     3
 72
     8
 73
     4
 74
     0
 42
0.00000001
 43
0.00000001
 40
0.0
 40
0.0
 40
0.0
 40
0.0
 40
1.0
 40
1.0
 40
1.0
 40
1.0
 10
112.6962273486553
 20
116.7277435379055
 30
0.0
 10
112.6962273486553
 20
108.5428017554185
 30
0.0
 10
115.8874114047355
 20
103.5638722119734
 30
0.0
 10
123.7197187172832
 20
102.6377514548764
 30
0.0
  0
SPLINE
  5
47
330
1F
100
AcDbEntity
  8
0
  6
Continuous
 62
     7
370
    15
100
AcDbSpline
210
0.0
220
0.0
230
1.0
 70
     8
 71
     3
 72
    10
 73
     6
 74
     0
 42
0.00000001
 43
0.00000001
 40
0.0
 40
0.0
 40
0.0
 40
0.0
 40
0.4661508905051974
 40
0.9028312427374316
 40
1.0
 40
1.0
 40
1.0
 40
1.0
 10
89.1962360132579
 20
116.7277420179871
 30
0.0
 10
89.22896493159578
 20
115.5788370300553
 30
0.0
 10
89.29235361242489
 20
113.3536620080416
 30
0.0
 10
89.57726236147538
 20
110.8911734166293
 30
0.0
 10
89.90317380031864
 20
109.6150352872889
 30
0.0
 10
89.96249470003883
 20
109.3827584998635
 30
0.0
  0
LINE
  5
48
330
1F
100
AcDbEntity
  8
0
  6
Continuous
 62
     7
370
    15
100
AcDbLine
 10
100.9462318856
 20
149.7277435854
 30
0.0
 11
89.196232288
 21
149.7277435854
 31
0.0
  0
LINE
  5
49
330
1F
100
AcDbEntity
  8
0
  6
Continuous
 62
     7
370
    15
100
AcDbLine
 10
112.6962314833
 20
149.7277435854
 30
0.0
 11
100.9462318856
 21
149.7277435854
 31
0.0
  0
LINE
  5
4A
330
1F
100
AcDbEntity
  8
0
  6
Continuous
 62
     7
370
    15
100
AcDbLine
 10
100.9462318856
 20
152.127743583
 30
0.0
 11
92.9962314207
 21
152.127743583
 31
0.0
  0
LINE
  5
4B
330
1F
100
AcDbEntity
  8
0
  6
Continuous
 62
     7
370
    15
100
AcDbLine
 10
108.8962323506
 20
152.127743583
 30
0.0
 11
100.9462318856
 21
152.127743583
 31
0.0
  0
LINE
  5
4C
330
1F
100
AcDbEntity
  8
0
  6
Continuous
 62
     7
370
    15
100
AcDbLine
 10
97.086180142
 20
153.0277436839
 30
0.0
 11
97.086180142
 21
159.9473586546
 31
0.0
  0
SPLINE
  5
4D
330
1F
100
AcDbEntity
  8
0
  6
Continuous
 62
     7
370
    15
100
AcDbSpline
210
0.0
220
0.0
230
1.0
 70
     8
 71
     3
 72
    12
 73
     8
 74
     0
 42
0.00000001
 43
0.00000001
 40
0.0
 40
0.0
 40
0.0
 40
0.0
 40
0.4999999999999992
 40
0.4999999999999992
 40
0.7499999999999996
 40
0.7499999999999996
 40
1.0
 40
1.0
 40
1.0
 40
1.0
 10
97.47060244623967
 20
152.8277435379055
 30
0.0
 10
97.39317077361048
 20
152.8277435379055
 30
0.0
 10
97.31781687219623
 20
152.8370086676327
 30
0.0
 10
97.20954217465824
 20
152.8764124506936
 30
0.0
 10
97.17358477050634
 20
152.8942572511523
 30
0.0
 10
97.112808365781
 20
152.9461819786391
 30
0.0
 10
97.08618007251246
 20
152.9837898072607
 30
0.0
 10
97.08618007251246
 20
153.0277435379055
 30
0.0
  0
LINE
  5
4E
330
1F
100
AcDbEntity
  8
0
  6
Continuous
 62
     7
370
    15
100
AcDbLine
 10
97.4706023939
 20
152.827743558
 30
0.0
 11
104.4218613774
 21
152.827743558
 31
0.0
  0
SPLINE
  5
4F
330
1F
100
AcDbEntity
  8
0
  6
Continuous
 62
     7
370
    15
100
AcDbSpline
210
0.0
220
0.0
230
1.0
 70
     8
 71
     3
 72
    12
 73
     8
 74
     0
 42
0.00000001
 43
0.00000001
 40
0.0
 40
0.0
 40
0.0
 40
0.0
 40
0.2499999999999994
 40
0.2499999999999994
 40
0.4999999999999989
 40
0.4999999999999989
 40
1.0
 40
1.0
 40
1.0
 40
1.0
 10
104.80628369876
 20
153.0277435379055
 30
0.0
 10
104.80628369876
 20
152.9838753362963
 30
0.0
 10
104.7799005515399
 20
152.9464920324435
 30
0.0
 10
104.7193023976914
 20
152.8945194739385
 30
0.0
 10
104.6842621071901
 20
152.8770080958492
 30
0.0
 10
104.5753090339373
 20
152.837038912872
 30
0.0
 10
104.4992954943392
 20
152.8277435379055
 30
0.0
 10
104.4218613250328
 20
152.8277435379055
 30
0.0
  0
LINE
  5
50
330
1F
100
AcDbEntity
  8
0
  6
Continuous
 62
     7
370
    15
100
AcDbLine
 10
104.8062836293
 20
159.9473586546
 30
0.0
 11
104.8062836293
 21
153.0277436839
 31
0.0
  0
LINE
  5
51
330
1F
100
AcDbEntity
  8
0
  6
Continuous
 62
     7
370
    15
100
AcDbLine
 10
100.9462318856
 20
151.0277435889
 30
0.0
 11
92.9962314207
 21
151.0277435889
 31
0.0
  0
LINE
  5
52
330
1F
100
AcDbEntity
  8
0
  6
Continuous
 62
     7
370
    15
100
AcDbLine
 10
108.8962323506
 20
151.0277435889
 30
0.0
 11
100.9462318856
 21
151.0277435889
 31
0.0
  0
LINE
  5
53
330
1F
100
AcDbEntity
  8
0
  6
Continuous
 62
     7
370
    15
100
AcDbLine
 10
97.086180142
 20
153.0277436839
 30
0.0
 11
104.8062836293
 21
153.0277436839
 31
0.0
  0
SPLINE
  5
54
330
1F
100
AcDbEntity
  8
0
  6
Continuous
 62
     7
370
    15
100
AcDbSpline
210
0.0
220
0.0
230
1.0
 70
     8
 71
     3
 72
    10
 73
     6
 74
     0
 42
0.00000001
 43
0.00000001
 40
0.0
 40
0.0
 40
0.0
 40
0.0
 40
0.5
 40
0.5
 40
1.0
 40
1.0
 40
1.0
 40
1.0
 10
104.80628369876
 20
159.9473587801754
 30
0.0
 10
104.8062836987601
 20
159.9773654089205
 30
0.0
 10
104.796668168362
 20
160.0062936647533
 30
0.0
 10
104.7661716137627
 20
160.0567160138328
 30
0.0
 10
104.7454649096448
 20
160.0786252635238
 30
0.0
 10
104.7228118997986
 20
160.0973587801762
 30
0.0
  0
SPLINE
  5
55
330
1F
100
AcDbEntity
  8
0
  6
Continuous
 62
     7
370
    15
100
AcDbSpline
210
0.0
220
0.0
230
1.0
 70
     8
 71
     3
 72
    10
 73
     6
 74
     0
 42
0.00000001
 43
0.00000001
 40
0.0
 40
0.0
 40
0.0
 40
0.0
 40
0.5
 40
0.5
 40
1.0
 40
1.0
 40
1.0
 40
1.0
 10
102.7110764883831
 20
161.3777435379056
 30
0.0
 10
103.0792227096127
 20
161.2208036516397
 30
0.0
 10
103.4265718126375
 20
161.027407733244
 30
0.0
 10
104.0942985897485
 20
160.5933366883283
 30
0.0
 10
104.4160438977961
 20
160.3510488422448
 30
0.0
 10
104.7228118997989
 20
160.0973587801764
 30
0.0
  0
LINE
  5
56
330
1F
100
AcDbEntity
  8
0
  6
Continuous
 62
     7
370
    15
100
AcDbLine
 10
100.9462318856
 20
161.5277432146
 30
0.0
 11
107.8570016202
 21
161.5277432146
 31
0.0
  0
LINE
  5
57
330
1F
100
AcDbEntity
  8
0
  6
Continuous
 62
     7
370
    15
100
AcDbLine
 10
94.0354621511
 20
161.5277432146
 30
0.0
 11
100.9462318856
 21
161.5277432146
 31
0.0
  0
SPLINE
  5
58
330
1F
100
AcDbEntity
  8
0
  6
Continuous
 62
     7
370
    15
100
AcDbSpline
210
0.0
220
0.0
230
1.0
 70
     8
 71
     3
 72
    24
 73
    20
 74
     0
 42
0.00000001
 43
0.00000001
 40
0.0
 40
0.0
 40
0.0
 40
0.0
 40
0.0624999999999999
 40
0.0624999999999999
 40
0.1249999999999998
 40
0.1249999999999998
 40
0.2499999999999998
 40
0.2499999999999998
 40
0.4999999999999998
 40
0.4999999999999998
 40
0.6249999999999998
 40
0.6249999999999998
 40
0.7499999999999998
 40
0.7499999999999998
 40
0.875
 40
0.875
 40
0.9375
 40
0.9375
 40
1.0
 40
1.0
 40
1.0
 40
1.0
 10
102.7110764883833
 20
161.3777435379058
 30
0.0
 10
102.6427613036872
 20
161.4068661438112
 30
0.0
 10
102.571099956887
 20
161.4259141683627
 30
0.0
 10
102.4274422237468
 20
161.456806117069
 30
0.0
 10
102.354772904214
 20
161.4681932057482
 30
0.0
 10
102.1354032856773
 20
161.4957784678178
 30
0.0
 10
101.9880279525757
 20
161.5053848920527
 30
0.0
 10
101.546710312349
 20
161.5245452399333
 30
0.0
 10
101.2521161049171
 20
161.525103165732
 30
0.0
 10
100.8102015535827
 20
161.525197746261
 30
0.0
 10
100.6592917309745
 20
161.5247162192684
 30
0.0
 10
100.3609555595338
 20
161.5213692334011
 30
0.0
 10
100.2117598703368
 20
161.5185343023285
 30
0.0
 10
99.91398863215957
 20
161.505978841315
 30
0.0
 10
99.76535634890024
 20
161.4965271008259
 30
0.0
 10
99.5434688447851
 20
161.4690573587111
 30
0.0
 10
99.46954418611548
 20
161.4576481725032
 30
0.0
 10
99.32298488404233
 20
161.4263878793816
 30
0.0
 10
99.25044546985697
 20
161.4071828839681
 30
0.0
 10
99.18138728288936
 20
161.3777435379055
 30
0.0
  0
SPLINE
  5
59
330
1F
100
AcDbEntity
  8
0
  6
Continuous
 62
     7
370
    15
100
AcDbSpline
210
0.0
220
0.0
230
1.0
 70
     8
 71
     3
 72
    10
 73
     6
 74
     0
 42
0.00000001
 43
0.00000001
 40
0.0
 40
0.0
 40
0.0
 40
0.0
 40
0.5
 40
0.5
 40
1.0
 40
1.0
 40
1.0
 40
1.0
 10
97.16965187147332
 20
160.0973587801769
 30
0.0
 10
97.14711868173262
 20
160.0787243519883
 30
0.0
 10
97.12634896595489
 20
160.0568203294445
 30
0.0
 10
97.09570069345008
 20
160.0061263408186
 30
0.0
 10
97.08618007251245
 20
159.9769207604299
 30
0.0
 10
97.08618007251243
 20
159.9473587801763
 30
0.0
  0
SPLINE
  5
5A
330
1F
100
AcDbEntity
  8
0
  6
Continuous
 62
     7
370
    15
100
AcDbSpline
210
0.0
220
0.0
230
1.0
 70
     8
 71
     3
 72
    10
 73
     6
 74
     0
 42
0.00000001
 43
0.00000001
 40
0.0
 40
0.0
 40
0.0
 40
0.0
 40
0.5
 40
0.5
 40
1.0
 40
1.0
 40
1.0
 40
1.0
 10
97.16965187147386
 20
160.0973587801762
 30
0.0
 10
97.47509838297569
 20
160.3499560000803
 30
0.0
 10
97.79268184382117
 20
160.5895776808078
 30
0.0
 10
98.4655749353924
 20
161.0273944146346
 30
0.0
 10
98.81430998677966
 20
161.2212593319565
 30
0.0
 10
99.18138728288936
 20
161.3777435379055
 30
0.0
  0
LINE
  5
5B
330
1F
100
AcDbEntity
  8
0
  6
Continuous
 62
     7
370
    15
100
AcDbLine
 10
97.086180142
 20
159.9473586546
 30
0.0
 11
92.9962314207
 21
159.9473586546
 31
0.0
  0
LINE
  5
5C
330
1F
100
AcDbEntity
  8
0
  6
Continuous
 62
     7
370
    15
100
AcDbLine
 10
108.8962323506
 20
159.9473586546
 30
0.0
 11
104.8062836293
 21
159.9473586546
 31
0.0
  0
LINE
  5
5D
330
1F
100
AcDbEntity
  8
0
  6
Continuous
 62
     7
370
    15
100
AcDbLine
 10
104.7228119809
 20
160.0973583998
 30
0.0
 11
108.8560392622
 21
160.0973583998
 31
0.0
  0
LINE
  5
5E
330
1F
100
AcDbEntity
  8
0
  6
Continuous
 62
     7
370
    15
100
AcDbLine
 10
108.1168089535
 20
161.3777434694
 30
0.0
 11
102.711076523
 21
161.3777434694
 31
0.0
  0
LINE
  5
5F
330
1F
100
AcDbEntity
  8
0
  6
Continuous
 62
     7
370
    15
100
AcDbLine
 10
99.1813872483
 20
161.3777434694
 30
0.0
 11
93.7756548178
 21
161.3777434694
 31
0.0
  0
LINE
  5
60
330
1F
100
AcDbEntity
  8
0
  6
Continuous
 62
     7
370
    15
100
AcDbLine
 10
93.0364245091
 20
160.0973583998
 30
0.0
 11
97.1696517903
 21
160.0973583998
 31
0.0
  0
LINE
  5
61
330
1F
100
AcDbEntity
  8
0
  6
HIDDEN
 62
     7
370
     0
100
AcDbLine
 10
104.8062836293
 20
153.0277436839
 30
0.0
 11
97.086180142
 21
153.0277436839
 31
0.0
  0
LINE
  5
62
330
1F
100
AcDbEntity
  8
0
  6
HIDDEN
 62
     7
370
     0
100
AcDbLine
 10
89.2994218979
 20
116.727742018
 30
0.0
 11
89.2677811448
 21
115.0825010853
 31
0.0
  0
LINE
  5
63
330
1F
100
AcDbEntity
  8
0
  6
HIDDEN
 62
     7
370
     0
100
AcDbLine
 10
92.9962314207
 20
159.9473586546
 30
0.0
 11
97.086180142
 21
159.9473586546
 31
0.0
  0
LINE
  5
64
330
1F
100
AcDbEntity
  8
0
  6
HIDDEN
 62
     7
370
     0
100
AcDbLine
 10
104.8062836293
 20
159.9473586546
 30
0.0
 11
108.8962323506
 21
159.9473586546
 31
0.0
  0
LINE
  5
65
330
1F
100
AcDbEntity
  8
0
  6
HIDDEN
 62
     7
370
     0
100
AcDbLine
 10
108.8560392622
 20
160.0973583998
 30
0.0
 11
104.7228119809
 21
160.0973583998
 31
0.0
  0
LINE
  5
66
330
1F
100
AcDbEntity
  8
0
  6
HIDDEN
 62
     7
370
     0
100
AcDbLine
 10
102.711076523
 20
161.3777434694
 30
0.0
 11
108.1168089535
 21
161.3777434694
 31
0.0
  0
LINE
  5
67
330
1F
100
AcDbEntity
  8
0
  6
HIDDEN
 62
     7
370
     0
100
AcDbLine
 10
93.7756548178
 20
161.3777434694
 30
0.0
 11
99.1813872483
 21
161.3777434694
 31
0.0
  0
LINE
  5
68
330
1F
100
AcDbEntity
  8
0
  6
HIDDEN
 62
     7
370
     0
100
AcDbLine
 10
97.1696517903
 20
160.0973583998
 30
0.0
 11
93.0364245091
 21
160.0973583998
 31
0.0
  0
DIMENSION
  5
69
330
1F
100
AcDbEntity
  8
0
  6
Continuous
 62
     7
370
     0
100
AcDbDimension
  2
*D1
 10
89.1962318856
 20
76.7163462316
 30
0.0
 11
155.2221360121
 21
76.7163462316
 31
0.0
 70
   160
 71
     1
 42
-1.0
  3
SLDDIMSTYLE0
100
AcDbAlignedDimension
 13
227.1962318856
 23
125.4332249202
 33
0.0
 14
89.1962318856
 24
145.9489876548
 34
0.0
100
AcDbRotatedDimension
  0
DIMENSION
  5
75
330
1F
100
AcDbEntity
  8
0
  6
Continuous
 62
     7
370
     0
100
AcDbDimension
  2
*D2
 10
79.1462364226
 20
149.7277435379
 30
0.0
 11
79.1462364226
 21
118.424356144
 31
0.0
 70
   160
 71
     1
 42
-1.0
  3
SLDDIMSTYLE0
100
AcDbAlignedDimension
 13
137.1560501232
 23
86.7277435379
 33
0.0
 14
89.1962318856
 24
149.7277435379
 34
0.0
 50
90.0
100
AcDbRotatedDimension
  0
DIMENSION
  5
7F
330
1F
100
AcDbEntity
  8
0
  6
Continuous
 62
     7
370
     0
100
AcDbDimension
  2
*D3
 10
239.0087806654
 20
86.7277435379
 30
0.0
 11
239.0087806654
 21
106.9965972378
 31
0.0
 70
   160
 71
     1
 42
-1.0
  3
SLDDIMSTYLE0
100
AcDbAlignedDimension
 13
225.1128047528
 23
131.2277435379
 33
0.0
 14
144.8555050759
 24
86.7277435379
 34
0.0
 50
90.0
100
AcDbRotatedDimension
  0
DIMENSION
  5
89
330
1F
100
AcDbEntity
  8
0
  6
Continuous
 62
     7
370
     0
100
AcDbDimension
  2
*D4
 10
112.6962318856
 20
169.5319225886
 30
0.0
 11
99.74105783
 21
169.5319225886
 31
0.0
 70
   160
  1
%%c<>
 71
     1
 42
-1.0
  3
SLDDIMSTYLE0
100
AcDbAlignedDimension
 13
89.1962318856
 23
149.7277435379
 33
0.0
 14
112.6962318856
 24
149.7277435379
 34
0.0
100
AcDbRotatedDimension
  0
INSERT
  5
9B
330
1F
100
AcDbEntity
  8
0
  6
Continuous
 62
     7
370
     0
100
AcDbBlockReference
  2
SW_NOTE_0
 10
233.0489919769
 20
25.8680373338
 30
0.0
  0
LINE
  5
9C
330
1F
100
AcDbEntity
  8
0
  6
CENTERX2
 62
     7
370
     0
100
AcDbLine
 10
100.9462318856
 20
114.7277435379
 30
0.0
 11
100.9462318856
 21
149.7277435379
 31
0.0
  0
LINE
  5
9D
330
1F
100
AcDbEntity
  8
0
  6
CENTERX2
 62
     7
370
     0
100
AcDbLine
 10
100.9462318856
 20
149.7277435379
 30
0.0
 11
100.9462318856
 21
163.5277435379
 31
0.0
  0
ENDSEC
  0
SECTION
  2
OBJECTS
  0
DICTIONARY
  5
C
330
0
100
AcDbDictionary
281
     1
  3
ACAD_GROUP
350
D
  3
ACAD_LAYOUT
350
1A
  3
ACAD_MLINESTYLE
350
17
  3
ACAD_PLOTSETTINGS
350
19
  3
ACAD_PLOTSTYLENAME
350
E
  0
DICTIONARY
  5
D
102
{ACAD_REACTORS
330
C
102
}
330
C
100
AcDbDictionary
281
     1
  0
DICTIONARY
  5
1A
102
{ACAD_REACTORS
330
C
102
}
330
C
100
AcDbDictionary
281
     1
  3
Layout1
350
1E
  3
Layout2
350
26
  3
Model
350
22
  0
DICTIONARY
  5
17
102
{ACAD_REACTORS
330
C
102
}
330
C
100
AcDbDictionary
281
     1
  3
Standard
350
18
  0
DICTIONARY
  5
19
102
{ACAD_REACTORS
330
C
102
}
330
C
100
AcDbDictionary
281
     1
  0
ACDBDICTIONARYWDFLT
  5
E
102
{ACAD_REACTORS
330
C
102
}
330
C
100
AcDbDictionary
281
     1
  3
Normal
350
F
100
AcDbDictionaryWithDefault
340
F
  0
LAYOUT
  5
1E
102
{ACAD_REACTORS
330
1A
102
}
330
1A
100
AcDbPlotSettings
  1

  2
none_device
  4

  6

 40
0.0
 41
0.0
 42
0.0
 43
0.0
 44
0.0
 45
0.0
 46
0.0
 47
0.0
 48
0.0
 49
0.0
140
0.0
141
0.0
142
1.0
143
1.0
 70
   688
 72
     0
 73
     0
 74
     5
  7

 75
    16
147
1.0
148
0.0
149
0.0
100
AcDbLayout
  1
Layout1
 70
     1
 71
     1
 10
0.0
 20
0.0
 11
420.0
 21
297.0
 12
0.0
 22
0.0
 32
0.0
 14
1.0000000000E+20
 24
1.0000000000E+20
 34
1.0000000000E+20
 15
-1.0000000000E+20
 25
-1.0000000000E+20
 35
-1.0000000000E+20
146
0.0
 13
0.0
 23
0.0
 33
0.0
 16
1.0
 26
0.0
 36
0.0
 17
0.0
 27
1.0
 37
0.0
 76
     0
330
1B
  0
LAYOUT
  5
26
102
{ACAD_REACTORS
330
1A
102
}
330
1A
100
AcDbPlotSettings
  1

  2
none_device
  4

  6

 40
0.0
 41
0.0
 42
0.0
 43
0.0
 44
0.0
 45
0.0
 46
0.0
 47
0.0
 48
0.0
 49
0.0
140
0.0
141
0.0
142
1.0
143
1.0
 70
   688
 72
     0
 73
     0
 74
     5
  7

 75
    16
147
1.0
148
0.0
149
0.0
100
AcDbLayout
  1
Layout2
 70
     1
 71
     2
 10
0.0
 20
0.0
 11
0.0
 21
0.0
 12
0.0
 22
0.0
 32
0.0
 14
0.0
 24
0.0
 34
0.0
 15
0.0
 25
0.0
 35
0.0
146
0.0
 13
0.0
 23
0.0
 33
0.0
 16
1.0
 26
0.0
 36
0.0
 17
0.0
 27
1.0
 37
0.0
 76
     0
330
23
  0
LAYOUT
  5
22
102
{ACAD_REACTORS
330
1A
102
}
330
1A
100
AcDbPlotSettings
  1

  2
none_device
  4

  6

 40
0.0
 41
0.0
 42
0.0
 43
0.0
 44
0.0
 45
0.0
 46
0.0
 47
0.0
 48
0.0
 49
0.0
140
0.0
141
0.0
142
1.0
143
1.0
 70
  1712
 72
     0
 73
     0
 74
     0
  7

 75
     0
147
1.0
148
0.0
149
0.0
100
AcDbLayout
  1
Model
 70
     1
 71
     0
 10
0.0
 20
0.0
 11
0.0
 21
0.0
 12
0.0
 22
0.0
 32
0.0
 14
0.0
 24
0.0
 34
0.0
 15
297.0
 25
210.0
 35
0.0
146
0.0
 13
0.0
 23
0.0
 33
0.0
 16
1.0
 26
0.0
 36
0.0
 17
0.0
 27
1.0
 37
0.0
 76
     0
330
1F
  0
MLINESTYLE
  5
18
102
{ACAD_REACTORS
330
17
102
}
330
17
100
AcDbMlineStyle
  2
Standard
 70
     0
  3

 62
   256
 51
90.0
 52
90.0
 71
     2
 49
0.5
 62
   256
  6
BYLAYER
 49
-0.5
 62
   256
  6
BYLAYER
  0
ACDBPLACEHOLDER
  5
F
102
{ACAD_REACTORS
330
E
102
}
330
E
  0
ENDSEC
  0
EOF
