  0
SECTION
  2
HEADER
  9
$ACADVER
  1
AC1015
  9
$ACADMAINTVER
 70
     6
  9
$DWGCODEPAGE
  3
ANSI_1252
  9
$INSBASE
 10
0.0
 20
0.0
 30
0.0
  9
$EXTMIN
 10
1.000000000000E+20
 20
1.000000000000E+20
 30
1.000000000000E+20
  9
$EXTMAX
 10
-1.000000000000E+20
 20
-1.000000000000E+20
 30
-1.000000000000E+20
  9
$LIMMIN
 10
0.0
 20
0.0
  9
$LIMMAX
 10
12.0
 20
9.0
  9
$ORTHOMODE
 70
     0
  9
$REGENMODE
 70
     1
  9
$FILLMODE
 70
     1
  9
$QTEXTMODE
 70
     0
  9
$MIRRTEXT
 70
     1
  9
$LTSCALE
 40
1.0
  9
$ATTMODE
 70
     1
  9
$TEXTSIZE
 40
0.2
  9
$TRACEWID
 40
0.05
  9
$TEXTSTYLE
  7
Standard
  9
$CLAYER
  8
0
  9
$CELTYPE
  6
ByLayer
  9
$CECOLOR
 62
   256
  9
$CELTSCALE
 40
1.0
  9
$DISPSILH
 70
     0
  9
$DIMSCALE
 40
1.0
  9
$DIMASZ
 40
0.18
  9
$DIMEXO
 40
0.0625
  9
$DIMDLI
 40
0.38
  9
$DIMRND
 40
0.0
  9
$DIMDLE
 40
0.0
  9
$DIMEXE
 40
0.18
  9
$DIMTP
 40
0.0
  9
$DIMTM
 40
0.0
  9
$DIMTXT
 40
0.18
  9
$DIMCEN
 40
0.09
  9
$DIMTSZ
 40
0.0
  9
$DIMTOL
 70
     0
  9
$DIMLIM
 70
     0
  9
$DIMTIH
 70
     1
  9
$DIMTOH
 70
     1
  9
$DIMSE1
 70
     0
  9
$DIMSE2
 70
     0
  9
$DIMTAD
 70
     0
  9
$DIMZIN
 70
     0
  9
$DIMBLK
  1

  9
$DIMASO
 70
     1
  9
$DIMSHO
 70
     1
  9
$DIMPOST
  1

  9
$DIMAPOST
  1

  9
$DIMALT
 70
     0
  9
$DIMALTD
 70
     2
  9
$DIMALTF
 40
25.4
  9
$DIMLFAC
 40
1.0
  9
$DIMTOFL
 70
     0
  9
$DIMTVP
 40
0.0
  9
$DIMTIX
 70
     0
  9
$DIMSOXD
 70
     0
  9
$DIMSAH
 70
     0
  9
$DIMBLK1
  1

  9
$DIMBLK2
  1

  9
$DIMSTYLE
  2
Standard
  9
$DIMCLRD
 70
     0
  9
$DIMCLRE
 70
     0
  9
$DIMCLRT
 70
     0
  9
$DIMTFAC
 40
1.0
  9
$DIMGAP
 40
0.09
  9
$DIMJUST
 70
     0
  9
$DIMSD1
 70
     0
  9
$DIMSD2
 70
     0
  9
$DIMTOLJ
 70
     1
  9
$DIMTZIN
 70
     0
  9
$DIMALTZ
 70
     0
  9
$DIMALTTZ
 70
     0
  9
$DIMUPT
 70
     0
  9
$DIMDEC
 70
     4
  9
$DIMTDEC
 70
     4
  9
$DIMALTU
 70
     2
  9
$DIMALTTD
 70
     2
  9
$DIMTXSTY
  7
Standard
  9
$DIMAUNIT
 70
     0
  9
$DIMADEC
 70
     0
  9
$DIMALTRND
 40
0.0
  9
$DIMAZIN
 70
     0
  9
$DIMDSEP
 70
    46
  9
$DIMATFIT
 70
     3
  9
$DIMFRAC
 70
     0
  9
$DIMLDRBLK
  1

  9
$DIMLUNIT
 70
     2
  9
$DIMLWD
 70
    -2
  9
$DIMLWE
 70
    -2
  9
$DIMTMOVE
 70
     0
  9
$LUNITS
 70
     2
  9
$LUPREC
 70
     4
  9
$SKETCHINC
 40
0.1
  9
$FILLETRAD
 40
0.5
  9
$AUNITS
 70
     0
  9
$AUPREC
 70
     0
  9
$MENU
  1
.
  9
$ELEVATION
 40
0.0
  9
$PELEVATION
 40
0.0
  9
$THICKNESS
 40
0.0
  9
$LIMCHECK
 70
     0
  9
$CHAMFERA
 40
0.5
  9
$CHAMFERB
 40
0.5
  9
$CHAMFERC
 40
1.0
  9
$CHAMFERD
 40
0.0
  9
$SKPOLY
 70
     0
  9
$TDCREATE
 40
2455415.581515417
  9
$TDUCREATE
 40
2455415.53984875
  9
$TDUPDATE
 40
2455415.623182095
  9
$TDUUPDATE
 40
2455415.539848762
  9
$TDINDWG
 40
0.0000000116
  9
$TDUSRTIMER
 40
0.0000000116
  9
$USRTIMER
 70
     1
  9
$ANGBASE
 50
0.0
  9
$ANGDIR
 70
     0
  9
$PDMODE
 70
     2
  9
$PDSIZE
 40
1.0
  9
$PLINEWID
 40
0.0
  9
$SPLFRAME
 70
     0
  9
$SPLINETYPE
 70
     6
  9
$SPLINESEGS
 70
     8
  9
$HANDSEED
  5
1D9
  9
$SURFTAB1
 70
     6
  9
$SURFTAB2
 70
     6
  9
$SURFTYPE
 70
     6
  9
$SURFU
 70
     6
  9
$SURFV
 70
     6
  9
$UCSBASE
  2

  9
$UCSNAME
  2

  9
$UCSORG
 10
0.0
 20
0.0
 30
0.0
  9
$UCSXDIR
 10
1.0
 20
0.0
 30
0.0
  9
$UCSYDIR
 10
0.0
 20
1.0
 30
0.0
  9
$UCSORTHOREF
  2

  9
$UCSORTHOVIEW
 70
     0
  9
$UCSORGTOP
 10
0.0
 20
0.0
 30
0.0
  9
$UCSORGBOTTOM
 10
0.0
 20
0.0
 30
0.0
  9
$UCSORGLEFT
 10
0.0
 20
0.0
 30
0.0
  9
$UCSORGRIGHT
 10
0.0
 20
0.0
 30
0.0
  9
$UCSORGFRONT
 10
0.0
 20
0.0
 30
0.0
  9
$UCSORGBACK
 10
0.0
 20
0.0
 30
0.0
  9
$PUCSBASE
  2

  9
$PUCSNAME
  2

  9
$PUCSORG
 10
0.0
 20
0.0
 30
0.0
  9
$PUCSXDIR
 10
1.0
 20
0.0
 30
0.0
  9
$PUCSYDIR
 10
0.0
 20
1.0
 30
0.0
  9
$PUCSORTHOREF
  2

  9
$PUCSORTHOVIEW
 70
     0
  9
$PUCSORGTOP
 10
0.0
 20
0.0
 30
0.0
  9
$PUCSORGBOTTOM
 10
0.0
 20
0.0
 30
0.0
  9
$PUCSORGLEFT
 10
0.0
 20
0.0
 30
0.0
  9
$PUCSORGRIGHT
 10
0.0
 20
0.0
 30
0.0
  9
$PUCSORGFRONT
 10
0.0
 20
0.0
 30
0.0
  9
$PUCSORGBACK
 10
0.0
 20
0.0
 30
0.0
  9
$USERI1
 70
     0
  9
$USERI2
 70
     0
  9
$USERI3
 70
     0
  9
$USERI4
 70
     0
  9
$USERI5
 70
     0
  9
$USERR1
 40
0.0
  9
$USERR2
 40
0.0
  9
$USERR3
 40
0.0
  9
$USERR4
 40
0.0
  9
$USERR5
 40
0.0
  9
$WORLDVIEW
 70
     1
  9
$SHADEDGE
 70
     3
  9
$SHADEDIF
 70
    70
  9
$TILEMODE
 70
     1
  9
$MAXACTVP
 70
    64
  9
$PINSBASE
 10
0.0
 20
0.0
 30
0.0
  9
$PLIMCHECK
 70
     0
  9
$PEXTMIN
 10
1.000000000000E+20
 20
1.000000000000E+20
 30
1.000000000000E+20
  9
$PEXTMAX
 10
-1.000000000000E+20
 20
-1.000000000000E+20
 30
-1.000000000000E+20
  9
$PLIMMIN
 10
0.0
 20
0.0
  9
$PLIMMAX
 10
12.0
 20
9.0
  9
$UNITMODE
 70
     0
  9
$VISRETAIN
 70
     1
  9
$PLINEGEN
 70
     0
  9
$PSLTSCALE
 70
     1
  9
$TREEDEPTH
 70
  3020
  9
$CMLSTYLE
  2
Standard
  9
$CMLJUST
 70
     0
  9
$CMLSCALE
 40
1.0
  9
$PROXYGRAPHICS
 70
     1
  9
$MEASUREMENT
 70
     1
  9
$CELWEIGHT
370
    -1
  9
$ENDCAPS
280
     0
  9
$JOINSTYLE
280
     0
  9
$LWDISPLAY
290
     0
  9
$INSUNITS
 70
     1
  9
$HYPERLINKBASE
  1

  9
$STYLESHEET
  1

  9
$XEDIT
290
     1
  9
$CEPSNTYPE
380
     0
  9
$PSTYLEMODE
290
     0
  9
$FINGERPRINTGUID
  2
{FAEB1C30-E019-11D5-929B-00C0DF256EC4}
  9
$VERSIONGUID
  2
{FAEB1C32-E019-11D5-929B-00C0DF256EC4}
  9
$EXTNAMES
290
     1
  9
$PSVPSCALE
 40
0.0
  9
$OLESTARTUP
290
     0
  0
ENDSEC
  0
SECTION
  2
CLASSES
  0
CLASS
  1
ACDBDICTIONARYWDFLT
  2
AcDbDictionaryWithDefault
  3
AutoCAD 2000
 90
        0
280
     0
281
     0
  0
CLASS
  1
ACDBPLACEHOLDER
  2
AcDbPlaceHolder
  3
ObjectDBX Classes
 90
        0
280
     0
281
     0
  0
CLASS
  1
LAYOUT
  2
AcDbLayout
  3
ObjectDBX Classes
 90
        0
280
     0
281
     0
  0
ENDSEC
  0
SECTION
  2
TABLES
  0
TABLE
  2
VPORT
  5
8
330
0
100
AcDbSymbolTable
 70
     2
  0
VPORT
  5
29
330
8
100
AcDbSymbolTableRecord
100
AcDbViewportTableRecord
  2
*Active
 70
     0
 10
0.0
 20
0.0
 11
1.0
 21
1.0
 12
-739.855892187535
 22
936.186292656024
 13
0.0
 23
0.0
 14
0.5
 24
0.5
 15
0.5
 25
0.5
 16
0.0
 26
0.0
 36
1.0
 17
0.0
 27
0.0
 37
0.0
 40
1584.084218200597
 41
1.460644471186
 42
50.0
 43
0.0
 44
0.0
 50
0.0
 51
0.0
 71
     0
 72
   100
 73
     1
 74
     3
 75
     0
 76
     0
 77
     0
 78
     0
281
     0
 65
     1
110
0.0
120
0.0
130
0.0
111
1.0
121
0.0
131
0.0
112
0.0
122
1.0
132
0.0
 79
     0
146
0.0
  0
ENDTAB
  0
TABLE
  2
LTYPE
  5
5
330
0
100
AcDbSymbolTable
 70
     3
  0
LTYPE
  5
14
330
5
100
AcDbSymbolTableRecord
100
AcDbLinetypeTableRecord
  2
ByBlock
 70
     0
  3

 72
    65
 73
     0
 40
0.0
  0
LTYPE
  5
15
330
5
100
AcDbSymbolTableRecord
100
AcDbLinetypeTableRecord
  2
ByLayer
 70
     0
  3

 72
    65
 73
     0
 40
0.0
  0
LTYPE
  5
16
330
5
100
AcDbSymbolTableRecord
100
AcDbLinetypeTableRecord
  2
Continuous
 70
     0
  3
Solid line
 72
    65
 73
     0
 40
0.0
  0
LTYPE
  5
2A
330
5
100
AcDbSymbolTableRecord
100
AcDbLinetypeTableRecord
  2
AUSGEZOGEN
 70
     0
  3

 72
    65
 73
     0
 40
0.0
  0
LTYPE
  5
2B
330
5
100
AcDbSymbolTableRecord
100
AcDbLinetypeTableRecord
  2
MegaCAD_LTYPE4
 70
     0
  3

 72
    65
 73
     4
 40
4.0
 49
2.25
 74
     0
 49
-0.75
 74
     0
 49
0.25
 74
     0
 49
-0.75
 74
     0
  0
ENDTAB
  0
TABLE
  2
LAYER
  5
2
330
0
100
AcDbSymbolTable
 70
   256
  0
LAYER
  5
10
330
2
100
AcDbSymbolTableRecord
100
AcDbLayerTableRecord
  2
0
 70
     0
 62
     7
  6
Continuous
370
    -3
390
F
  0
LAYER
  5
2E
330
2
100
AcDbSymbolTableRecord
100
AcDbLayerTableRecord
  2
Defpoints
 70
     0
 62
     7
  6
Continuous
290
     0
370
    -3
390
0
  0
LAYER
  5
2F
330
2
100
AcDbSymbolTableRecord
100
AcDbLayerTableRecord
  2
AM_0
 70
     0
 62
     7
  6
Continuous
370
    -3
390
0
  0
LAYER
  5
30
330
2
100
AcDbSymbolTableRecord
100
AcDbLayerTableRecord
  2
AM_6
 70
     0
 62
     7
  6
Continuous
370
    -3
390
0
  0
LAYER
  5
31
330
2
100
AcDbSymbolTableRecord
100
AcDbLayerTableRecord
  2
AM_5
 70
     0
 62
     7
  6
Continuous
370
    -3
390
0
  0
LAYER
  5
32
330
2
100
AcDbSymbolTableRecord
100
AcDbLayerTableRecord
  2
AM_VIS
 70
     0
 62
     7
  6
Continuous
370
    -3
390
0
  0
LAYER
  5
33
330
2
100
AcDbSymbolTableRecord
100
AcDbLayerTableRecord
  2
AM_HID
 70
     0
 62
     7
  6
Continuous
370
    -3
390
0
  0
LAYER
  5
34
330
2
100
AcDbSymbolTableRecord
100
AcDbLayerTableRecord
  2
AM_7
 70
     0
 62
     7
  6
Continuous
370
    -3
390
0
  0
LAYER
  5
35
330
2
100
AcDbSymbolTableRecord
100
AcDbLayerTableRecord
  2
AM_10
 70
     0
 62
     7
  6
Continuous
370
    -3
390
0
  0
LAYER
  5
36
330
2
100
AcDbSymbolTableRecord
100
AcDbLayerTableRecord
  2
AM_REFDIM
 70
     0
 62
     7
  6
Continuous
370
    -3
390
0
  0
LAYER
  5
37
330
2
100
AcDbSymbolTableRecord
100
AcDbLayerTableRecord
  2
AM_4
 70
     0
 62
     7
  6
Continuous
370
    -3
390
0
  0
LAYER
  5
38
330
2
100
AcDbSymbolTableRecord
100
AcDbLayerTableRecord
  2
AM_BOR
 70
     0
 62
     7
  6
Continuous
370
    -3
390
0
  0
LAYER
  5
39
330
2
100
AcDbSymbolTableRecord
100
AcDbLayerTableRecord
  2
SCHRIFTKOPF-4
 70
     0
 62
     7
  6
Continuous
370
    -3
390
0
  0
LAYER
  5
3A
330
2
100
AcDbSymbolTableRecord
100
AcDbLayerTableRecord
  2
SCHRIFTKOPF-6
 70
     0
 62
     7
  6
Continuous
370
    -3
390
0
  0
LAYER
  5
3B
330
2
100
AcDbSymbolTableRecord
100
AcDbLayerTableRecord
  2
SCHRIFTKOPF-8
 70
     0
 62
     7
  6
Continuous
370
    -3
390
0
  0
LAYER
  5
3C
330
2
100
AcDbSymbolTableRecord
100
AcDbLayerTableRecord
  2
AMV_21_HATCH
 70
     0
 62
     7
  6
Continuous
370
    -3
390
0
  0
LAYER
  5
3D
330
2
100
AcDbSymbolTableRecord
100
AcDbLayerTableRecord
  2
AMV_22_HATCH
 70
     0
 62
     7
  6
Continuous
370
    -3
390
0
  0
LAYER
  5
3E
330
2
100
AcDbSymbolTableRecord
100
AcDbLayerTableRecord
  2
AMV_23_HATCH
 70
     0
 62
     7
  6
Continuous
370
    -3
390
0
  0
LAYER
  5
3F
330
2
100
AcDbSymbolTableRecord
100
AcDbLayerTableRecord
  2
AMV_24_HATCH
 70
     0
 62
     7
  6
Continuous
370
    -3
390
0
  0
LAYER
  5
40
330
2
100
AcDbSymbolTableRecord
100
AcDbLayerTableRecord
  2
Layer19
 70
     0
 62
     7
  6
Continuous
370
    -3
390
0
  0
LAYER
  5
41
330
2
100
AcDbSymbolTableRecord
100
AcDbLayerTableRecord
  2
Layer20
 70
     0
 62
     7
  6
Continuous
370
    -3
390
0
  0
LAYER
  5
42
330
2
100
AcDbSymbolTableRecord
100
AcDbLayerTableRecord
  2
Layer21
 70
     0
 62
     7
  6
Continuous
370
    -3
390
0
  0
LAYER
  5
43
330
2
100
AcDbSymbolTableRecord
100
AcDbLayerTableRecord
  2
Layer22
 70
     0
 62
     7
  6
Continuous
370
    -3
390
0
  0
LAYER
  5
44
330
2
100
AcDbSymbolTableRecord
100
AcDbLayerTableRecord
  2
Layer23
 70
     0
 62
     7
  6
Continuous
370
    -3
390
0
  0
LAYER
  5
45
330
2
100
AcDbSymbolTableRecord
100
AcDbLayerTableRecord
  2
Layer24
 70
     0
 62
     7
  6
Continuous
370
    -3
390
0
  0
LAYER
  5
46
330
2
100
AcDbSymbolTableRecord
100
AcDbLayerTableRecord
  2
Layer25
 70
     0
 62
     7
  6
Continuous
370
    -3
390
0
  0
LAYER
  5
47
330
2
100
AcDbSymbolTableRecord
100
AcDbLayerTableRecord
  2
Layer26
 70
     0
 62
     7
  6
Continuous
370
    -3
390
0
  0
LAYER
  5
48
330
2
100
AcDbSymbolTableRecord
100
AcDbLayerTableRecord
  2
Layer27
 70
     0
 62
     7
  6
Continuous
370
    -3
390
0
  0
LAYER
  5
49
330
2
100
AcDbSymbolTableRecord
100
AcDbLayerTableRecord
  2
Layer28
 70
     0
 62
     7
  6
Continuous
370
    -3
390
0
  0
LAYER
  5
4A
330
2
100
AcDbSymbolTableRecord
100
AcDbLayerTableRecord
  2
Layer29
 70
     0
 62
     7
  6
Continuous
370
    -3
390
0
  0
LAYER
  5
4B
330
2
100
AcDbSymbolTableRecord
100
AcDbLayerTableRecord
  2
Layer30
 70
     0
 62
     7
  6
Continuous
370
    -3
390
0
  0
LAYER
  5
4C
330
2
100
AcDbSymbolTableRecord
100
AcDbLayerTableRecord
  2
Layer31
 70
     0
 62
     7
  6
Continuous
370
    -3
390
0
  0
LAYER
  5
4D
330
2
100
AcDbSymbolTableRecord
100
AcDbLayerTableRecord
  2
Layer32
 70
     0
 62
     7
  6
Continuous
370
    -3
390
0
  0
LAYER
  5
4E
330
2
100
AcDbSymbolTableRecord
100
AcDbLayerTableRecord
  2
Layer33
 70
     0
 62
     7
  6
Continuous
370
    -3
390
0
  0
LAYER
  5
4F
330
2
100
AcDbSymbolTableRecord
100
AcDbLayerTableRecord
  2
Layer34
 70
     0
 62
     7
  6
Continuous
370
    -3
390
0
  0
LAYER
  5
50
330
2
100
AcDbSymbolTableRecord
100
AcDbLayerTableRecord
  2
Layer35
 70
     0
 62
     7
  6
Continuous
370
    -3
390
0
  0
LAYER
  5
51
330
2
100
AcDbSymbolTableRecord
100
AcDbLayerTableRecord
  2
Layer36
 70
     0
 62
     7
  6
Continuous
370
    -3
390
0
  0
LAYER
  5
52
330
2
100
AcDbSymbolTableRecord
100
AcDbLayerTableRecord
  2
Layer37
 70
     0
 62
     7
  6
Continuous
370
    -3
390
0
  0
LAYER
  5
53
330
2
100
AcDbSymbolTableRecord
100
AcDbLayerTableRecord
  2
Layer38
 70
     0
 62
     7
  6
Continuous
370
    -3
390
0
  0
LAYER
  5
54
330
2
100
AcDbSymbolTableRecord
100
AcDbLayerTableRecord
  2
Layer39
 70
     0
 62
     7
  6
Continuous
370
    -3
390
0
  0
LAYER
  5
55
330
2
100
AcDbSymbolTableRecord
100
AcDbLayerTableRecord
  2
Layer40
 70
     0
 62
     7
  6
Continuous
370
    -3
390
0
  0
LAYER
  5
56
330
2
100
AcDbSymbolTableRecord
100
AcDbLayerTableRecord
  2
Layer41
 70
     0
 62
     7
  6
Continuous
370
    -3
390
0
  0
LAYER
  5
57
330
2
100
AcDbSymbolTableRecord
100
AcDbLayerTableRecord
  2
Layer42
 70
     0
 62
     7
  6
Continuous
370
    -3
390
0
  0
LAYER
  5
58
330
2
100
AcDbSymbolTableRecord
100
AcDbLayerTableRecord
  2
Layer43
 70
     0
 62
     7
  6
Continuous
370
    -3
390
0
  0
LAYER
  5
59
330
2
100
AcDbSymbolTableRecord
100
AcDbLayerTableRecord
  2
Layer44
 70
     0
 62
     7
  6
Continuous
370
    -3
390
0
  0
LAYER
  5
5A
330
2
100
AcDbSymbolTableRecord
100
AcDbLayerTableRecord
  2
Layer45
 70
     0
 62
     7
  6
Continuous
370
    -3
390
0
  0
LAYER
  5
5B
330
2
100
AcDbSymbolTableRecord
100
AcDbLayerTableRecord
  2
Layer46
 70
     0
 62
     7
  6
Continuous
370
    -3
390
0
  0
LAYER
  5
5C
330
2
100
AcDbSymbolTableRecord
100
AcDbLayerTableRecord
  2
Layer47
 70
     0
 62
     7
  6
Continuous
370
    -3
390
0
  0
LAYER
  5
5D
330
2
100
AcDbSymbolTableRecord
100
AcDbLayerTableRecord
  2
Layer48
 70
     0
 62
     7
  6
Continuous
370
    -3
390
0
  0
LAYER
  5
5E
330
2
100
AcDbSymbolTableRecord
100
AcDbLayerTableRecord
  2
Layer49
 70
     0
 62
     7
  6
Continuous
370
    -3
390
0
  0
LAYER
  5
5F
330
2
100
AcDbSymbolTableRecord
100
AcDbLayerTableRecord
  2
Layer50
 70
     0
 62
     7
  6
Continuous
370
    -3
390
0
  0
LAYER
  5
60
330
2
100
AcDbSymbolTableRecord
100
AcDbLayerTableRecord
  2
Layer51
 70
     0
 62
     7
  6
Continuous
370
    -3
390
0
  0
LAYER
  5
61
330
2
100
AcDbSymbolTableRecord
100
AcDbLayerTableRecord
  2
Layer52
 70
     0
 62
     7
  6
Continuous
370
    -3
390
0
  0
LAYER
  5
62
330
2
100
AcDbSymbolTableRecord
100
AcDbLayerTableRecord
  2
Layer53
 70
     0
 62
     7
  6
Continuous
370
    -3
390
0
  0
LAYER
  5
63
330
2
100
AcDbSymbolTableRecord
100
AcDbLayerTableRecord
  2
Layer54
 70
     0
 62
     7
  6
Continuous
370
    -3
390
0
  0
LAYER
  5
64
330
2
100
AcDbSymbolTableRecord
100
AcDbLayerTableRecord
  2
Layer55
 70
     0
 62
     7
  6
Continuous
370
    -3
390
0
  0
LAYER
  5
65
330
2
100
AcDbSymbolTableRecord
100
AcDbLayerTableRecord
  2
Layer56
 70
     0
 62
     7
  6
Continuous
370
    -3
390
0
  0
LAYER
  5
66
330
2
100
AcDbSymbolTableRecord
100
AcDbLayerTableRecord
  2
Layer57
 70
     0
 62
     7
  6
Continuous
370
    -3
390
0
  0
LAYER
  5
67
330
2
100
AcDbSymbolTableRecord
100
AcDbLayerTableRecord
  2
Layer58
 70
     0
 62
     7
  6
Continuous
370
    -3
390
0
  0
LAYER
  5
68
330
2
100
AcDbSymbolTableRecord
100
AcDbLayerTableRecord
  2
Layer59
 70
     0
 62
     7
  6
Continuous
370
    -3
390
0
  0
LAYER
  5
69
330
2
100
AcDbSymbolTableRecord
100
AcDbLayerTableRecord
  2
Layer60
 70
     0
 62
     7
  6
Continuous
370
    -3
390
0
  0
LAYER
  5
6A
330
2
100
AcDbSymbolTableRecord
100
AcDbLayerTableRecord
  2
Layer61
 70
     0
 62
     7
  6
Continuous
370
    -3
390
0
  0
LAYER
  5
6B
330
2
100
AcDbSymbolTableRecord
100
AcDbLayerTableRecord
  2
Layer62
 70
     0
 62
     7
  6
Continuous
370
    -3
390
0
  0
LAYER
  5
6C
330
2
100
AcDbSymbolTableRecord
100
AcDbLayerTableRecord
  2
Layer63
 70
     0
 62
     7
  6
Continuous
370
    -3
390
0
  0
LAYER
  5
6D
330
2
100
AcDbSymbolTableRecord
100
AcDbLayerTableRecord
  2
Layer64
 70
     0
 62
     7
  6
Continuous
370
    -3
390
0
  0
LAYER
  5
6E
330
2
100
AcDbSymbolTableRecord
100
AcDbLayerTableRecord
  2
Layer65
 70
     0
 62
     7
  6
Continuous
370
    -3
390
0
  0
LAYER
  5
6F
330
2
100
AcDbSymbolTableRecord
100
AcDbLayerTableRecord
  2
Layer66
 70
     0
 62
     7
  6
Continuous
370
    -3
390
0
  0
LAYER
  5
70
330
2
100
AcDbSymbolTableRecord
100
AcDbLayerTableRecord
  2
Layer67
 70
     0
 62
     7
  6
Continuous
370
    -3
390
0
  0
LAYER
  5
71
330
2
100
AcDbSymbolTableRecord
100
AcDbLayerTableRecord
  2
Layer68
 70
     0
 62
     7
  6
Continuous
370
    -3
390
0
  0
LAYER
  5
72
330
2
100
AcDbSymbolTableRecord
100
AcDbLayerTableRecord
  2
Layer69
 70
     0
 62
     7
  6
Continuous
370
    -3
390
0
  0
LAYER
  5
73
330
2
100
AcDbSymbolTableRecord
100
AcDbLayerTableRecord
  2
Layer70
 70
     0
 62
     7
  6
Continuous
370
    -3
390
0
  0
LAYER
  5
74
330
2
100
AcDbSymbolTableRecord
100
AcDbLayerTableRecord
  2
Layer71
 70
     0
 62
     7
  6
Continuous
370
    -3
390
0
  0
LAYER
  5
75
330
2
100
AcDbSymbolTableRecord
100
AcDbLayerTableRecord
  2
Layer72
 70
     0
 62
     7
  6
Continuous
370
    -3
390
0
  0
LAYER
  5
76
330
2
100
AcDbSymbolTableRecord
100
AcDbLayerTableRecord
  2
Layer73
 70
     0
 62
     7
  6
Continuous
370
    -3
390
0
  0
LAYER
  5
77
330
2
100
AcDbSymbolTableRecord
100
AcDbLayerTableRecord
  2
Layer74
 70
     0
 62
     7
  6
Continuous
370
    -3
390
0
  0
LAYER
  5
78
330
2
100
AcDbSymbolTableRecord
100
AcDbLayerTableRecord
  2
Layer75
 70
     0
 62
     7
  6
Continuous
370
    -3
390
0
  0
LAYER
  5
79
330
2
100
AcDbSymbolTableRecord
100
AcDbLayerTableRecord
  2
Layer76
 70
     0
 62
     7
  6
Continuous
370
    -3
390
0
  0
LAYER
  5
7A
330
2
100
AcDbSymbolTableRecord
100
AcDbLayerTableRecord
  2
Layer77
 70
     0
 62
     7
  6
Continuous
370
    -3
390
0
  0
LAYER
  5
7B
330
2
100
AcDbSymbolTableRecord
100
AcDbLayerTableRecord
  2
Layer78
 70
     0
 62
     7
  6
Continuous
370
    -3
390
0
  0
LAYER
  5
7C
330
2
100
AcDbSymbolTableRecord
100
AcDbLayerTableRecord
  2
Layer79
 70
     0
 62
     7
  6
Continuous
370
    -3
390
0
  0
LAYER
  5
7D
330
2
100
AcDbSymbolTableRecord
100
AcDbLayerTableRecord
  2
Layer80
 70
     0
 62
     7
  6
Continuous
370
    -3
390
0
  0
LAYER
  5
7E
330
2
100
AcDbSymbolTableRecord
100
AcDbLayerTableRecord
  2
Layer81
 70
     0
 62
     7
  6
Continuous
370
    -3
390
0
  0
LAYER
  5
7F
330
2
100
AcDbSymbolTableRecord
100
AcDbLayerTableRecord
  2
Layer82
 70
     0
 62
     7
  6
Continuous
370
    -3
390
0
  0
LAYER
  5
80
330
2
100
AcDbSymbolTableRecord
100
AcDbLayerTableRecord
  2
Layer83
 70
     0
 62
     7
  6
Continuous
370
    -3
390
0
  0
LAYER
  5
81
330
2
100
AcDbSymbolTableRecord
100
AcDbLayerTableRecord
  2
Layer84
 70
     0
 62
     7
  6
Continuous
370
    -3
390
0
  0
LAYER
  5
82
330
2
100
AcDbSymbolTableRecord
100
AcDbLayerTableRecord
  2
Layer85
 70
     0
 62
     7
  6
Continuous
370
    -3
390
0
  0
LAYER
  5
83
330
2
100
AcDbSymbolTableRecord
100
AcDbLayerTableRecord
  2
Layer86
 70
     0
 62
     7
  6
Continuous
370
    -3
390
0
  0
LAYER
  5
84
330
2
100
AcDbSymbolTableRecord
100
AcDbLayerTableRecord
  2
Layer87
 70
     0
 62
     7
  6
Continuous
370
    -3
390
0
  0
LAYER
  5
85
330
2
100
AcDbSymbolTableRecord
100
AcDbLayerTableRecord
  2
Layer88
 70
     0
 62
     7
  6
Continuous
370
    -3
390
0
  0
LAYER
  5
86
330
2
100
AcDbSymbolTableRecord
100
AcDbLayerTableRecord
  2
Layer89
 70
     0
 62
     7
  6
Continuous
370
    -3
390
0
  0
LAYER
  5
87
330
2
100
AcDbSymbolTableRecord
100
AcDbLayerTableRecord
  2
Layer90
 70
     0
 62
     7
  6
Continuous
370
    -3
390
0
  0
LAYER
  5
88
330
2
100
AcDbSymbolTableRecord
100
AcDbLayerTableRecord
  2
Layer91
 70
     0
 62
     7
  6
Continuous
370
    -3
390
0
  0
LAYER
  5
89
330
2
100
AcDbSymbolTableRecord
100
AcDbLayerTableRecord
  2
Layer92
 70
     0
 62
     7
  6
Continuous
370
    -3
390
0
  0
LAYER
  5
8A
330
2
100
AcDbSymbolTableRecord
100
AcDbLayerTableRecord
  2
Layer93
 70
     0
 62
     7
  6
Continuous
370
    -3
390
0
  0
LAYER
  5
8B
330
2
100
AcDbSymbolTableRecord
100
AcDbLayerTableRecord
  2
Layer94
 70
     0
 62
     7
  6
Continuous
370
    -3
390
0
  0
LAYER
  5
8C
330
2
100
AcDbSymbolTableRecord
100
AcDbLayerTableRecord
  2
Layer95
 70
     0
 62
     7
  6
Continuous
370
    -3
390
0
  0
LAYER
  5
8D
330
2
100
AcDbSymbolTableRecord
100
AcDbLayerTableRecord
  2
Layer96
 70
     0
 62
     7
  6
Continuous
370
    -3
390
0
  0
LAYER
  5
8E
330
2
100
AcDbSymbolTableRecord
100
AcDbLayerTableRecord
  2
Layer97
 70
     0
 62
     7
  6
Continuous
370
    -3
390
0
  0
LAYER
  5
8F
330
2
100
AcDbSymbolTableRecord
100
AcDbLayerTableRecord
  2
Layer98
 70
     0
 62
     7
  6
Continuous
370
    -3
390
0
  0
LAYER
  5
90
330
2
100
AcDbSymbolTableRecord
100
AcDbLayerTableRecord
  2
Layer99
 70
     0
 62
     7
  6
Continuous
370
    -3
390
0
  0
LAYER
  5
91
330
2
100
AcDbSymbolTableRecord
100
AcDbLayerTableRecord
  2
Layer100
 70
     0
 62
     7
  6
Continuous
370
    -3
390
0
  0
LAYER
  5
92
330
2
100
AcDbSymbolTableRecord
100
AcDbLayerTableRecord
  2
Layer101
 70
     0
 62
     7
  6
Continuous
370
    -3
390
0
  0
LAYER
  5
93
330
2
100
AcDbSymbolTableRecord
100
AcDbLayerTableRecord
  2
Layer102
 70
     0
 62
     7
  6
Continuous
370
    -3
390
0
  0
LAYER
  5
94
330
2
100
AcDbSymbolTableRecord
100
AcDbLayerTableRecord
  2
Layer103
 70
     0
 62
     7
  6
Continuous
370
    -3
390
0
  0
LAYER
  5
95
330
2
100
AcDbSymbolTableRecord
100
AcDbLayerTableRecord
  2
Layer104
 70
     0
 62
     7
  6
Continuous
370
    -3
390
0
  0
LAYER
  5
96
330
2
100
AcDbSymbolTableRecord
100
AcDbLayerTableRecord
  2
Layer105
 70
     0
 62
     7
  6
Continuous
370
    -3
390
0
  0
LAYER
  5
97
330
2
100
AcDbSymbolTableRecord
100
AcDbLayerTableRecord
  2
Layer106
 70
     0
 62
     7
  6
Continuous
370
    -3
390
0
  0
LAYER
  5
98
330
2
100
AcDbSymbolTableRecord
100
AcDbLayerTableRecord
  2
Layer107
 70
     0
 62
     7
  6
Continuous
370
    -3
390
0
  0
LAYER
  5
99
330
2
100
AcDbSymbolTableRecord
100
AcDbLayerTableRecord
  2
Layer108
 70
     0
 62
     7
  6
Continuous
370
    -3
390
0
  0
LAYER
  5
9A
330
2
100
AcDbSymbolTableRecord
100
AcDbLayerTableRecord
  2
Layer109
 70
     0
 62
     7
  6
Continuous
370
    -3
390
0
  0
LAYER
  5
9B
330
2
100
AcDbSymbolTableRecord
100
AcDbLayerTableRecord
  2
Layer110
 70
     0
 62
     7
  6
Continuous
370
    -3
390
0
  0
LAYER
  5
9C
330
2
100
AcDbSymbolTableRecord
100
AcDbLayerTableRecord
  2
Layer111
 70
     0
 62
     7
  6
Continuous
370
    -3
390
0
  0
LAYER
  5
9D
330
2
100
AcDbSymbolTableRecord
100
AcDbLayerTableRecord
  2
Layer112
 70
     0
 62
     7
  6
Continuous
370
    -3
390
0
  0
LAYER
  5
9E
330
2
100
AcDbSymbolTableRecord
100
AcDbLayerTableRecord
  2
Layer113
 70
     0
 62
     7
  6
Continuous
370
    -3
390
0
  0
LAYER
  5
9F
330
2
100
AcDbSymbolTableRecord
100
AcDbLayerTableRecord
  2
Layer114
 70
     0
 62
     7
  6
Continuous
370
    -3
390
0
  0
LAYER
  5
A0
330
2
100
AcDbSymbolTableRecord
100
AcDbLayerTableRecord
  2
Layer115
 70
     0
 62
     7
  6
Continuous
370
    -3
390
0
  0
LAYER
  5
A1
330
2
100
AcDbSymbolTableRecord
100
AcDbLayerTableRecord
  2
Layer116
 70
     0
 62
     7
  6
Continuous
370
    -3
390
0
  0
LAYER
  5
A2
330
2
100
AcDbSymbolTableRecord
100
AcDbLayerTableRecord
  2
Layer117
 70
     0
 62
     7
  6
Continuous
370
    -3
390
0
  0
LAYER
  5
A3
330
2
100
AcDbSymbolTableRecord
100
AcDbLayerTableRecord
  2
Layer118
 70
     0
 62
     7
  6
Continuous
370
    -3
390
0
  0
LAYER
  5
A4
330
2
100
AcDbSymbolTableRecord
100
AcDbLayerTableRecord
  2
Layer119
 70
     0
 62
     7
  6
Continuous
370
    -3
390
0
  0
LAYER
  5
A5
330
2
100
AcDbSymbolTableRecord
100
AcDbLayerTableRecord
  2
Layer120
 70
     0
 62
     7
  6
Continuous
370
    -3
390
0
  0
LAYER
  5
A6
330
2
100
AcDbSymbolTableRecord
100
AcDbLayerTableRecord
  2
Layer121
 70
     0
 62
     7
  6
Continuous
370
    -3
390
0
  0
LAYER
  5
A7
330
2
100
AcDbSymbolTableRecord
100
AcDbLayerTableRecord
  2
Layer122
 70
     0
 62
     7
  6
Continuous
370
    -3
390
0
  0
LAYER
  5
A8
330
2
100
AcDbSymbolTableRecord
100
AcDbLayerTableRecord
  2
Layer123
 70
     0
 62
     7
  6
Continuous
370
    -3
390
0
  0
LAYER
  5
A9
330
2
100
AcDbSymbolTableRecord
100
AcDbLayerTableRecord
  2
Layer124
 70
     0
 62
     7
  6
Continuous
370
    -3
390
0
  0
LAYER
  5
AA
330
2
100
AcDbSymbolTableRecord
100
AcDbLayerTableRecord
  2
Layer125
 70
     0
 62
     7
  6
Continuous
370
    -3
390
0
  0
LAYER
  5
AB
330
2
100
AcDbSymbolTableRecord
100
AcDbLayerTableRecord
  2
Layer126
 70
     0
 62
     7
  6
Continuous
370
    -3
390
0
  0
LAYER
  5
AC
330
2
100
AcDbSymbolTableRecord
100
AcDbLayerTableRecord
  2
Layer127
 70
     0
 62
     7
  6
Continuous
370
    -3
390
0
  0
LAYER
  5
AD
330
2
100
AcDbSymbolTableRecord
100
AcDbLayerTableRecord
  2
Layer128
 70
     0
 62
     7
  6
Continuous
370
    -3
390
0
  0
LAYER
  5
AE
330
2
100
AcDbSymbolTableRecord
100
AcDbLayerTableRecord
  2
Layer129
 70
     0
 62
     7
  6
Continuous
370
    -3
390
0
  0
LAYER
  5
AF
330
2
100
AcDbSymbolTableRecord
100
AcDbLayerTableRecord
  2
Layer130
 70
     0
 62
     7
  6
Continuous
370
    -3
390
0
  0
LAYER
  5
B0
330
2
100
AcDbSymbolTableRecord
100
AcDbLayerTableRecord
  2
Layer131
 70
     0
 62
     7
  6
Continuous
370
    -3
390
0
  0
LAYER
  5
B1
330
2
100
AcDbSymbolTableRecord
100
AcDbLayerTableRecord
  2
Layer132
 70
     0
 62
     7
  6
Continuous
370
    -3
390
0
  0
LAYER
  5
B2
330
2
100
AcDbSymbolTableRecord
100
AcDbLayerTableRecord
  2
Layer133
 70
     0
 62
     7
  6
Continuous
370
    -3
390
0
  0
LAYER
  5
B3
330
2
100
AcDbSymbolTableRecord
100
AcDbLayerTableRecord
  2
Layer134
 70
     0
 62
     7
  6
Continuous
370
    -3
390
0
  0
LAYER
  5
B4
330
2
100
AcDbSymbolTableRecord
100
AcDbLayerTableRecord
  2
Layer135
 70
     0
 62
     7
  6
Continuous
370
    -3
390
0
  0
LAYER
  5
B5
330
2
100
AcDbSymbolTableRecord
100
AcDbLayerTableRecord
  2
Layer136
 70
     0
 62
     7
  6
Continuous
370
    -3
390
0
  0
LAYER
  5
B6
330
2
100
AcDbSymbolTableRecord
100
AcDbLayerTableRecord
  2
Layer137
 70
     0
 62
     7
  6
Continuous
370
    -3
390
0
  0
LAYER
  5
B7
330
2
100
AcDbSymbolTableRecord
100
AcDbLayerTableRecord
  2
Layer138
 70
     0
 62
     7
  6
Continuous
370
    -3
390
0
  0
LAYER
  5
B8
330
2
100
AcDbSymbolTableRecord
100
AcDbLayerTableRecord
  2
Layer139
 70
     0
 62
     7
  6
Continuous
370
    -3
390
0
  0
LAYER
  5
B9
330
2
100
AcDbSymbolTableRecord
100
AcDbLayerTableRecord
  2
Layer140
 70
     0
 62
     7
  6
Continuous
370
    -3
390
0
  0
LAYER
  5
BA
330
2
100
AcDbSymbolTableRecord
100
AcDbLayerTableRecord
  2
Layer141
 70
     0
 62
     7
  6
Continuous
370
    -3
390
0
  0
LAYER
  5
BB
330
2
100
AcDbSymbolTableRecord
100
AcDbLayerTableRecord
  2
Layer142
 70
     0
 62
     7
  6
Continuous
370
    -3
390
0
  0
LAYER
  5
BC
330
2
100
AcDbSymbolTableRecord
100
AcDbLayerTableRecord
  2
Layer143
 70
     0
 62
     7
  6
Continuous
370
    -3
390
0
  0
LAYER
  5
BD
330
2
100
AcDbSymbolTableRecord
100
AcDbLayerTableRecord
  2
Layer144
 70
     0
 62
     7
  6
Continuous
370
    -3
390
0
  0
LAYER
  5
BE
330
2
100
AcDbSymbolTableRecord
100
AcDbLayerTableRecord
  2
Layer145
 70
     0
 62
     7
  6
Continuous
370
    -3
390
0
  0
LAYER
  5
BF
330
2
100
AcDbSymbolTableRecord
100
AcDbLayerTableRecord
  2
Layer146
 70
     0
 62
     7
  6
Continuous
370
    -3
390
0
  0
LAYER
  5
C0
330
2
100
AcDbSymbolTableRecord
100
AcDbLayerTableRecord
  2
Layer147
 70
     0
 62
     7
  6
Continuous
370
    -3
390
0
  0
LAYER
  5
C1
330
2
100
AcDbSymbolTableRecord
100
AcDbLayerTableRecord
  2
Layer148
 70
     0
 62
     7
  6
Continuous
370
    -3
390
0
  0
LAYER
  5
C2
330
2
100
AcDbSymbolTableRecord
100
AcDbLayerTableRecord
  2
Layer149
 70
     0
 62
     7
  6
Continuous
370
    -3
390
0
  0
LAYER
  5
C3
330
2
100
AcDbSymbolTableRecord
100
AcDbLayerTableRecord
  2
Layer150
 70
     0
 62
     7
  6
Continuous
370
    -3
390
0
  0
LAYER
  5
C4
330
2
100
AcDbSymbolTableRecord
100
AcDbLayerTableRecord
  2
Layer151
 70
     0
 62
     7
  6
Continuous
370
    -3
390
0
  0
LAYER
  5
C5
330
2
100
AcDbSymbolTableRecord
100
AcDbLayerTableRecord
  2
Layer152
 70
     0
 62
     7
  6
Continuous
370
    -3
390
0
  0
LAYER
  5
C6
330
2
100
AcDbSymbolTableRecord
100
AcDbLayerTableRecord
  2
Layer153
 70
     0
 62
     7
  6
Continuous
370
    -3
390
0
  0
LAYER
  5
C7
330
2
100
AcDbSymbolTableRecord
100
AcDbLayerTableRecord
  2
Layer154
 70
     0
 62
     7
  6
Continuous
370
    -3
390
0
  0
LAYER
  5
C8
330
2
100
AcDbSymbolTableRecord
100
AcDbLayerTableRecord
  2
Layer155
 70
     0
 62
     7
  6
Continuous
370
    -3
390
0
  0
LAYER
  5
C9
330
2
100
AcDbSymbolTableRecord
100
AcDbLayerTableRecord
  2
Layer156
 70
     0
 62
     7
  6
Continuous
370
    -3
390
0
  0
LAYER
  5
CA
330
2
100
AcDbSymbolTableRecord
100
AcDbLayerTableRecord
  2
Layer157
 70
     0
 62
     7
  6
Continuous
370
    -3
390
0
  0
LAYER
  5
CB
330
2
100
AcDbSymbolTableRecord
100
AcDbLayerTableRecord
  2
Layer158
 70
     0
 62
     7
  6
Continuous
370
    -3
390
0
  0
LAYER
  5
CC
330
2
100
AcDbSymbolTableRecord
100
AcDbLayerTableRecord
  2
Layer159
 70
     0
 62
     7
  6
Continuous
370
    -3
390
0
  0
LAYER
  5
CD
330
2
100
AcDbSymbolTableRecord
100
AcDbLayerTableRecord
  2
Layer160
 70
     0
 62
     7
  6
Continuous
370
    -3
390
0
  0
LAYER
  5
CE
330
2
100
AcDbSymbolTableRecord
100
AcDbLayerTableRecord
  2
Layer161
 70
     0
 62
     7
  6
Continuous
370
    -3
390
0
  0
LAYER
  5
CF
330
2
100
AcDbSymbolTableRecord
100
AcDbLayerTableRecord
  2
Layer162
 70
     0
 62
     7
  6
Continuous
370
    -3
390
0
  0
LAYER
  5
D0
330
2
100
AcDbSymbolTableRecord
100
AcDbLayerTableRecord
  2
Layer163
 70
     0
 62
     7
  6
Continuous
370
    -3
390
0
  0
LAYER
  5
D1
330
2
100
AcDbSymbolTableRecord
100
AcDbLayerTableRecord
  2
Layer164
 70
     0
 62
     7
  6
Continuous
370
    -3
390
0
  0
LAYER
  5
D2
330
2
100
AcDbSymbolTableRecord
100
AcDbLayerTableRecord
  2
Layer165
 70
     0
 62
     7
  6
Continuous
370
    -3
390
0
  0
LAYER
  5
D3
330
2
100
AcDbSymbolTableRecord
100
AcDbLayerTableRecord
  2
Layer166
 70
     0
 62
     7
  6
Continuous
370
    -3
390
0
  0
LAYER
  5
D4
330
2
100
AcDbSymbolTableRecord
100
AcDbLayerTableRecord
  2
Layer167
 70
     0
 62
     7
  6
Continuous
370
    -3
390
0
  0
LAYER
  5
D5
330
2
100
AcDbSymbolTableRecord
100
AcDbLayerTableRecord
  2
Layer168
 70
     0
 62
     7
  6
Continuous
370
    -3
390
0
  0
LAYER
  5
D6
330
2
100
AcDbSymbolTableRecord
100
AcDbLayerTableRecord
  2
Layer169
 70
     0
 62
     7
  6
Continuous
370
    -3
390
0
  0
LAYER
  5
D7
330
2
100
AcDbSymbolTableRecord
100
AcDbLayerTableRecord
  2
Layer170
 70
     0
 62
     7
  6
Continuous
370
    -3
390
0
  0
LAYER
  5
D8
330
2
100
AcDbSymbolTableRecord
100
AcDbLayerTableRecord
  2
Layer171
 70
     0
 62
     7
  6
Continuous
370
    -3
390
0
  0
LAYER
  5
D9
330
2
100
AcDbSymbolTableRecord
100
AcDbLayerTableRecord
  2
Layer172
 70
     0
 62
     7
  6
Continuous
370
    -3
390
0
  0
LAYER
  5
DA
330
2
100
AcDbSymbolTableRecord
100
AcDbLayerTableRecord
  2
Layer173
 70
     0
 62
     7
  6
Continuous
370
    -3
390
0
  0
LAYER
  5
DB
330
2
100
AcDbSymbolTableRecord
100
AcDbLayerTableRecord
  2
Layer174
 70
     0
 62
     7
  6
Continuous
370
    -3
390
0
  0
LAYER
  5
DC
330
2
100
AcDbSymbolTableRecord
100
AcDbLayerTableRecord
  2
Layer175
 70
     0
 62
     7
  6
Continuous
370
    -3
390
0
  0
LAYER
  5
DD
330
2
100
AcDbSymbolTableRecord
100
AcDbLayerTableRecord
  2
Layer176
 70
     0
 62
     7
  6
Continuous
370
    -3
390
0
  0
LAYER
  5
DE
330
2
100
AcDbSymbolTableRecord
100
AcDbLayerTableRecord
  2
Layer177
 70
     0
 62
     7
  6
Continuous
370
    -3
390
0
  0
LAYER
  5
DF
330
2
100
AcDbSymbolTableRecord
100
AcDbLayerTableRecord
  2
Layer178
 70
     0
 62
     7
  6
Continuous
370
    -3
390
0
  0
LAYER
  5
E0
330
2
100
AcDbSymbolTableRecord
100
AcDbLayerTableRecord
  2
Layer179
 70
     0
 62
     7
  6
Continuous
370
    -3
390
0
  0
LAYER
  5
E1
330
2
100
AcDbSymbolTableRecord
100
AcDbLayerTableRecord
  2
Layer180
 70
     0
 62
     7
  6
Continuous
370
    -3
390
0
  0
LAYER
  5
E2
330
2
100
AcDbSymbolTableRecord
100
AcDbLayerTableRecord
  2
Layer181
 70
     0
 62
     7
  6
Continuous
370
    -3
390
0
  0
LAYER
  5
E3
330
2
100
AcDbSymbolTableRecord
100
AcDbLayerTableRecord
  2
Layer182
 70
     0
 62
     7
  6
Continuous
370
    -3
390
0
  0
LAYER
  5
E4
330
2
100
AcDbSymbolTableRecord
100
AcDbLayerTableRecord
  2
Layer183
 70
     0
 62
     7
  6
Continuous
370
    -3
390
0
  0
LAYER
  5
E5
330
2
100
AcDbSymbolTableRecord
100
AcDbLayerTableRecord
  2
Layer184
 70
     0
 62
     7
  6
Continuous
370
    -3
390
0
  0
LAYER
  5
E6
330
2
100
AcDbSymbolTableRecord
100
AcDbLayerTableRecord
  2
Layer185
 70
     0
 62
     7
  6
Continuous
370
    -3
390
0
  0
LAYER
  5
E7
330
2
100
AcDbSymbolTableRecord
100
AcDbLayerTableRecord
  2
Layer186
 70
     0
 62
     7
  6
Continuous
370
    -3
390
0
  0
LAYER
  5
E8
330
2
100
AcDbSymbolTableRecord
100
AcDbLayerTableRecord
  2
Layer187
 70
     0
 62
     7
  6
Continuous
370
    -3
390
0
  0
LAYER
  5
E9
330
2
100
AcDbSymbolTableRecord
100
AcDbLayerTableRecord
  2
Layer188
 70
     0
 62
     7
  6
Continuous
370
    -3
390
0
  0
LAYER
  5
EA
330
2
100
AcDbSymbolTableRecord
100
AcDbLayerTableRecord
  2
Layer189
 70
     0
 62
     7
  6
Continuous
370
    -3
390
0
  0
LAYER
  5
EB
330
2
100
AcDbSymbolTableRecord
100
AcDbLayerTableRecord
  2
Layer190
 70
     0
 62
     7
  6
Continuous
370
    -3
390
0
  0
LAYER
  5
EC
330
2
100
AcDbSymbolTableRecord
100
AcDbLayerTableRecord
  2
Layer191
 70
     0
 62
     7
  6
Continuous
370
    -3
390
0
  0
LAYER
  5
ED
330
2
100
AcDbSymbolTableRecord
100
AcDbLayerTableRecord
  2
Layer192
 70
     0
 62
     7
  6
Continuous
370
    -3
390
0
  0
LAYER
  5
EE
330
2
100
AcDbSymbolTableRecord
100
AcDbLayerTableRecord
  2
Layer193
 70
     0
 62
     7
  6
Continuous
370
    -3
390
0
  0
LAYER
  5
EF
330
2
100
AcDbSymbolTableRecord
100
AcDbLayerTableRecord
  2
Layer194
 70
     0
 62
     7
  6
Continuous
370
    -3
390
0
  0
LAYER
  5
F0
330
2
100
AcDbSymbolTableRecord
100
AcDbLayerTableRecord
  2
Layer195
 70
     0
 62
     7
  6
Continuous
370
    -3
390
0
  0
LAYER
  5
F1
330
2
100
AcDbSymbolTableRecord
100
AcDbLayerTableRecord
  2
Layer196
 70
     0
 62
     7
  6
Continuous
370
    -3
390
0
  0
LAYER
  5
F2
330
2
100
AcDbSymbolTableRecord
100
AcDbLayerTableRecord
  2
Layer197
 70
     0
 62
     7
  6
Continuous
370
    -3
390
0
  0
LAYER
  5
F3
330
2
100
AcDbSymbolTableRecord
100
AcDbLayerTableRecord
  2
Layer198
 70
     0
 62
     7
  6
Continuous
370
    -3
390
0
  0
LAYER
  5
F4
330
2
100
AcDbSymbolTableRecord
100
AcDbLayerTableRecord
  2
Layer199
 70
     0
 62
     7
  6
Continuous
370
    -3
390
0
  0
LAYER
  5
F5
330
2
100
AcDbSymbolTableRecord
100
AcDbLayerTableRecord
  2
Layer200
 70
     0
 62
     7
  6
Continuous
370
    -3
390
0
  0
LAYER
  5
F6
330
2
100
AcDbSymbolTableRecord
100
AcDbLayerTableRecord
  2
Layer201
 70
     0
 62
     7
  6
Continuous
370
    -3
390
0
  0
LAYER
  5
F7
330
2
100
AcDbSymbolTableRecord
100
AcDbLayerTableRecord
  2
Layer202
 70
     0
 62
     7
  6
Continuous
370
    -3
390
0
  0
LAYER
  5
F8
330
2
100
AcDbSymbolTableRecord
100
AcDbLayerTableRecord
  2
Layer203
 70
     0
 62
     7
  6
Continuous
370
    -3
390
0
  0
LAYER
  5
F9
330
2
100
AcDbSymbolTableRecord
100
AcDbLayerTableRecord
  2
Layer204
 70
     0
 62
     7
  6
Continuous
370
    -3
390
0
  0
LAYER
  5
FA
330
2
100
AcDbSymbolTableRecord
100
AcDbLayerTableRecord
  2
Layer205
 70
     0
 62
     7
  6
Continuous
370
    -3
390
0
  0
LAYER
  5
FB
330
2
100
AcDbSymbolTableRecord
100
AcDbLayerTableRecord
  2
Layer206
 70
     0
 62
     7
  6
Continuous
370
    -3
390
0
  0
LAYER
  5
FC
330
2
100
AcDbSymbolTableRecord
100
AcDbLayerTableRecord
  2
Layer207
 70
     0
 62
     7
  6
Continuous
370
    -3
390
0
  0
LAYER
  5
FD
330
2
100
AcDbSymbolTableRecord
100
AcDbLayerTableRecord
  2
Layer208
 70
     0
 62
     7
  6
Continuous
370
    -3
390
0
  0
LAYER
  5
FE
330
2
100
AcDbSymbolTableRecord
100
AcDbLayerTableRecord
  2
Layer209
 70
     0
 62
     7
  6
Continuous
370
    -3
390
0
  0
LAYER
  5
FF
330
2
100
AcDbSymbolTableRecord
100
AcDbLayerTableRecord
  2
Layer210
 70
     0
 62
     7
  6
Continuous
370
    -3
390
0
  0
LAYER
  5
100
330
2
100
AcDbSymbolTableRecord
100
AcDbLayerTableRecord
  2
Layer211
 70
     0
 62
     7
  6
Continuous
370
    -3
390
0
  0
LAYER
  5
101
330
2
100
AcDbSymbolTableRecord
100
AcDbLayerTableRecord
  2
Layer212
 70
     0
 62
     7
  6
Continuous
370
    -3
390
0
  0
LAYER
  5
102
330
2
100
AcDbSymbolTableRecord
100
AcDbLayerTableRecord
  2
Layer213
 70
     0
 62
     7
  6
Continuous
370
    -3
390
0
  0
LAYER
  5
103
330
2
100
AcDbSymbolTableRecord
100
AcDbLayerTableRecord
  2
Layer214
 70
     0
 62
     7
  6
Continuous
370
    -3
390
0
  0
LAYER
  5
104
330
2
100
AcDbSymbolTableRecord
100
AcDbLayerTableRecord
  2
Layer215
 70
     0
 62
     7
  6
Continuous
370
    -3
390
0
  0
LAYER
  5
105
330
2
100
AcDbSymbolTableRecord
100
AcDbLayerTableRecord
  2
Layer216
 70
     0
 62
     7
  6
Continuous
370
    -3
390
0
  0
LAYER
  5
106
330
2
100
AcDbSymbolTableRecord
100
AcDbLayerTableRecord
  2
Layer217
 70
     0
 62
     7
  6
Continuous
370
    -3
390
0
  0
LAYER
  5
107
330
2
100
AcDbSymbolTableRecord
100
AcDbLayerTableRecord
  2
Layer218
 70
     0
 62
     7
  6
Continuous
370
    -3
390
0
  0
LAYER
  5
108
330
2
100
AcDbSymbolTableRecord
100
AcDbLayerTableRecord
  2
Layer219
 70
     0
 62
     7
  6
Continuous
370
    -3
390
0
  0
LAYER
  5
109
330
2
100
AcDbSymbolTableRecord
100
AcDbLayerTableRecord
  2
Layer220
 70
     0
 62
     7
  6
Continuous
370
    -3
390
0
  0
LAYER
  5
10A
330
2
100
AcDbSymbolTableRecord
100
AcDbLayerTableRecord
  2
Layer221
 70
     0
 62
     7
  6
Continuous
370
    -3
390
0
  0
LAYER
  5
10B
330
2
100
AcDbSymbolTableRecord
100
AcDbLayerTableRecord
  2
Layer222
 70
     0
 62
     7
  6
Continuous
370
    -3
390
0
  0
LAYER
  5
10C
330
2
100
AcDbSymbolTableRecord
100
AcDbLayerTableRecord
  2
Layer223
 70
     0
 62
     7
  6
Continuous
370
    -3
390
0
  0
LAYER
  5
10D
330
2
100
AcDbSymbolTableRecord
100
AcDbLayerTableRecord
  2
Layer224
 70
     0
 62
     7
  6
Continuous
370
    -3
390
0
  0
LAYER
  5
10E
330
2
100
AcDbSymbolTableRecord
100
AcDbLayerTableRecord
  2
Layer225
 70
     0
 62
     7
  6
Continuous
370
    -3
390
0
  0
LAYER
  5
10F
330
2
100
AcDbSymbolTableRecord
100
AcDbLayerTableRecord
  2
Layer226
 70
     0
 62
     7
  6
Continuous
370
    -3
390
0
  0
LAYER
  5
110
330
2
100
AcDbSymbolTableRecord
100
AcDbLayerTableRecord
  2
Layer227
 70
     0
 62
     7
  6
Continuous
370
    -3
390
0
  0
LAYER
  5
111
330
2
100
AcDbSymbolTableRecord
100
AcDbLayerTableRecord
  2
Layer228
 70
     0
 62
     7
  6
Continuous
370
    -3
390
0
  0
LAYER
  5
112
330
2
100
AcDbSymbolTableRecord
100
AcDbLayerTableRecord
  2
Layer229
 70
     0
 62
     7
  6
Continuous
370
    -3
390
0
  0
LAYER
  5
113
330
2
100
AcDbSymbolTableRecord
100
AcDbLayerTableRecord
  2
Layer230
 70
     0
 62
     7
  6
Continuous
370
    -3
390
0
  0
LAYER
  5
114
330
2
100
AcDbSymbolTableRecord
100
AcDbLayerTableRecord
  2
Layer231
 70
     0
 62
     7
  6
Continuous
370
    -3
390
0
  0
LAYER
  5
115
330
2
100
AcDbSymbolTableRecord
100
AcDbLayerTableRecord
  2
Layer232
 70
     0
 62
     7
  6
Continuous
370
    -3
390
0
  0
LAYER
  5
116
330
2
100
AcDbSymbolTableRecord
100
AcDbLayerTableRecord
  2
Layer233
 70
     0
 62
     7
  6
Continuous
370
    -3
390
0
  0
LAYER
  5
117
330
2
100
AcDbSymbolTableRecord
100
AcDbLayerTableRecord
  2
Layer234
 70
     0
 62
     7
  6
Continuous
370
    -3
390
0
  0
LAYER
  5
118
330
2
100
AcDbSymbolTableRecord
100
AcDbLayerTableRecord
  2
Layer235
 70
     0
 62
     7
  6
Continuous
370
    -3
390
0
  0
LAYER
  5
119
330
2
100
AcDbSymbolTableRecord
100
AcDbLayerTableRecord
  2
Layer236
 70
     0
 62
     7
  6
Continuous
370
    -3
390
0
  0
LAYER
  5
11A
330
2
100
AcDbSymbolTableRecord
100
AcDbLayerTableRecord
  2
Layer237
 70
     0
 62
     7
  6
Continuous
370
    -3
390
0
  0
LAYER
  5
11B
330
2
100
AcDbSymbolTableRecord
100
AcDbLayerTableRecord
  2
Layer238
 70
     0
 62
     7
  6
Continuous
370
    -3
390
0
  0
LAYER
  5
11C
330
2
100
AcDbSymbolTableRecord
100
AcDbLayerTableRecord
  2
Layer239
 70
     0
 62
     7
  6
Continuous
370
    -3
390
0
  0
LAYER
  5
11D
330
2
100
AcDbSymbolTableRecord
100
AcDbLayerTableRecord
  2
Layer240
 70
     0
 62
     7
  6
Continuous
370
    -3
390
0
  0
LAYER
  5
11E
330
2
100
AcDbSymbolTableRecord
100
AcDbLayerTableRecord
  2
Layer241
 70
     0
 62
     7
  6
Continuous
370
    -3
390
0
  0
LAYER
  5
11F
330
2
100
AcDbSymbolTableRecord
100
AcDbLayerTableRecord
  2
Layer242
 70
     0
 62
     7
  6
Continuous
370
    -3
390
0
  0
LAYER
  5
120
330
2
100
AcDbSymbolTableRecord
100
AcDbLayerTableRecord
  2
Layer243
 70
     0
 62
     7
  6
Continuous
370
    -3
390
0
  0
LAYER
  5
121
330
2
100
AcDbSymbolTableRecord
100
AcDbLayerTableRecord
  2
Layer244
 70
     0
 62
     7
  6
Continuous
370
    -3
390
0
  0
LAYER
  5
122
330
2
100
AcDbSymbolTableRecord
100
AcDbLayerTableRecord
  2
Layer245
 70
     0
 62
     7
  6
Continuous
370
    -3
390
0
  0
LAYER
  5
123
330
2
100
AcDbSymbolTableRecord
100
AcDbLayerTableRecord
  2
Layer246
 70
     0
 62
     7
  6
Continuous
370
    -3
390
0
  0
LAYER
  5
124
330
2
100
AcDbSymbolTableRecord
100
AcDbLayerTableRecord
  2
Layer247
 70
     0
 62
     7
  6
Continuous
370
    -3
390
0
  0
LAYER
  5
125
330
2
100
AcDbSymbolTableRecord
100
AcDbLayerTableRecord
  2
Layer248
 70
     0
 62
     7
  6
Continuous
370
    -3
390
0
  0
LAYER
  5
126
330
2
100
AcDbSymbolTableRecord
100
AcDbLayerTableRecord
  2
Layer249
 70
     0
 62
     7
  6
Continuous
370
    -3
390
0
  0
LAYER
  5
127
330
2
100
AcDbSymbolTableRecord
100
AcDbLayerTableRecord
  2
Layer250
 70
     0
 62
     7
  6
Continuous
370
    -3
390
0
  0
LAYER
  5
128
330
2
100
AcDbSymbolTableRecord
100
AcDbLayerTableRecord
  2
Layer251
 70
     0
 62
     7
  6
Continuous
370
    -3
390
0
  0
LAYER
  5
129
330
2
100
AcDbSymbolTableRecord
100
AcDbLayerTableRecord
  2
Layer252
 70
     0
 62
     7
  6
Continuous
370
    -3
390
0
  0
LAYER
  5
12A
330
2
100
AcDbSymbolTableRecord
100
AcDbLayerTableRecord
  2
Layer253
 70
     0
 62
     7
  6
Continuous
370
    -3
390
0
  0
LAYER
  5
12B
330
2
100
AcDbSymbolTableRecord
100
AcDbLayerTableRecord
  2
Layer254
 70
     0
 62
     7
  6
Continuous
370
    -3
390
0
  0
LAYER
  5
12C
330
2
100
AcDbSymbolTableRecord
100
AcDbLayerTableRecord
  2
Layer255
 70
     0
 62
     7
  6
Continuous
370
    -3
390
0
  0
ENDTAB
  0
TABLE
  2
STYLE
  5
3
330
0
100
AcDbSymbolTable
 70
     3
  0
STYLE
  5
11
330
3
100
AcDbSymbolTableRecord
100
AcDbTextStyleTableRecord
  2
Standard
 70
     0
 40
0.0
 41
1.0
 50
0.0
 71
     0
 42
0.2
  3
txt
  4

  0
STYLE
  5
2C
330
3
100
AcDbSymbolTableRecord
100
AcDbTextStyleTableRecord
  2
Arial
 70
     0
 40
0.0
 41
1.0
 50
0.0
 71
     0
 42
0.2
  3

  4

1001
ACAD
1000
Arial
1071
       34
  0
STYLE
  5
2D
330
3
100
AcDbSymbolTableRecord
100
AcDbTextStyleTableRecord
  2
TFONT11
 70
     0
 40
0.0
 41
1.0
 50
0.0
 71
     0
 42
0.2
  3

  4

1001
ACAD
1000
Arial
1071
    65280
  0
ENDTAB
  0
TABLE
  2
VIEW
  5
6
330
0
100
AcDbSymbolTable
 70
     0
  0
ENDTAB
  0
TABLE
  2
UCS
  5
7
330
0
100
AcDbSymbolTable
 70
     0
  0
ENDTAB
  0
TABLE
  2
APPID
  5
9
330
0
100
AcDbSymbolTable
 70
     1
  0
APPID
  5
12
330
9
100
AcDbSymbolTableRecord
100
AcDbRegAppTableRecord
  2
ACAD
 70
     0
  0
ENDTAB
  0
TABLE
  2
DIMSTYLE
  5
A
330
0
100
AcDbSymbolTable
 70
     1
100
AcDbDimStyleTable
  0
DIMSTYLE
105
27
102
{ACAD_REACTORS
330
182
330
18F
330
19D
330
1AC
330
1B6
330
1C7
330
1D8
102
}
330
A
100
AcDbSymbolTableRecord
100
AcDbDimStyleTableRecord
  2
Standard
 70
     0
340
11
  0
ENDTAB
  0
TABLE
  2
BLOCK_RECORD
  5
1
330
0
100
AcDbSymbolTable
 70
     8
  0
BLOCK_RECORD
  5
1F
330
1
100
AcDbSymbolTableRecord
100
AcDbBlockTableRecord
  2
*Model_Space
340
22
  0
BLOCK_RECORD
  5
1B
330
1
100
AcDbSymbolTableRecord
100
AcDbBlockTableRecord
  2
*Paper_Space
340
1E
  0
BLOCK_RECORD
  5
23
330
1
100
AcDbSymbolTableRecord
100
AcDbBlockTableRecord
  2
*Paper_Space0
340
26
  0
BLOCK_RECORD
  5
176
330
1
100
AcDbSymbolTableRecord
100
AcDbBlockTableRecord
  2
*D1
340
0
  0
BLOCK_RECORD
  5
183
330
1
100
AcDbSymbolTableRecord
100
AcDbBlockTableRecord
  2
*D2
340
0
  0
BLOCK_RECORD
  5
190
330
1
100
AcDbSymbolTableRecord
100
AcDbBlockTableRecord
  2
*D3
340
0
  0
BLOCK_RECORD
  5
19E
330
1
100
AcDbSymbolTableRecord
100
AcDbBlockTableRecord
  2
*D4
340
0
  0
BLOCK_RECORD
  5
1AD
330
1
100
AcDbSymbolTableRecord
100
AcDbBlockTableRecord
  2
*D5
340
0
  0
BLOCK_RECORD
  5
1B7
330
1
100
AcDbSymbolTableRecord
100
AcDbBlockTableRecord
  2
*D6
340
0
  0
BLOCK_RECORD
  5
1C8
330
1
100
AcDbSymbolTableRecord
100
AcDbBlockTableRecord
  2
*D7
340
0
  0
ENDTAB
  0
ENDSEC
  0
SECTION
  2
BLOCKS
  0
BLOCK
  5
20
330
1F
100
AcDbEntity
  8
0
100
AcDbBlockBegin
  2
*Model_Space
 70
     0
 10
0.0
 20
0.0
 30
0.0
  3
*Model_Space
  1

  0
ENDBLK
  5
21
330
1F
100
AcDbEntity
  8
0
100
AcDbBlockEnd
  0
BLOCK
  5
1C
330
1B
100
AcDbEntity
 67
     1
  8
0
100
AcDbBlockBegin
  2
*Paper_Space
 70
     0
 10
0.0
 20
0.0
 30
0.0
  3
*Paper_Space
  1

  0
ENDBLK
  5
1D
330
1B
100
AcDbEntity
 67
     1
  8
0
100
AcDbBlockEnd
  0
BLOCK
  5
24
330
23
100
AcDbEntity
  8
0
100
AcDbBlockBegin
  2
*Paper_Space0
 70
     0
 10
0.0
 20
0.0
 30
0.0
  3
*Paper_Space0
  1

  0
ENDBLK
  5
25
330
23
100
AcDbEntity
  8
0
100
AcDbBlockEnd
  0
BLOCK
  5
177
330
176
100
AcDbEntity
  8
0
100
AcDbBlockBegin
  2
*D1
 70
     1
 10
0.0
 20
0.0
 30
0.0
  3
*D1
  1

  0
HATCH
  5
179
330
176
100
AcDbEntity
  8
AM_VIS
  6
AUSGEZOGEN
 62
     4
370
     0
100
AcDbHatch
 10
0.0
 20
0.0
 30
0.0
210
0.0
220
0.0
230
1.0
  2
SOLID
 70
     1
 71
     0
 91
        1
 92
        2
 72
     0
 73
     1
 93
        3
 10
-815.7183889774198
 20
837.677895414063
 10
-822.7183889774198
 20
802.677895414063
 10
-808.7183889774198
 20
802.677895414063
 97
        0
 75
     0
 76
     1
 98
        0
  0
HATCH
  5
17A
330
176
100
AcDbEntity
  8
AM_VIS
  6
AUSGEZOGEN
 62
     4
370
     0
100
AcDbHatch
 10
0.0
 20
0.0
 30
0.0
210
0.0
220
0.0
230
1.0
  2
SOLID
 70
     1
 71
     0
 91
        1
 92
        2
 72
     0
 73
     1
 93
        3
 10
-815.7183889774198
 20
863.677895414063
 10
-808.7183889774198
 20
898.677895414063
 10
-822.7183889774198
 20
898.677895414063
 97
        0
 75
     0
 76
     1
 98
        0
  0
LINE
  5
17B
330
176
100
AcDbEntity
  8
AM_VIS
  6
AUSGEZOGEN
 62
     4
370
     0
100
AcDbLine
 10
-815.71838897742
 20
863.677895414063
 30
0.0
 11
-815.71838897742
 21
837.677895414063
 31
0.0
  0
LINE
  5
17C
330
176
100
AcDbEntity
  8
AM_VIS
  6
AUSGEZOGEN
 62
     4
370
     0
100
AcDbLine
 10
-815.71838897742
 20
802.677895414063
 30
0.0
 11
-815.71838897742
 21
767.677895414063
 31
0.0
  0
LINE
  5
17D
330
176
100
AcDbEntity
  8
AM_VIS
  6
AUSGEZOGEN
 62
     4
370
     0
100
AcDbLine
 10
-815.71838897742
 20
898.677895414063
 30
0.0
 11
-815.71838897742
 21
933.677895414063
 31
0.0
  0
LINE
  5
17E
330
176
100
AcDbEntity
  8
AM_VIS
  6
AUSGEZOGEN
 62
     4
370
     0
100
AcDbLine
 10
-815.71838897742
 20
898.677895414063
 30
0.0
 11
-815.71838897742
 21
1010.607509390154
 31
0.0
  0
LINE
  5
17F
330
176
100
AcDbEntity
  8
AM_VIS
  6
AUSGEZOGEN
 62
     4
370
     0
100
AcDbLine
 10
-788.308256402207
 20
863.677895414063
 30
0.0
 11
-835.71838897742
 21
863.677895414063
 31
0.0
  0
LINE
  5
180
330
176
100
AcDbEntity
  8
AM_VIS
  6
AUSGEZOGEN
 62
     4
370
     0
100
AcDbLine
 10
-788.308256402207
 20
837.677895414063
 30
0.0
 11
-835.71838897742
 21
837.677895414063
 31
0.0
  0
TEXT
  5
181
330
176
100
AcDbEntity
  8
AM_VIS
  6
AUSGEZOGEN
 62
     4
370
     0
100
AcDbText
 10
-830.71838897742
 20
915.207511678972
 30
0.0
 40
35.0
  1
%%c26
 50
90.0
 41
0.980859891386
  7
TFONT11
 72
     5
 11
-830.71838897742
 21
1003.607509390154
 31
0.0
100
AcDbText
  0
ENDBLK
  5
178
330
176
100
AcDbEntity
  8
0
100
AcDbBlockEnd
  0
BLOCK
  5
184
330
183
100
AcDbEntity
  8
0
100
AcDbBlockBegin
  2
*D2
 70
     1
 10
0.0
 20
0.0
 30
0.0
  3
*D2
  1

  0
HATCH
  5
186
330
183
100
AcDbEntity
  8
AM_VIS
  6
AUSGEZOGEN
 62
     4
370
     0
100
AcDbHatch
 10
0.0
 20
0.0
 30
0.0
210
0.0
220
0.0
230
1.0
  2
SOLID
 70
     1
 71
     0
 91
        1
 92
        2
 72
     0
 73
     1
 93
        3
 10
-753.3082564022067
 20
1480.107303455548
 10
-788.3082564022067
 20
1487.107303455548
 10
-788.3082564022067
 20
1473.107303455548
 97
        0
 75
     0
 76
     1
 98
        0
  0
HATCH
  5
187
330
183
100
AcDbEntity
  8
AM_VIS
  6
AUSGEZOGEN
 62
     4
370
     0
100
AcDbHatch
 10
0.0
 20
0.0
 30
0.0
210
0.0
220
0.0
230
1.0
  2
SOLID
 70
     1
 71
     0
 91
        1
 92
        2
 72
     0
 73
     1
 93
        3
 10
-738.3082564022067
 20
1480.107303455548
 10
-703.3082564022067
 20
1473.107303455548
 10
-703.3082564022067
 20
1487.107303455548
 97
        0
 75
     0
 76
     1
 98
        0
  0
LINE
  5
188
330
183
100
AcDbEntity
  8
AM_VIS
  6
AUSGEZOGEN
 62
     4
370
     0
100
AcDbLine
 10
-738.308256402207
 20
1480.107303455548
 30
0.0
 11
-753.308256402207
 21
1480.107303455548
 31
0.0
  0
LINE
  5
189
330
183
100
AcDbEntity
  8
AM_VIS
  6
AUSGEZOGEN
 62
     4
370
     0
100
AcDbLine
 10
-788.308256402207
 20
1480.107303455548
 30
0.0
 11
-823.308256402207
 21
1480.107303455548
 31
0.0
  0
LINE
  5
18A
330
183
100
AcDbEntity
  8
AM_VIS
  6
AUSGEZOGEN
 62
     4
370
     0
100
AcDbLine
 10
-703.308256402207
 20
1480.107303455548
 30
0.0
 11
-668.308256402207
 21
1480.107303455548
 31
0.0
  0
LINE
  5
18B
330
183
100
AcDbEntity
  8
AM_VIS
  6
AUSGEZOGEN
 62
     4
370
     0
100
AcDbLine
 10
-703.308256402207
 20
1480.107303455548
 30
0.0
 11
-626.571564271285
 21
1480.107303455548
 31
0.0
  0
LINE
  5
18C
330
183
100
AcDbEntity
  8
AM_VIS
  6
AUSGEZOGEN
 62
     4
370
     0
100
AcDbLine
 10
-738.308256402207
 20
1436.934433164477
 30
0.0
 11
-738.308256402207
 21
1500.107303455548
 31
0.0
  0
LINE
  5
18D
330
183
100
AcDbEntity
  8
AM_VIS
  6
AUSGEZOGEN
 62
     4
370
     0
100
AcDbLine
 10
-753.308256402207
 20
1436.934433164477
 30
0.0
 11
-753.308256402207
 21
1500.107303455548
 31
0.0
  0
TEXT
  5
18E
330
183
100
AcDbEntity
  8
AM_VIS
  6
AUSGEZOGEN
 62
     4
370
     0
100
AcDbText
 10
-690.171562745406
 20
1495.107303455548
 30
0.0
 40
35.0
  1
15
 41
1.080977816542
  7
TFONT11
 72
     5
 11
-633.571564271285
 21
1495.107303455548
 31
0.0
100
AcDbText
  0
ENDBLK
  5
185
330
183
100
AcDbEntity
  8
0
100
AcDbBlockEnd
  0
BLOCK
  5
191
330
190
100
AcDbEntity
  8
0
100
AcDbBlockBegin
  2
*D3
 70
     1
 10
0.0
 20
0.0
 30
0.0
  3
*D3
  1

  0
HATCH
  5
193
330
190
100
AcDbEntity
  8
AM_VIS
  6
AUSGEZOGEN
 62
     4
370
     0
100
AcDbHatch
 10
0.0
 20
0.0
 30
0.0
210
0.0
220
0.0
230
1.0
  2
SOLID
 70
     1
 71
     0
 91
        1
 92
        2
 72
     0
 73
     1
 93
        3
 10
-753.3082564022067
 20
1535.76260830863
 10
-718.3082564022067
 20
1528.76260830863
 10
-718.3082564022067
 20
1542.76260830863
 97
        0
 75
     0
 76
     1
 98
        0
  0
HATCH
  5
194
330
190
100
AcDbEntity
  8
AM_VIS
  6
AUSGEZOGEN
 62
     4
370
     0
100
AcDbHatch
 10
0.0
 20
0.0
 30
0.0
210
0.0
220
0.0
230
1.0
  2
SOLID
 70
     1
 71
     0
 91
        1
 92
        2
 72
     0
 73
     1
 93
        3
 10
-788.3082564022067
 20
1535.76260830863
 10
-823.3082564022067
 20
1542.76260830863
 10
-823.3082564022067
 20
1528.76260830863
 97
        0
 75
     0
 76
     1
 98
        0
  0
LINE
  5
195
330
190
100
AcDbEntity
  8
AM_VIS
  6
AUSGEZOGEN
 62
     4
370
     0
100
AcDbLine
 10
-788.308256402207
 20
1535.76260830863
 30
0.0
 11
-753.308256402207
 21
1535.76260830863
 31
0.0
  0
LINE
  5
196
330
190
100
AcDbEntity
  8
AM_VIS
  6
AUSGEZOGEN
 62
     4
370
     0
100
AcDbLine
 10
-718.308256402207
 20
1535.76260830863
 30
0.0
 11
-683.308256402207
 21
1535.76260830863
 31
0.0
  0
LINE
  5
197
330
190
100
AcDbEntity
  8
AM_VIS
  6
AUSGEZOGEN
 62
     4
370
     0
100
AcDbLine
 10
-823.308256402207
 20
1535.76260830863
 30
0.0
 11
-858.308256402207
 21
1535.76260830863
 31
0.0
  0
LINE
  5
198
330
190
100
AcDbEntity
  8
AM_VIS
  6
AUSGEZOGEN
 62
     4
370
     0
100
AcDbLine
 10
-718.308256402207
 20
1535.76260830863
 30
0.0
 11
-627.233691298102
 21
1535.76260830863
 31
0.0
  0
LINE
  5
199
330
190
100
AcDbEntity
  8
AM_VIS
  6
AUSGEZOGEN
 62
     4
370
     0
100
AcDbLine
 10
-788.308256402207
 20
1427.635999001685
 30
0.0
 11
-788.308256402207
 21
1555.76260830863
 31
0.0
  0
LINE
  5
19A
330
190
100
AcDbEntity
  8
AM_VIS
  6
AUSGEZOGEN
 62
     4
370
     0
100
AcDbLine
 10
-753.308256402207
 20
1436.934433164477
 30
0.0
 11
-753.308256402207
 21
1479.607303455548
 31
0.0
  0
LINE
  5
19B
330
190
100
AcDbEntity
  8
AM_VIS
  6
AUSGEZOGEN
 62
     4
370
     0
100
AcDbLine
 10
-753.308256402207
 20
1480.607303455548
 30
0.0
 11
-753.308256402207
 21
1555.76260830863
 31
0.0
  0
TEXT
  5
19C
330
190
100
AcDbEntity
  8
AM_VIS
  6
AUSGEZOGEN
 62
     4
370
     0
100
AcDbText
 10
-690.833689772223
 20
1550.76260830863
 30
0.0
 40
35.0
  1
35
 41
1.080977816542
  7
TFONT11
 72
     5
 11
-634.233691298102
 21
1550.76260830863
 31
0.0
100
AcDbText
  0
ENDBLK
  5
192
330
190
100
AcDbEntity
  8
0
100
AcDbBlockEnd
  0
BLOCK
  5
19F
330
19E
100
AcDbEntity
  8
0
100
AcDbBlockBegin
  2
*D4
 70
     1
 10
0.0
 20
0.0
 30
0.0
  3
*D4
  1

  0
HATCH
  5
1A1
330
19E
100
AcDbEntity
  8
AM_VIS
  6
AUSGEZOGEN
 62
     4
370
     0
100
AcDbHatch
 10
0.0
 20
0.0
 30
0.0
210
0.0
220
0.0
230
1.0
  2
SOLID
 70
     1
 71
     0
 91
        1
 92
        2
 72
     0
 73
     1
 93
        3
 10
-788.3082564022067
 20
1595.724573656295
 10
-823.3082564022067
 20
1602.724573656295
 10
-823.3082564022067
 20
1588.724573656295
 97
        0
 75
     0
 76
     1
 98
        0
  0
HATCH
  5
1A2
330
19E
100
AcDbEntity
  8
AM_VIS
  6
AUSGEZOGEN
 62
     4
370
     0
100
AcDbHatch
 10
0.0
 20
0.0
 30
0.0
210
0.0
220
0.0
230
1.0
  2
SOLID
 70
     1
 71
     0
 91
        1
 92
        2
 72
     0
 73
     1
 93
        3
 10
-738.3082564022067
 20
1595.724573656295
 10
-703.3082564022067
 20
1588.724573656295
 10
-703.3082564022067
 20
1602.724573656295
 97
        0
 75
     0
 76
     1
 98
        0
  0
LINE
  5
1A3
330
19E
100
AcDbEntity
  8
AM_VIS
  6
AUSGEZOGEN
 62
     4
370
     0
100
AcDbLine
 10
-738.308256402207
 20
1595.724573656295
 30
0.0
 11
-788.308256402207
 21
1595.724573656295
 31
0.0
  0
LINE
  5
1A4
330
19E
100
AcDbEntity
  8
AM_VIS
  6
AUSGEZOGEN
 62
     4
370
     0
100
AcDbLine
 10
-823.308256402207
 20
1595.724573656295
 30
0.0
 11
-858.308256402207
 21
1595.724573656295
 31
0.0
  0
LINE
  5
1A5
330
19E
100
AcDbEntity
  8
AM_VIS
  6
AUSGEZOGEN
 62
     4
370
     0
100
AcDbLine
 10
-703.308256402207
 20
1595.724573656295
 30
0.0
 11
-668.308256402207
 21
1595.724573656295
 31
0.0
  0
LINE
  5
1A6
330
19E
100
AcDbEntity
  8
AM_VIS
  6
AUSGEZOGEN
 62
     4
370
     0
100
AcDbLine
 10
-703.308256402207
 20
1595.724573656295
 30
0.0
 11
-626.571564271285
 21
1595.724573656295
 31
0.0
  0
LINE
  5
1A7
330
19E
100
AcDbEntity
  8
AM_VIS
  6
AUSGEZOGEN
 62
     4
370
     0
100
AcDbLine
 10
-738.308256402207
 20
1436.934433164477
 30
0.0
 11
-738.308256402207
 21
1479.607303455548
 31
0.0
  0
LINE
  5
1A8
330
19E
100
AcDbEntity
  8
AM_VIS
  6
AUSGEZOGEN
 62
     4
370
     0
100
AcDbLine
 10
-738.308256402207
 20
1480.607303455548
 30
0.0
 11
-738.308256402207
 21
1615.724573656295
 31
0.0
  0
LINE
  5
1A9
330
19E
100
AcDbEntity
  8
AM_VIS
  6
AUSGEZOGEN
 62
     4
370
     0
100
AcDbLine
 10
-788.308256402207
 20
1427.635999001685
 30
0.0
 11
-788.308256402207
 21
1535.26260830863
 31
0.0
  0
LINE
  5
1AA
330
19E
100
AcDbEntity
  8
AM_VIS
  6
AUSGEZOGEN
 62
     4
370
     0
100
AcDbLine
 10
-788.308256402207
 20
1536.26260830863
 30
0.0
 11
-788.308256402207
 21
1615.724573656295
 31
0.0
  0
TEXT
  5
1AB
330
19E
100
AcDbEntity
  8
AM_VIS
  6
AUSGEZOGEN
 62
     4
370
     0
100
AcDbText
 10
-690.171562745406
 20
1610.724573656295
 30
0.0
 40
35.0
  1
50
 41
1.088985059627
  7
TFONT11
 72
     5
 11
-633.571564271285
 21
1610.724573656295
 31
0.0
100
AcDbText
  0
ENDBLK
  5
1A0
330
19E
100
AcDbEntity
  8
0
100
AcDbBlockEnd
  0
BLOCK
  5
1AE
330
1AD
100
AcDbEntity
  8
0
100
AcDbBlockBegin
  2
*D5
 70
     1
 10
0.0
 20
0.0
 30
0.0
  3
*D5
  1

  0
HATCH
  5
1B0
330
1AD
100
AcDbEntity
  8
AM_VIS
  6
AUSGEZOGEN
 62
     4
370
     0
100
AcDbHatch
 10
0.0
 20
0.0
 30
0.0
210
0.0
220
0.0
230
1.0
  2
SOLID
 70
     1
 71
     0
 91
        1
 92
        2
 72
     0
 73
     1
 93
        3
 10
-1103.14479259732
 20
1479.270756166758
 10
-1068.14479259732
 20
1472.270756166758
 10
-1068.14479259732
 20
1486.270756166758
 97
        0
 75
     0
 76
     1
 98
        0
  0
HATCH
  5
1B1
330
1AD
100
AcDbEntity
  8
AM_VIS
  6
AUSGEZOGEN
 62
     4
370
     0
100
AcDbHatch
 10
0.0
 20
0.0
 30
0.0
210
0.0
220
0.0
230
1.0
  2
SOLID
 70
     1
 71
     0
 91
        1
 92
        2
 72
     0
 73
     1
 93
        3
 10
-858.1995066821544
 20
1479.270756166758
 10
-893.1995066821544
 20
1486.270756166758
 10
-893.1995066821544
 20
1472.270756166758
 97
        0
 75
     0
 76
     1
 98
        0
  0
LINE
  5
1B2
330
1AD
100
AcDbEntity
  8
AM_VIS
  6
AUSGEZOGEN
 62
     4
370
     0
100
AcDbLine
 10
-893.199506682154
 20
1479.270756166758
 30
0.0
 11
-1068.14479259732
 21
1479.270756166758
 31
0.0
  0
LINE
  5
1B3
330
1AD
100
AcDbEntity
  8
AM_VIS
  6
AUSGEZOGEN
 62
     4
370
     0
100
AcDbLine
 10
-858.199506682154
 20
1045.588674646719
 30
0.0
 11
-858.199506682154
 21
1499.270756166758
 31
0.0
  0
LINE
  5
1B4
330
1AD
100
AcDbEntity
  8
AM_VIS
  6
AUSGEZOGEN
 62
     4
370
     0
100
AcDbLine
 10
-1103.14479259732
 20
953.741624431089
 30
0.0
 11
-1103.14479259732
 21
1499.270756166758
 31
0.0
  0
TEXT
  5
1B5
330
1AD
100
AcDbEntity
  8
AM_VIS
  6
AUSGEZOGEN
 62
     4
370
     0
100
AcDbText
 10
-1024.872148495328
 20
1494.270756166758
 30
0.0
 40
35.0
  1
250
 41
1.117078381389
  7
TFONT11
 72
     5
 11
-936.472150784146
 21
1494.270756166758
 31
0.0
100
AcDbText
  0
ENDBLK
  5
1AF
330
1AD
100
AcDbEntity
  8
0
100
AcDbBlockEnd
  0
BLOCK
  5
1B8
330
1B7
100
AcDbEntity
  8
0
100
AcDbBlockBegin
  2
*D6
 70
     1
 10
0.0
 20
0.0
 30
0.0
  3
*D6
  1

  0
HATCH
  5
1BA
330
1B7
100
AcDbEntity
  8
AM_VIS
  6
AUSGEZOGEN
 62
     4
370
     0
100
AcDbHatch
 10
0.0
 20
0.0
 30
0.0
210
0.0
220
0.0
230
1.0
  2
SOLID
 70
     1
 71
     0
 91
        1
 92
        2
 72
     0
 73
     1
 93
        3
 10
-1174.56702682757
 20
810.973791355081
 10
-1174.061753359583
 20
846.6633514353418
 10
-1187.827374426452
 20
844.1123366091629
 97
        0
 75
     0
 76
     1
 98
        0
  0
HATCH
  5
1BB
330
1B7
100
AcDbEntity
  8
AM_VIS
  6
AUSGEZOGEN
 62
     4
370
     0
100
AcDbHatch
 10
0.0
 20
0.0
 30
0.0
210
0.0
220
0.0
230
1.0
  2
SOLID
 70
     1
 71
     0
 91
        1
 92
        2
 72
     0
 73
     1
 93
        3
 10
-1279.078510661624
 20
1374.931894942703
 10
-1279.583784129611
 20
1339.242334862442
 10
-1265.818163062743
 20
1341.793349688621
 97
        0
 75
     0
 76
     1
 98
        0
  0
LINE
  5
1BC
330
1B7
100
AcDbEntity
  8
AM_VIS
  6
AUSGEZOGEN
 62
     4
370
     0
100
AcDbLine
 10
-1272.700973596177
 20
1340.517842275531
 30
0.0
 11
-1180.944563893017
 21
845.387844022252
 31
0.0
  0
LINE
  5
1BD
330
1B7
100
AcDbEntity
  8
AM_VIS
  6
AUSGEZOGEN
 62
     4
370
     0
100
AcDbLine
 10
-1064.829794555913
 20
1414.635999001684
 30
0.0
 11
-1070.729346441712
 21
1413.542706933322
 31
0.0
  0
LINE
  5
1BE
330
1B7
100
AcDbEntity
  8
AM_VIS
  6
AUSGEZOGEN
 62
     4
370
     0
100
AcDbLine
 10
-1071.712605089346
 20
1413.360491588595
 30
0.0
 11
-1074.170751708429
 21
1412.904953226777
 31
0.0
  0
LINE
  5
1BF
330
1B7
100
AcDbEntity
  8
AM_VIS
  6
AUSGEZOGEN
 62
     4
370
     0
100
AcDbLine
 10
-1075.154010356063
 20
1412.72273788205
 30
0.0
 11
-1089.410340804873
 21
1410.080785865127
 31
0.0
  0
LINE
  5
1C0
330
1B7
100
AcDbEntity
  8
AM_VIS
  6
AUSGEZOGEN
 62
     4
370
     0
100
AcDbLine
 10
-1090.393599452506
 20
1409.8985705204
 30
0.0
 11
-1298.743683614293
 21
1371.287588048162
 31
0.0
  0
LINE
  5
1C1
330
1B7
100
AcDbEntity
  8
AM_VIS
  6
AUSGEZOGEN
 62
     4
370
     0
100
AcDbLine
 10
-960.318310721859
 20
850.677895414062
 30
0.0
 11
-966.217862607659
 21
849.5846033457
 31
0.0
  0
LINE
  5
1C2
330
1B7
100
AcDbEntity
  8
AM_VIS
  6
AUSGEZOGEN
 62
     4
370
     0
100
AcDbLine
 10
-967.201121255292
 20
849.402388000973
 30
0.0
 11
-969.659267874376
 21
848.946849639156
 31
0.0
  0
LINE
  5
1C3
330
1B7
100
AcDbEntity
  8
AM_VIS
  6
AUSGEZOGEN
 62
     4
370
     0
100
AcDbLine
 10
-970.642526522009
 20
848.764634294429
 30
0.0
 11
-986.273006912945
 21
845.868027811954
 31
0.0
  0
LINE
  5
1C4
330
1B7
100
AcDbEntity
  8
AM_VIS
  6
AUSGEZOGEN
 62
     4
370
     0
100
AcDbLine
 10
-987.256265560579
 20
845.685812467227
 30
0.0
 11
-1173.962236906713
 21
811.085869702097
 31
0.0
  0
LINE
  5
1C5
330
1B7
100
AcDbEntity
  8
AM_VIS
  6
AUSGEZOGEN
 62
     4
370
     0
100
AcDbLine
 10
-1174.945495554347
 20
810.90365435737
 30
0.0
 11
-1194.23219978024
 21
807.32948446054
 31
0.0
  0
TEXT
  5
1C6
330
1B7
100
AcDbEntity
  8
AM_VIS
  6
AUSGEZOGEN
 62
     4
370
     0
100
AcDbText
 10
-1220.127807058503
 20
1139.146104419947
 30
0.0
 40
35.0
  1
580
 50
280.498824037939
 41
1.117078381389
  7
TFONT11
 72
     5
 11
-1204.019971001688
 21
1052.226042219649
 31
0.0
100
AcDbText
  0
ENDBLK
  5
1B9
330
1B7
100
AcDbEntity
  8
0
100
AcDbBlockEnd
  0
BLOCK
  5
1C9
330
1C8
100
AcDbEntity
  8
0
100
AcDbBlockBegin
  2
*D7
 70
     1
 10
0.0
 20
0.0
 30
0.0
  3
*D7
  1

  0
HATCH
  5
1CB
330
1C8
100
AcDbEntity
  8
AM_VIS
  6
AUSGEZOGEN
 62
     4
370
     0
100
AcDbHatch
 10
0.0
 20
0.0
 30
0.0
210
0.0
220
0.0
230
1.0
  2
SOLID
 70
     1
 71
     0
 91
        1
 92
        2
 72
     0
 73
     1
 93
        3
 10
-1071.965350064583
 20
257.9528656173565
 10
-1071.460076596596
 20
293.6424256976173
 10
-1085.225697663465
 20
291.0914108714385
 97
        0
 75
     0
 76
     1
 98
        0
  0
HATCH
  5
1CC
330
1C8
100
AcDbEntity
  8
AM_VIS
  6
AUSGEZOGEN
 62
     4
370
     0
100
AcDbHatch
 10
0.0
 20
0.0
 30
0.0
210
0.0
220
0.0
230
1.0
  2
SOLID
 70
     1
 71
     0
 91
        1
 92
        2
 72
     0
 73
     1
 93
        3
 10
-1174.45386623053
 20
810.9947620297348
 10
-1174.959139698517
 20
775.3052019494739
 10
-1161.193518631649
 20
777.8562167756529
 97
        0
 75
     0
 76
     1
 98
        0
  0
LINE
  5
1CD
330
1C8
100
AcDbEntity
  8
AM_VIS
  6
AUSGEZOGEN
 62
     4
370
     0
100
AcDbLine
 10
-1168.076329165083
 20
776.580709362563
 30
0.0
 11
-1078.342887130031
 21
292.366918284528
 31
0.0
  0
LINE
  5
1CE
330
1C8
100
AcDbEntity
  8
AM_VIS
  6
AUSGEZOGEN
 62
     4
370
     0
100
AcDbLine
 10
-960.31831072186
 20
850.677895414063
 30
0.0
 11
-966.217862607659
 21
849.584603345701
 31
0.0
  0
LINE
  5
1CF
330
1C8
100
AcDbEntity
  8
AM_VIS
  6
AUSGEZOGEN
 62
     4
370
     0
100
AcDbLine
 10
-967.201121255292
 20
849.402388000974
 30
0.0
 11
-969.659267874376
 21
848.946849639157
 31
0.0
  0
LINE
  5
1D0
330
1C8
100
AcDbEntity
  8
AM_VIS
  6
AUSGEZOGEN
 62
     4
370
     0
100
AcDbLine
 10
-970.642526522009
 20
848.764634294429
 30
0.0
 11
-986.273006912947
 21
845.868027811955
 31
0.0
  0
LINE
  5
1D1
330
1C8
100
AcDbEntity
  8
AM_VIS
  6
AUSGEZOGEN
 62
     4
370
     0
100
AcDbLine
 10
-987.25626556058
 20
845.685812467228
 30
0.0
 11
-1174.075397503754
 21
811.064899027445
 31
0.0
  0
LINE
  5
1D2
330
1C8
100
AcDbEntity
  8
AM_VIS
  6
AUSGEZOGEN
 62
     4
370
     0
100
AcDbLine
 10
-1175.058656151387
 20
810.882683682718
 30
0.0
 11
-1194.119039183199
 21
807.350455135194
 31
0.0
  0
LINE
  5
1D3
330
1C8
100
AcDbEntity
  8
AM_VIS
  6
AUSGEZOGEN
 62
     4
370
     0
100
AcDbLine
 10
-857.829794555912
 20
297.635999001685
 30
0.0
 11
-863.729346441712
 21
296.542706933323
 31
0.0
  0
LINE
  5
1D4
330
1C8
100
AcDbEntity
  8
AM_VIS
  6
AUSGEZOGEN
 62
     4
370
     0
100
AcDbLine
 10
-864.712605089346
 20
296.360491588596
 30
0.0
 11
-867.170751708429
 21
295.904953226778
 31
0.0
  0
LINE
  5
1D5
330
1C8
100
AcDbEntity
  8
AM_VIS
  6
AUSGEZOGEN
 62
     4
370
     0
100
AcDbLine
 10
-868.154010356063
 20
295.722737882051
 30
0.0
 11
-897.394319870255
 21
290.303987596073
 31
0.0
  0
LINE
  5
1D6
330
1C8
100
AcDbEntity
  8
AM_VIS
  6
AUSGEZOGEN
 62
     4
370
     0
100
AcDbLine
 10
-898.377578517888
 20
290.121772251346
 30
0.0
 11
-1091.630523017253
 21
254.308558722815
 31
0.0
  0
TEXT
  5
1D7
330
1C8
100
AcDbEntity
  8
AM_VIS
  6
AUSGEZOGEN
 62
     4
370
     0
100
AcDbText
 10
-1116.514646461462
 20
580.667075094601
 30
0.0
 40
35.0
  1
540
 50
280.498824037939
 41
1.117078381389
  7
TFONT11
 72
     5
 11
-1100.406810404648
 21
493.747012894302
 31
0.0
100
AcDbText
  0
ENDBLK
  5
1CA
330
1C8
100
AcDbEntity
  8
0
100
AcDbBlockEnd
  0
ENDSEC
  0
SECTION
  2
ENTITIES
  0
LINE
  5
12D
330
1F
100
AcDbEntity
  8
AM_7
  6
AUSGEZOGEN
 62
     2
370
     0
100
AcDbLine
 10
-857.829794555911
 20
297.635999001685
 30
0.0
 11
-857.829794555911
 21
297.635999001685
 31
0.0
  0
LINE
  5
12E
330
1F
100
AcDbEntity
  8
AM_7
  6
AUSGEZOGEN
 62
     2
370
     0
100
AcDbLine
 10
-857.829794555911
 20
297.635999001685
 30
0.0
 11
-857.829794555911
 21
297.635999001685
 31
0.0
  0
LINE
  5
12F
330
1F
100
AcDbEntity
  8
AM_7
  6
MegaCAD_LTYPE4
 62
     6
370
     0
100
AcDbLine
 10
-870.829794555911
 20
297.635999001685
 30
0.0
 11
-857.829794555911
 21
297.635999001685
 31
0.0
  0
LINE
  5
130
330
1F
100
AcDbEntity
  8
AM_7
  6
MegaCAD_LTYPE4
 62
     6
370
     0
100
AcDbLine
 10
-857.829794555911
 20
297.635999001685
 30
0.0
 11
-844.829794555911
 21
297.635999001685
 31
0.0
  0
LINE
  5
131
330
1F
100
AcDbEntity
  8
AM_7
  6
MegaCAD_LTYPE4
 62
     6
370
     0
100
AcDbLine
 10
-857.829794555911
 20
284.635999001685
 30
0.0
 11
-857.829794555911
 21
297.635999001685
 31
0.0
  0
LINE
  5
132
330
1F
100
AcDbEntity
  8
AM_7
  6
MegaCAD_LTYPE4
 62
     6
370
     0
100
AcDbLine
 10
-857.829794555911
 20
297.635999001685
 30
0.0
 11
-857.829794555911
 21
310.635999001685
 31
0.0
  0
LINE
  5
133
330
1F
100
AcDbEntity
  8
AM_7
  6
AUSGEZOGEN
 62
     2
370
     0
100
AcDbLine
 10
-1064.829794555911
 20
1414.635999001685
 30
0.0
 11
-1064.829794555911
 21
1414.635999001685
 31
0.0
  0
LINE
  5
134
330
1F
100
AcDbEntity
  8
AM_7
  6
AUSGEZOGEN
 62
     2
370
     0
100
AcDbLine
 10
-1064.829794555911
 20
1414.635999001685
 30
0.0
 11
-1064.829794555911
 21
1414.635999001685
 31
0.0
  0
LINE
  5
135
330
1F
100
AcDbEntity
  8
AM_7
  6
MegaCAD_LTYPE4
 62
     6
370
     0
100
AcDbLine
 10
-1077.829794555911
 20
1414.635999001685
 30
0.0
 11
-1064.829794555911
 21
1414.635999001685
 31
0.0
  0
LINE
  5
136
330
1F
100
AcDbEntity
  8
AM_7
  6
MegaCAD_LTYPE4
 62
     6
370
     0
100
AcDbLine
 10
-1064.829794555911
 20
1414.635999001685
 30
0.0
 11
-1051.829794555911
 21
1414.635999001685
 31
0.0
  0
LINE
  5
137
330
1F
100
AcDbEntity
  8
AM_7
  6
MegaCAD_LTYPE4
 62
     6
370
     0
100
AcDbLine
 10
-1064.829794555911
 20
1401.635999001685
 30
0.0
 11
-1064.829794555911
 21
1414.635999001685
 31
0.0
  0
LINE
  5
138
330
1F
100
AcDbEntity
  8
AM_7
  6
MegaCAD_LTYPE4
 62
     6
370
     0
100
AcDbLine
 10
-1064.829794555911
 20
1414.635999001685
 30
0.0
 11
-1064.829794555911
 21
1427.635999001685
 31
0.0
  0
LINE
  5
139
330
1F
100
AcDbEntity
  8
AM_VIS
  6
AUSGEZOGEN
 62
     2
370
     0
100
AcDbLine
 10
-1034.884380991803
 20
617.029572311612
 30
0.0
 11
-1090.584133458313
 21
655.580761432142
 31
0.0
  0
LWPOLYLINE
  5
13A
330
1F
100
AcDbEntity
  8
AM_VIS
  6
AUSGEZOGEN
 62
     2
370
     0
100
AcDbPolyline
 90
       65
 70
     0
 43
0.0
 10
-840.016622731658
 20
251.47733928874
 10
-839.897420608126
 20
251.450645385934
 10
-839.777728002632
 20
251.426890433866
 10
-839.657599121672
 20
251.406076921918
 10
-839.537088171741
 20
251.388207339476
 10
-839.416249359338
 20
251.373284175924
 10
-839.295136890957
 20
251.361309920645
 10
-839.173804973097
 20
251.352287063023
 10
-839.052307812252
 20
251.346218092444
 10
-838.930699614921
 20
251.34310549829
 10
-838.809034587599
 20
251.342951769947
 10
-838.687366936784
 20
251.345759396797
 10
-838.56575086897
 20
251.351530868225
 10
-838.444240590656
 20
251.360268673616
 10
-838.322890308338
 20
251.371975302353
 10
-838.201754228512
 20
251.38665324382
 10
-838.080886557675
 20
251.404304987401
 10
-837.960761544329
 20
251.424856006655
 10
-837.841298964261
 20
251.4483054074
 10
-837.722549559651
 20
251.474634808873
 10
-837.604564072683
 20
251.503825830315
 10
-837.487393245537
 20
251.535860090962
 10
-837.371087820396
 20
251.570719210055
 10
-837.25569853944
 20
251.608384806831
 10
-837.141276144851
 20
251.648838500529
 10
-837.027871378812
 20
251.692061910388
 10
-836.915534983503
 20
251.738036655646
 10
-836.804317701106
 20
251.786744355542
 10
-836.694270273803
 20
251.838166629314
 10
-836.585443443776
 20
251.892285096202
 10
-836.477887953205
 20
251.949081375442
 10
-836.371654544274
 20
252.008537086275
 10
-836.266793959162
 20
252.070633847938
 10
-836.163587160347
 20
252.135205411264
 10
-836.062092725174
 20
252.202204371321
 10
-835.962350278243
 20
252.271594299304
 10
-835.864399444159
 20
252.343338766404
 10
-835.768279847522
 20
252.417401343814
 10
-835.674031112935
 20
252.493745602728
 10
-835.581692865
 20
252.572335114338
 10
-835.49130472832
 20
252.653133449836
 10
-835.402906327496
 20
252.736104180416
 10
-835.31653728713
 20
252.82121087727
 10
-835.232237231826
 20
252.908417111591
 10
-835.150045786185
 20
252.997686454572
 10
-835.07000257481
 20
253.088982477406
 10
-834.992147222302
 20
253.182268751285
 10
-834.916519353264
 20
253.277508847402
 10
-834.843158592297
 20
253.37466633695
 10
-834.741692492486
 20
253.517706379988
 10
-834.645400038749
 20
253.664084306975
 10
-834.554356791361
 20
253.813657583891
 10
-834.468638310593
 20
253.966283676717
 10
-834.38832015672
 20
254.121820051433
 10
-834.313477890014
 20
254.280124174018
 10
-834.244187070749
 20
254.441053510454
 10
-834.180523259198
 20
254.60446552672
 10
-834.122599356803
 20
254.770104679785
 10
-834.070568482195
 20
254.937519258023
 10
-834.024463515679
 20
255.106551230224
 10
-833.984317337557
 20
255.277042565178
 10
-833.950162828132
 20
255.448835231674
 10
-833.922032867707
 20
255.621771198502
 10
-833.899960336586
 20
255.795692434451
 10
-833.883978115071
 20
255.970440908312
  0
LWPOLYLINE
  5
13B
330
1F
100
AcDbEntity
  8
AM_VIS
  6
AUSGEZOGEN
 62
     2
370
     0
100
AcDbPolyline
 90
       49
 70
     0
 43
0.0
 10
-899.190262783995
 20
283.142239394118
 10
-899.212234062689
 20
283.022275338734
 10
-899.231253573963
 20
282.901936978725
 10
-899.247321214846
 20
282.781278410552
 10
-899.260436882367
 20
282.660353730673
 10
-899.270600473555
 20
282.539217035549
 10
-899.277811885438
 20
282.417922421637
 10
-899.282071015046
 20
282.296523985399
 10
-899.283377759406
 20
282.175075823294
 10
-899.281732015547
 20
282.053632031781
 10
-899.277133680499
 20
281.932246707319
 10
-899.269582651289
 20
281.810973946369
 10
-899.259078824947
 20
281.689867845389
 10
-899.245622098502
 20
281.568982500839
 10
-899.229212368981
 20
281.448372009179
 10
-899.209849533414
 20
281.328090466868
 10
-899.187533488829
 20
281.208191970365
 10
-899.163839856147
 20
281.095778877917
 10
-899.137592129354
 20
280.984044300519
 10
-899.108807098183
 20
280.873030277731
 10
-899.077501552366
 20
280.762778849117
 10
-899.043692281634
 20
280.653332054237
 10
-899.007396075721
 20
280.544731932655
 10
-898.968629724357
 20
280.437020523931
 10
-898.927410017276
 20
280.330239867629
 10
-898.883753744208
 20
280.224432003309
 10
-898.837677694885
 20
280.119638970535
 10
-898.789198659041
 20
280.015902808867
 10
-898.738333426407
 20
279.913265557867
 10
-898.685098786714
 20
279.811769257099
 10
-898.629511529695
 20
279.711455946123
 10
-898.571588445082
 20
279.612367664501
 10
-898.511346322607
 20
279.514546451796
 10
-898.448858490911
 20
279.418119485933
 10
-898.384229861195
 20
279.323243115696
 10
-898.317491307323
 20
279.229950448159
 10
-898.248673703158
 20
279.138274590395
 10
-898.177807922567
 20
279.04824864948
 10
-898.104924839412
 20
278.959905732485
 10
-898.03005532756
 20
278.873278946485
 10
-897.953230260873
 20
278.788401398554
 10
-897.874480513218
 20
278.705306195766
 10
-897.793836958457
 20
278.624026445193
 10
-897.711330470457
 20
278.54459525391
 10
-897.626991923081
 20
278.46704572899
 10
-897.540852190194
 20
278.391410977508
 10
-897.452942145659
 20
278.317724106536
 10
-897.363292663343
 20
278.246018223149
 10
-897.27193461711
 20
278.17632643442
  0
LINE
  5
13C
330
1F
100
AcDbEntity
  8
AM_VIS
  6
AUSGEZOGEN
 62
     2
370
     0
100
AcDbLine
 10
-877.037782018167
 20
747.628871527964
 30
0.0
 11
-942.984309742224
 21
724.062001384876
 31
0.0
  0
LWPOLYLINE
  5
13D
330
1F
100
AcDbEntity
  8
AM_VIS
  6
AUSGEZOGEN
 62
     2
370
     0
100
AcDbPolyline
 90
       54
 70
     0
 43
0.0
 10
-920.445295811055
 20
1096.857812344076
 10
-924.385201893283
 20
1105.692156129367
 10
-928.366684481394
 20
1114.508600117682
 10
-932.389605367711
 20
1123.306868068066
 10
-936.453826344557
 20
1132.086683739564
 10
-940.559209204254
 20
1140.847770891221
 10
-944.705615739124
 20
1149.589853282082
 10
-948.89290774149
 20
1158.312654671193
 10
-953.120947003674
 20
1167.015898817599
 10
-957.389595317999
 20
1175.699309480345
 10
-961.698714476788
 20
1184.362610418476
 10
-966.048166272362
 20
1193.005525391037
 10
-970.437812497044
 20
1201.627778157074
 10
-974.867514943157
 20
1210.229092475631
 10
-979.337135403023
 20
1218.809192105754
 10
-983.846535668965
 20
1227.367800806487
 10
-988.395577533305
 20
1235.904642336877
 10
-992.984122788365
 20
1244.419440455968
 10
-997.612033226468
 20
1252.911918922805
 10
-1002.279170639936
 20
1261.381801496434
 10
-1006.985396821093
 20
1269.8288119359
 10
-1009.160236080295
 20
1273.701173170384
 10
-1011.343415182232
 20
1277.568909585305
 10
-1013.53491879425
 20
1281.431995466895
 10
-1015.734731583691
 20
1285.290405101386
 10
-1017.942838217902
 20
1289.144112775012
 10
-1020.159223364225
 20
1292.993092774005
 10
-1022.383871690006
 20
1296.837319384599
 10
-1024.616767862589
 20
1300.676766893027
 10
-1026.857896549319
 20
1304.511409585521
 10
-1029.10724241754
 20
1308.341221748314
 10
-1031.364790134596
 20
1312.16617766764
 10
-1033.630524367832
 20
1315.986251629732
 10
-1035.904429784592
 20
1319.801417920822
 10
-1038.186491052222
 20
1323.611650827143
 10
-1040.476692838064
 20
1327.416924634928
 10
-1042.775019809464
 20
1331.217213630411
 10
-1045.081456633767
 20
1335.012492099824
 10
-1047.395987978316
 20
1338.802734329401
 10
-1049.718598510456
 20
1342.587914605373
 10
-1052.049272897532
 20
1346.368007213975
 10
-1053.607231891546
 20
1348.884753648995
 10
-1055.168791445863
 20
1351.399271937992
 10
-1056.733946821349
 20
1353.911554600846
 10
-1058.30269327887
 20
1356.421594157441
 10
-1059.875026079292
 20
1358.929383127657
 10
-1061.450940483481
 20
1361.434914031378
 10
-1063.030431752304
 20
1363.938179388485
 10
-1064.613495146626
 20
1366.439171718861
 10
-1066.200125927313
 20
1368.937883542389
 10
-1067.79031935523
 20
1371.434307378949
 10
-1069.118172781028
 20
1373.512867210329
 10
-1070.448501314057
 20
1375.589840304016
 10
-1071.081256578118
 20
1376.575140476942
  0
LWPOLYLINE
  5
13E
330
1F
100
AcDbEntity
  8
AM_VIS
  6
AUSGEZOGEN
 62
     2
370
     0
100
AcDbPolyline
 90
       52
 70
     0
 43
0.0
 10
-1028.497441868115
 20
1405.510691218471
 10
-1026.951919581723
 20
1402.922471038563
 10
-1025.269779371964
 20
1400.096101517183
 10
-1023.591729457558
 20
1397.267220054732
 10
-1021.917801316471
 20
1394.435879359603
 10
-1020.248000135543
 20
1391.60208826104
 10
-1018.582331101613
 20
1388.765855588286
 10
-1016.920799401521
 20
1385.927190170587
 10
-1015.263410222107
 20
1383.086100837187
 10
-1013.61016875021
 20
1380.24259641733
 10
-1011.96108017267
 20
1377.396685740261
 10
-1010.316149676326
 20
1374.548377635223
 10
-1008.101700196532
 20
1370.69867804435
 10
-1005.894799650668
 20
1366.844547473272
 10
-1003.695460266873
 20
1362.986007989488
 10
-1001.503694273286
 20
1359.123081660498
 10
-999.319513898047
 20
1355.255790553801
 10
-997.142931369295
 20
1351.3841567369
 10
-994.973958915168
 20
1347.508202277293
 10
-992.812608763807
 20
1343.627949242481
 10
-990.658893143349
 20
1339.743419699964
 10
-988.512824281935
 20
1335.854635717242
 10
-986.374414407704
 20
1331.961619361815
 10
-984.243675748794
 20
1328.064392701184
 10
-982.120620533346
 20
1324.162977802849
 10
-980.005260989497
 20
1320.257396734309
 10
-977.897609345387
 20
1316.347671563066
 10
-975.797677829156
 20
1312.433824356618
 10
-973.705478668943
 20
1308.515877182468
 10
-971.621024092886
 20
1304.593852108114
 10
-969.544326329125
 20
1300.667771201057
 10
-967.4753976058
 20
1296.737656528796
 10
-962.98602345894
 20
1288.144336582996
 10
-958.533307432311
 20
1279.530983175081
 10
-954.117361353438
 20
1270.897833499827
 10
-949.73829704985
 20
1262.245124752007
 10
-945.396226349073
 20
1253.573094126396
 10
-941.091261078635
 20
1244.881978817767
 10
-936.823513066062
 20
1236.172016020895
 10
-932.593094138882
 20
1227.443442930554
 10
-928.400116124623
 20
1218.696496741519
 10
-924.244690850811
 20
1209.931414648562
 10
-920.126930144973
 20
1201.148433846459
 10
-916.046945834636
 20
1192.347791529984
 10
-912.004849747329
 20
1183.529724893911
 10
-908.000753710577
 20
1174.694471133014
 10
-904.034769551908
 20
1165.842267442067
 10
-900.107009098849
 20
1156.973351015844
 10
-896.217584178928
 20
1148.087959049119
 10
-892.366606619672
 20
1139.186328736668
 10
-888.554188248607
 20
1130.268697273263
 10
-884.780440893261
 20
1121.335301853679
  0
CIRCLE
  5
13F
330
1F
100
AcDbEntity
  8
AM_HID
  6
AUSGEZOGEN
 62
     2
370
     0
100
AcDbCircle
 10
-857.829794555911
 20
297.635999001685
 30
0.0
 40
10.0
  0
CIRCLE
  5
140
330
1F
100
AcDbEntity
  8
AM_HID
  6
AUSGEZOGEN
 62
     2
370
     0
100
AcDbCircle
 10
-857.829794555911
 20
297.635999001685
 30
0.0
 40
6.499999999999999
  0
CIRCLE
  5
141
330
1F
100
AcDbEntity
  8
AM_HID
  6
AUSGEZOGEN
 62
     2
370
     0
100
AcDbCircle
 10
-1064.829794555911
 20
1414.635999001685
 30
0.0
 40
10.0
  0
CIRCLE
  5
142
330
1F
100
AcDbEntity
  8
AM_HID
  6
AUSGEZOGEN
 62
     2
370
     0
100
AcDbCircle
 10
-1064.829794555911
 20
1414.635999001685
 30
0.0
 40
6.499999999999999
  0
ARC
  5
143
330
1F
100
AcDbEntity
  8
AM_VIS
  6
AUSGEZOGEN
 62
     2
370
     0
100
AcDbCircle
 10
-1222.204914277036
 20
346.384033901319
 30
0.0
 40
329.1473676815019
100
AcDbArc
 50
348.922404442226
 51
55.31192453203
  0
ARC
  5
144
330
1F
100
AcDbEntity
  8
AM_VIS
  6
AUSGEZOGEN
 62
     2
370
     0
100
AcDbCircle
 10
-1073.749794555911
 20
679.903448518901
 30
0.0
 40
29.58019731849799
100
AcDbArc
 50
114.131305884319
 51
235.311924532029
  0
ARC
  5
145
330
1F
100
AcDbEntity
  8
AM_VIS
  6
AUSGEZOGEN
 62
     2
370
     0
100
AcDbCircle
 10
-612.429539972944
 20
-349.880983386697
 30
0.0
 40
1157.973902318498
100
AcDbArc
 50
104.729599738173
 51
114.131305884321
  0
ARC
  5
146
330
1F
100
AcDbEntity
  8
AM_VIS
  6
AUSGEZOGEN
 62
     2
370
     0
100
AcDbCircle
 10
-908.994020026996
 20
778.180976008219
 30
0.0
 40
8.419802681502004
100
AcDbArc
 50
284.729599738178
 51
54.841430442793
  0
ARC
  5
147
330
1F
100
AcDbEntity
  8
AM_VIS
  6
AUSGEZOGEN
 62
     2
370
     0
100
AcDbCircle
 10
564.711392171542
 20
2870.501951526258
 30
0.0
 40
2550.801701318499
100
AcDbArc
 50
229.457883699285
 51
234.841430442794
  0
ARC
  5
148
330
1F
100
AcDbEntity
  8
AM_VIS
  6
AUSGEZOGEN
 62
     2
370
     0
100
AcDbCircle
 10
-1074.749794555911
 20
953.794271034987
 30
0.0
 40
28.58019731849799
100
AcDbArc
 50
108.344906589326
 51
229.457883699285
  0
ARC
  5
149
330
1F
100
AcDbEntity
  8
AM_VIS
  6
AUSGEZOGEN
 62
     2
370
     0
100
AcDbCircle
 10
-2818.262044164637
 20
6211.860712090597
 30
0.0
 40
5511.013439681502
100
AcDbArc
 50
288.344906589326
 51
290.098589420234
  0
ARC
  5
14A
330
1F
100
AcDbEntity
  8
AM_VIS
  6
AUSGEZOGEN
 62
     2
370
     0
100
AcDbCircle
 10
-933.555073263293
 20
1061.263950854403
 30
0.0
 40
26.41980268150201
100
AcDbArc
 50
290.098589420232
 51
23.5475246064
  0
LINE
  5
14B
330
1F
100
AcDbEntity
  8
AM_VIS
  6
AUSGEZOGEN
 62
     2
370
     0
100
AcDbLine
 10
-909.335273648369
 20
1071.818915579236
 30
0.0
 11
-920.445295811058
 21
1096.857812344084
 31
0.0
  0
ARC
  5
14C
330
1F
100
AcDbEntity
  8
AM_VIS
  6
AUSGEZOGEN
 62
     2
370
     0
100
AcDbCircle
 10
-954.81179221788
 20
1255.200735457044
 30
0.0
 40
205.709211318498
100
AcDbArc
 50
118.308804523154
 51
130.662598821605
  0
ARC
  5
14D
330
1F
100
AcDbEntity
  8
AM_VIS
  6
AUSGEZOGEN
 62
     2
370
     0
100
AcDbCircle
 10
-2971.665400394788
 20
262.49282553131
 30
0.0
 40
2256.700962318497
100
AcDbArc
 50
20.651183701324
 51
22.369263050389
  0
ARC
  5
14E
330
1F
100
AcDbEntity
  8
AM_VIS
  6
AUSGEZOGEN
 62
     2
370
     0
100
AcDbCircle
 10
-804.063193454633
 20
403.319359038029
 30
0.0
 40
156.040533318498
100
AcDbArc
 50
233.320608182763
 51
256.678739593101
  0
ARC
  5
14F
330
1F
100
AcDbEntity
  8
AM_VIS
  6
AUSGEZOGEN
 62
     2
370
     0
100
AcDbCircle
 10
-886.712861230834
 20
1048.301360008992
 30
0.0
 40
28.58019731849799
100
AcDbArc
 50
302.210424707971
 51
20.651183701325
  0
ARC
  5
150
330
1F
100
AcDbEntity
  8
AM_VIS
  6
AUSGEZOGEN
 62
     2
370
     0
100
AcDbCircle
 10
-1139.902219658824
 20
1450.197053913296
 30
0.0
 40
503.5801973184979
100
AcDbArc
 50
293.788995367723
 51
302.210424707971
  0
ARC
  5
151
330
1F
100
AcDbEntity
  8
AM_VIS
  6
AUSGEZOGEN
 62
     2
370
     0
100
AcDbCircle
 10
-1897.977775909474
 20
3169.878903965143
 30
0.0
 40
2382.937591318498
100
AcDbArc
 50
291.446892032676
 51
293.788995367723
  0
ARC
  5
152
330
1F
100
AcDbEntity
  8
AM_VIS
  6
AUSGEZOGEN
 62
     2
370
     0
100
AcDbCircle
 10
-1023.605069740104
 20
944.106553399047
 30
0.0
 40
8.419802681502004
100
AcDbArc
 50
111.446892032678
 51
228.543282064146
  0
LINE
  5
153
330
1F
100
AcDbEntity
  8
AM_VIS
  6
AUSGEZOGEN
 62
     2
370
     0
100
AcDbLine
 10
-1029.17943451828
 20
937.796281256313
 30
0.0
 11
-867.851244300372
 21
796.064793850364
 31
0.0
  0
ARC
  5
154
330
1F
100
AcDbEntity
  8
AM_VIS
  6
AUSGEZOGEN
 62
     2
370
     0
100
AcDbCircle
 10
-886.65560462913
 20
774.542161311792
 30
0.0
 40
28.58019731849799
100
AcDbArc
 50
289.66502599485
 51
48.856233170927
  0
ARC
  5
155
330
1F
100
AcDbEntity
  8
AM_VIS
  6
AUSGEZOGEN
 62
     2
370
     0
100
AcDbCircle
 10
-698.975337955981
 20
41.258373872342
 30
0.0
 40
725.0939056815018
100
AcDbArc
 50
109.665025994849
 51
117.896352689225
  0
ARC
  5
156
330
1F
100
AcDbEntity
  8
AM_VIS
  6
AUSGEZOGEN
 62
     2
370
     0
100
AcDbCircle
 10
-1034.288198252545
 20
674.651660567576
 30
0.0
 40
8.419802681502004
100
AcDbArc
 50
117.896352689222
 51
237.166018258301
  0
ARC
  5
157
330
1F
100
AcDbEntity
  8
AM_VIS
  6
AUSGEZOGEN
 62
     2
370
     0
100
AcDbCircle
 10
-1283.065120948916
 20
289.127786074926
 30
0.0
 40
450.4032733184978
100
AcDbArc
 50
355.778236503856
 51
57.166018258301
  0
LINE
  5
158
330
1F
100
AcDbEntity
  8
Defpoints
  6
MegaCAD_LTYPE4
 62
     6
370
     0
100
AcDbLine
 10
-1067.211347660385
 20
1427.487181695875
 30
0.0
 11
-856.007641108641
 21
287.80341252535
 31
0.0
  0
LINE
  5
159
330
1F
100
AcDbEntity
  8
AM_7
  6
AUSGEZOGEN
 62
     2
370
     0
100
AcDbLine
 10
-960.318310721858
 20
850.677895414063
 30
0.0
 11
-960.318310721858
 21
850.677895414063
 31
0.0
  0
LINE
  5
15A
330
1F
100
AcDbEntity
  8
AM_7
  6
AUSGEZOGEN
 62
     2
370
     0
100
AcDbLine
 10
-960.318310721858
 20
850.677895414063
 30
0.0
 11
-960.318310721858
 21
850.677895414063
 31
0.0
  0
LINE
  5
15B
330
1F
100
AcDbEntity
  8
AM_7
  6
MegaCAD_LTYPE4
 62
     6
370
     0
100
AcDbLine
 10
-973.318310721858
 20
850.677895414063
 30
0.0
 11
-960.318310721858
 21
850.677895414063
 31
0.0
  0
LINE
  5
15C
330
1F
100
AcDbEntity
  8
AM_7
  6
MegaCAD_LTYPE4
 62
     6
370
     0
100
AcDbLine
 10
-960.318310721858
 20
850.677895414063
 30
0.0
 11
-947.318310721858
 21
850.677895414063
 31
0.0
  0
LINE
  5
15D
330
1F
100
AcDbEntity
  8
AM_7
  6
MegaCAD_LTYPE4
 62
     6
370
     0
100
AcDbLine
 10
-960.318310721858
 20
837.677895414063
 30
0.0
 11
-960.318310721858
 21
850.677895414063
 31
0.0
  0
CIRCLE
  5
15E
330
1F
100
AcDbEntity
  8
AM_HID
  6
AUSGEZOGEN
 62
     2
370
     0
100
AcDbCircle
 10
-960.318310721858
 20
850.677895414063
 30
0.0
 40
10.0
  0
CIRCLE
  5
15F
330
1F
100
AcDbEntity
  8
AM_HID
  6
AUSGEZOGEN
 62
     2
370
     0
100
AcDbCircle
 10
-960.318310721858
 20
850.677895414063
 30
0.0
 40
6.499999999999999
  0
TEXT
  5
160
330
1F
100
AcDbEntity
  8
AM_HID
  6
AUSGEZOGEN
 62
     4
370
     0
100
AcDbText
 10
-519.028273713445
 20
226.648011655752
 30
0.0
 40
35.0
  1
Mod. 4100
 41
1.393535539216
  7
Arial
 72
     5
 11
-200.633273713445
 21
226.648011655752
 31
0.0
100
AcDbText
  0
LINE
  5
161
330
1F
100
AcDbEntity
  8
Defpoints
  6
AUSGEZOGEN
 62
     2
370
     0
100
AcDbLine
 10
-1028.497441868115
 20
1405.51069121847
 30
0.0
 11
-1045.694079378447
 21
1434.459621574325
 31
0.0
  0
LINE
  5
162
330
1F
100
AcDbEntity
  8
Defpoints
  6
AUSGEZOGEN
 62
     2
370
     0
100
AcDbLine
 10
-1071.081666764701
 20
1376.575779202425
 30
0.0
 11
-1089.759016499384
 21
1404.683453450768
 31
0.0
  0
ARC
  5
163
330
1F
100
AcDbEntity
  8
Defpoints
  6
AUSGEZOGEN
 62
     2
370
     0
100
AcDbCircle
 10
-1049.992817809004
 20
1431.906026480021
 30
0.0
 40
5.0
100
AcDbArc
 50
30.711735102767
 51
118.308804523157
  0
ARC
  5
164
330
1F
100
AcDbEntity
  8
Defpoints
  6
AUSGEZOGEN
 62
     2
370
     0
100
AcDbCircle
 10
-1085.594591660526
 20
1407.450684153384
 30
0.0
 40
5.0
100
AcDbArc
 50
130.662598821604
 51
213.603755358723
  0
LINE
  5
165
330
1F
100
AcDbEntity
  8
Defpoints
  6
AUSGEZOGEN
 62
     2
370
     0
100
AcDbLine
 10
-738.308256402207
 20
1436.934433164477
 30
0.0
 11
-753.308256402207
 21
1436.934433164477
 31
0.0
  0
LINE
  5
166
330
1F
100
AcDbEntity
  8
Defpoints
  6
AUSGEZOGEN
 62
     2
370
     0
100
AcDbLine
 10
-738.308256402207
 20
251.54451401494
 30
0.0
 11
-753.308256402207
 21
251.54451401494
 31
0.0
  0
LINE
  5
167
330
1F
100
AcDbEntity
  8
Defpoints
  6
AUSGEZOGEN
 62
     2
370
     0
100
AcDbLine
 10
-838.604990078775
 20
251.54451401494
 30
0.0
 11
-837.458519931078
 21
251.54451401494
 31
0.0
  0
LINE
  5
168
330
1F
100
AcDbEntity
  8
Defpoints
  6
AUSGEZOGEN
 62
     2
370
     0
100
AcDbLine
 10
-738.308256402207
 20
1436.934433164477
 30
0.0
 11
-738.308256402207
 21
251.54451401494
 31
0.0
  0
LINE
  5
169
330
1F
100
AcDbEntity
  8
Defpoints
  6
AUSGEZOGEN
 62
     2
370
     0
100
AcDbLine
 10
-753.308256402207
 20
1436.934433164477
 30
0.0
 11
-753.308256402207
 21
251.54451401494
 31
0.0
  0
LINE
  5
16A
330
1F
100
AcDbEntity
  8
0
  6
MegaCAD_LTYPE4
 62
     6
370
     0
100
AcDbLine
 10
-753.308256402207
 20
1414.635999001685
 30
0.0
 11
-788.308256402207
 21
1414.635999001685
 31
0.0
  0
LINE
  5
16B
330
1F
100
AcDbEntity
  8
0
  6
MegaCAD_LTYPE4
 62
     6
370
     0
100
AcDbLine
 10
-753.308256402207
 20
850.677895414063
 30
0.0
 11
-788.308256402207
 21
850.677895414063
 31
0.0
  0
LINE
  5
16C
330
1F
100
AcDbEntity
  8
0
  6
MegaCAD_LTYPE4
 62
     6
370
     0
100
AcDbLine
 10
-753.308256402207
 20
297.635999001685
 30
0.0
 11
-788.308256402207
 21
297.635999001685
 31
0.0
  0
LINE
  5
16D
330
1F
100
AcDbEntity
  8
Defpoints
  6
AUSGEZOGEN
 62
     2
370
     0
100
AcDbLine
 10
-753.308256402207
 20
1427.635999001685
 30
0.0
 11
-788.308256402207
 21
1427.635999001685
 31
0.0
  0
LINE
  5
16E
330
1F
100
AcDbEntity
  8
Defpoints
  6
AUSGEZOGEN
 62
     2
370
     0
100
AcDbLine
 10
-753.308256402207
 20
1401.635999001685
 30
0.0
 11
-788.308256402207
 21
1401.635999001685
 31
0.0
  0
LINE
  5
16F
330
1F
100
AcDbEntity
  8
Defpoints
  6
AUSGEZOGEN
 62
     2
370
     0
100
AcDbLine
 10
-753.308256402207
 20
863.677895414063
 30
0.0
 11
-788.308256402207
 21
863.677895414063
 31
0.0
  0
LINE
  5
170
330
1F
100
AcDbEntity
  8
Defpoints
  6
AUSGEZOGEN
 62
     2
370
     0
100
AcDbLine
 10
-753.308256402207
 20
837.677895414063
 30
0.0
 11
-788.308256402207
 21
837.677895414063
 31
0.0
  0
LINE
  5
171
330
1F
100
AcDbEntity
  8
Defpoints
  6
AUSGEZOGEN
 62
     2
370
     0
100
AcDbLine
 10
-753.308256402207
 20
310.635999001685
 30
0.0
 11
-788.308256402207
 21
310.635999001685
 31
0.0
  0
LINE
  5
172
330
1F
100
AcDbEntity
  8
Defpoints
  6
AUSGEZOGEN
 62
     2
370
     0
100
AcDbLine
 10
-753.308256402207
 20
284.635999001685
 30
0.0
 11
-788.308256402207
 21
284.635999001685
 31
0.0
  0
LINE
  5
173
330
1F
100
AcDbEntity
  8
Defpoints
  6
AUSGEZOGEN
 62
     2
370
     0
100
AcDbLine
 10
-788.308256402207
 20
310.635999001685
 30
0.0
 11
-788.308256402207
 21
284.635999001685
 31
0.0
  0
LINE
  5
174
330
1F
100
AcDbEntity
  8
Defpoints
  6
AUSGEZOGEN
 62
     2
370
     0
100
AcDbLine
 10
-788.308256402207
 20
863.677895414063
 30
0.0
 11
-788.308256402207
 21
837.677895414063
 31
0.0
  0
LINE
  5
175
330
1F
100
AcDbEntity
  8
Defpoints
  6
AUSGEZOGEN
 62
     2
370
     0
100
AcDbLine
 10
-788.308256402207
 20
1427.635999001685
 30
0.0
 11
-788.308256402207
 21
1401.635999001685
 31
0.0
  0
DIMENSION
  5
182
330
1F
100
AcDbEntity
  8
0
100
AcDbDimension
  2
*D1
 10
-815.71838897742
 20
837.677895414063
 30
0.0
 11
-848.21838897742
 21
959.407510534563
 31
0.0
 70
   128
 71
     0
 42
0.0
 53
90.0
  3
Standard
100
AcDbAlignedDimension
 13
-788.308256402207
 23
863.677895414063
 33
0.0
 14
-788.308256402207
 24
837.677895414063
 34
0.0
 50
-90.0
100
AcDbRotatedDimension
1001
ACAD
1000
DSTYLE
1002
{
1070
     3
1000
%%c<>
1070
    44
1040
25.0
1070
   280
1070
     0
1070
    77
1070
     1
1070
    78
1070
     8
1070
   179
1070
     2
1070
   271
1070
     2
1070
   173
1070
     1
1070
    41
1040
35.0
1070
   147
1040
5.0
1070
   140
1040
35.0
1070
   178
1070
     4
1070
   177
1070
     4
1070
   176
1070
     4
1002
}
  0
DIMENSION
  5
18F
330
1F
100
AcDbEntity
  8
0
100
AcDbDimension
  2
*D2
 10
-753.308256402207
 20
1480.107303455548
 30
0.0
 11
-661.871563508345
 21
1512.607303455548
 31
0.0
 70
   128
 71
     0
 42
0.0
  3
Standard
100
AcDbAlignedDimension
 13
-738.308256402207
 23
1436.934433164477
 33
0.0
 14
-753.308256402207
 24
1436.934433164477
 34
0.0
 50
180.0
100
AcDbRotatedDimension
1001
ACAD
1000
DSTYLE
1002
{
1070
     3
1000
<>
1070
    44
1040
25.0
1070
   280
1070
     0
1070
    77
1070
     1
1070
    78
1070
     8
1070
   179
1070
     2
1070
   271
1070
     2
1070
   173
1070
     1
1070
    41
1040
35.0
1070
   147
1040
5.0
1070
   140
1040
35.0
1070
   178
1070
     4
1070
   177
1070
     4
1070
   176
1070
     4
1002
}
  0
DIMENSION
  5
19D
330
1F
100
AcDbEntity
  8
0
100
AcDbDimension
  2
*D3
 10
-753.308256402207
 20
1535.76260830863
 30
0.0
 11
-662.533690535162
 21
1568.26260830863
 31
0.0
 70
   128
 71
     0
 42
0.0
  3
Standard
100
AcDbAlignedDimension
 13
-788.308256402207
 23
1427.635999001685
 33
0.0
 14
-753.308256402207
 24
1436.934433164477
 34
0.0
100
AcDbRotatedDimension
1001
ACAD
1000
DSTYLE
1002
{
1070
     3
1000
<>
1070
    44
1040
25.0
1070
   280
1070
     0
1070
    77
1070
     1
1070
    78
1070
     8
1070
   179
1070
     2
1070
   271
1070
     2
1070
   173
1070
     1
1070
    41
1040
35.0
1070
   147
1040
5.0
1070
   140
1040
35.0
1070
   178
1070
     4
1070
   177
1070
     4
1070
   176
1070
     4
1002
}
  0
DIMENSION
  5
1AC
330
1F
100
AcDbEntity
  8
0
100
AcDbDimension
  2
*D4
 10
-788.308256402207
 20
1595.724573656295
 30
0.0
 11
-661.871563508345
 21
1628.224573656295
 31
0.0
 70
   128
 71
     0
 42
0.0
  3
Standard
100
AcDbAlignedDimension
 13
-738.308256402207
 23
1436.934433164477
 33
0.0
 14
-788.308256402207
 24
1427.635999001685
 34
0.0
 50
180.0
100
AcDbRotatedDimension
1001
ACAD
1000
DSTYLE
1002
{
1070
     3
1000
<>
1070
    44
1040
25.0
1070
   280
1070
     0
1070
    77
1070
     1
1070
    78
1070
     8
1070
   179
1070
     2
1070
   271
1070
     2
1070
   173
1070
     1
1070
    41
1040
35.0
1070
   147
1040
5.0
1070
   140
1040
35.0
1070
   178
1070
     4
1070
   177
1070
     4
1070
   176
1070
     4
1002
}
  0
DIMENSION
  5
1B6
330
1F
100
AcDbEntity
  8
0
100
AcDbDimension
  2
*D5
 10
-1103.14479259732
 20
1479.270756166758
 30
0.0
 11
-980.672149639737
 21
1511.770756166758
 31
0.0
 70
   128
  1
250
 71
     0
 42
0.0
  3
Standard
100
AcDbAlignedDimension
 13
-858.199506682154
 23
1045.588674646719
 33
0.0
 14
-1103.14479259732
 24
953.741624431089
 34
0.0
 50
180.0
100
AcDbRotatedDimension
1001
ACAD
1000
DSTYLE
1002
{
1070
    44
1040
25.0
1070
   280
1070
     0
1070
    77
1070
     1
1070
    78
1070
     8
1070
   179
1070
     2
1070
   271
1070
     2
1070
   173
1070
     1
1070
    41
1040
35.0
1070
   147
1040
5.0
1070
   140
1040
35.0
1070
   178
1070
     4
1070
   177
1070
     4
1070
   176
1070
     4
1002
}
  0
DIMENSION
  5
1C7
330
1F
100
AcDbEntity
  8
0
100
AcDbDimension
  2
*D6
 10
-1174.56702682757
 20
810.973791355081
 30
0.0
 11
-1194.86686269651
 21
1098.874841852521
 31
0.0
 70
   128
  1
580
 71
     0
 42
0.0
 53
-79.501175962061
  3
Standard
100
AcDbAlignedDimension
 13
-1064.829794555913
 23
1414.635999001684
 33
0.0
 14
-960.318310721859
 24
850.677895414062
 34
0.0
 50
-79.501175962061
100
AcDbRotatedDimension
1001
ACAD
1000
DSTYLE
1002
{
1070
    44
1040
25.0
1070
   280
1070
     0
1070
    77
1070
     1
1070
    78
1070
     8
1070
   179
1070
     2
1070
   271
1070
     2
1070
   173
1070
     1
1070
    41
1040
35.0
1070
   147
1040
5.0
1070
   140
1040
35.0
1070
   178
1070
     4
1070
   177
1070
     4
1070
   176
1070
     4
1002
}
  0
DIMENSION
  5
1D8
330
1F
100
AcDbEntity
  8
0
100
AcDbDimension
  2
*D7
 10
-1071.965350064583
 20
257.952865617357
 30
0.0
 11
-1091.253702099469
 21
540.395812527175
 31
0.0
 70
   128
  1
540
 71
     0
 42
0.0
 53
-79.501175962061
  3
Standard
100
AcDbAlignedDimension
 13
-960.31831072186
 23
850.677895414063
 33
0.0
 14
-857.829794555912
 24
297.635999001685
 34
0.0
 50
-79.501175962061
100
AcDbRotatedDimension
1001
ACAD
1000
DSTYLE
1002
{
1070
    44
1040
25.0
1070
   280
1070
     0
1070
    77
1070
     1
1070
    78
1070
     8
1070
   179
1070
     2
1070
   271
1070
     2
1070
   173
1070
     1
1070
    41
1040
35.0
1070
   147
1040
5.0
1070
   140
1040
35.0
1070
   178
1070
     4
1070
   177
1070
     4
1070
   176
1070
     4
1002
}
  0
ENDSEC
  0
SECTION
  2
OBJECTS
  0
DICTIONARY
  5
C
330
0
100
AcDbDictionary
281
     1
  3
ACAD_GROUP
350
D
  3
ACAD_LAYOUT
350
1A
  3
ACAD_MLINESTYLE
350
17
  3
ACAD_PLOTSETTINGS
350
19
  3
ACAD_PLOTSTYLENAME
350
E
  0
DICTIONARY
  5
D
102
{ACAD_REACTORS
330
C
102
}
330
C
100
AcDbDictionary
281
     1
  0
DICTIONARY
  5
1A
102
{ACAD_REACTORS
330
C
102
}
330
C
100
AcDbDictionary
281
     1
  3
Layout1
350
1E
  3
Layout2
350
26
  3
Model
350
22
  0
DICTIONARY
  5
17
102
{ACAD_REACTORS
330
C
102
}
330
C
100
AcDbDictionary
281
     1
  3
Standard
350
18
  0
DICTIONARY
  5
19
102
{ACAD_REACTORS
330
C
102
}
330
C
100
AcDbDictionary
281
     1
  0
ACDBDICTIONARYWDFLT
  5
E
102
{ACAD_REACTORS
330
C
102
}
330
C
100
AcDbDictionary
281
     1
  3
Normal
350
F
100
AcDbDictionaryWithDefault
340
F
  0
LAYOUT
  5
1E
102
{ACAD_REACTORS
330
1A
102
}
330
1A
100
AcDbPlotSettings
  1

  2

  4

  6

 40
0.0
 41
0.0
 42
0.0
 43
0.0
 44
0.0
 45
0.0
 46
0.0
 47
0.0
 48
0.0
 49
0.0
140
0.0
141
0.0
142
1.0
143
1.0
 70
   688
 72
     0
 73
     0
 74
     5
  7

 75
    16
147
1.0
148
0.0
149
0.0
100
AcDbLayout
  1
Layout1
 70
     1
 71
     1
 10
0.0
 20
0.0
 11
12.0
 21
9.0
 12
0.0
 22
0.0
 32
0.0
 14
1.000000000000E+20
 24
1.000000000000E+20
 34
1.000000000000E+20
 15
-1.000000000000E+20
 25
-1.000000000000E+20
 35
-1.000000000000E+20
146
0.0
 13
0.0
 23
0.0
 33
0.0
 16
1.0
 26
0.0
 36
0.0
 17
0.0
 27
1.0
 37
0.0
 76
     0
330
1B
  0
LAYOUT
  5
26
102
{ACAD_REACTORS
330
1A
102
}
330
1A
100
AcDbPlotSettings
  1

  2

  4

  6

 40
0.0
 41
0.0
 42
0.0
 43
0.0
 44
0.0
 45
0.0
 46
0.0
 47
0.0
 48
0.0
 49
0.0
140
0.0
141
0.0
142
1.0
143
1.0
 70
   688
 72
     0
 73
     0
 74
     5
  7

 75
    16
147
1.0
148
0.0
149
0.0
100
AcDbLayout
  1
Layout2
 70
     1
 71
     2
 10
0.0
 20
0.0
 11
0.0
 21
0.0
 12
0.0
 22
0.0
 32
0.0
 14
0.0
 24
0.0
 34
0.0
 15
0.0
 25
0.0
 35
0.0
146
0.0
 13
0.0
 23
0.0
 33
0.0
 16
1.0
 26
0.0
 36
0.0
 17
0.0
 27
1.0
 37
0.0
 76
     0
330
23
  0
LAYOUT
  5
22
102
{ACAD_REACTORS
330
1A
102
}
330
1A
100
AcDbPlotSettings
  1

  2

  4

  6

 40
0.0
 41
0.0
 42
0.0
 43
0.0
 44
0.0
 45
0.0
 46
0.0
 47
0.0
 48
0.0
 49
0.0
140
0.0
141
0.0
142
1.0
143
1.0
 70
  1712
 72
     0
 73
     0
 74
     0
  7

 75
     0
147
1.0
148
0.0
149
0.0
100
AcDbLayout
  1
Model
 70
     1
 71
     0
 10
0.0
 20
0.0
 11
0.0
 21
0.0
 12
0.0
 22
0.0
 32
0.0
 14
0.0
 24
0.0
 34
0.0
 15
0.0
 25
0.0
 35
0.0
146
0.0
 13
0.0
 23
0.0
 33
0.0
 16
1.0
 26
0.0
 36
0.0
 17
0.0
 27
1.0
 37
0.0
 76
     0
330
1F
  0
MLINESTYLE
  5
18
102
{ACAD_REACTORS
330
17
102
}
330
17
100
AcDbMlineStyle
  2
Standard
 70
     0
  3

 62
   256
 51
90.0
 52
90.0
 71
     2
 49
0.5
 62
   256
  6
BYLAYER
 49
-0.5
 62
   256
  6
BYLAYER
  0
ACDBPLACEHOLDER
  5
F
102
{ACAD_REACTORS
330
E
102
}
330
E
  0
ENDSEC
  0
EOF
