  0
SECTION
  2
HEADER
  9
$ACADVER
  1
AC1015
  9
$ACADMAINTVER
 70
     6
  9
$DWGCODEPAGE
  3
ANSI_1252
  9
$INSBASE
 10
0.0
 20
0.0
 30
0.0
  9
$EXTMIN
 10
0.0
 20
0.0
 30
0.0
  9
$EXTMAX
 10
215.9
 20
279.4
 30
0.0
  9
$LIMMIN
 10
0.0
 20
0.0
  9
$LIMMAX
 10
215.9
 20
279.4
  9
$ORTHOMODE
 70
     0
  9
$REGENMODE
 70
     1
  9
$FILLMODE
 70
     1
  9
$QTEXTMODE
 70
     0
  9
$MIRRTEXT
 70
     1
  9
$LTSCALE
 40
1.0
  9
$ATTMODE
 70
     1
  9
$TEXTSIZE
 40
2.5
  9
$TRACEWID
 40
1.0
  9
$TEXTSTYLE
  7
Standard
  9
$CLAYER
  8
0
  9
$CELTYPE
  6
ByLayer
  9
$CECOLOR
 62
   256
  9
$CELTSCALE
 40
1.0
  9
$DISPSILH
 70
     0
  9
$DIMSCALE
 40
1.0
  9
$DIMASZ
 40
2.5
  9
$DIMEXO
 40
0.625
  9
$DIMDLI
 40
3.75
  9
$DIMRND
 40
0.0
  9
$DIMDLE
 40
0.0
  9
$DIMEXE
 40
1.25
  9
$DIMTP
 40
0.0
  9
$DIMTM
 40
0.0
  9
$DIMTXT
 40
2.5
  9
$DIMCEN
 40
2.5
  9
$DIMTSZ
 40
0.0
  9
$DIMTOL
 70
     0
  9
$DIMLIM
 70
     0
  9
$DIMTIH
 70
     0
  9
$DIMTOH
 70
     0
  9
$DIMSE1
 70
     0
  9
$DIMSE2
 70
     0
  9
$DIMTAD
 70
     1
  9
$DIMZIN
 70
     8
  9
$DIMBLK
  1

  9
$DIMASO
 70
     1
  9
$DIMSHO
 70
     1
  9
$DIMPOST
  1

  9
$DIMAPOST
  1

  9
$DIMALT
 70
     0
  9
$DIMALTD
 70
     3
  9
$DIMALTF
 40
0.0393700787
  9
$DIMLFAC
 40
1.0
  9
$DIMTOFL
 70
     1
  9
$DIMTVP
 40
0.0
  9
$DIMTIX
 70
     0
  9
$DIMSOXD
 70
     0
  9
$DIMSAH
 70
     0
  9
$DIMBLK1
  1

  9
$DIMBLK2
  1

  9
$DIMSTYLE
  2
ISO-25
  9
$DIMCLRD
 70
     0
  9
$DIMCLRE
 70
     0
  9
$DIMCLRT
 70
     0
  9
$DIMTFAC
 40
1.0
  9
$DIMGAP
 40
0.625
  9
$DIMJUST
 70
     0
  9
$DIMSD1
 70
     0
  9
$DIMSD2
 70
     0
  9
$DIMTOLJ
 70
     0
  9
$DIMTZIN
 70
     8
  9
$DIMALTZ
 70
     0
  9
$DIMALTTZ
 70
     0
  9
$DIMUPT
 70
     0
  9
$DIMDEC
 70
     2
  9
$DIMTDEC
 70
     2
  9
$DIMALTU
 70
     2
  9
$DIMALTTD
 70
     3
  9
$DIMTXSTY
  7
Standard
  9
$DIMAUNIT
 70
     0
  9
$DIMADEC
 70
     0
  9
$DIMALTRND
 40
0.0
  9
$DIMAZIN
 70
     0
  9
$DIMDSEP
 70
    44
  9
$DIMATFIT
 70
     3
  9
$DIMFRAC
 70
     0
  9
$DIMLDRBLK
  1

  9
$DIMLUNIT
 70
     2
  9
$DIMLWD
 70
    -2
  9
$DIMLWE
 70
    -2
  9
$DIMTMOVE
 70
     0
  9
$LUNITS
 70
     2
  9
$LUPREC
 70
     4
  9
$SKETCHINC
 40
1.0
  9
$FILLETRAD
 40
10.0
  9
$AUNITS
 70
     0
  9
$AUPREC
 70
     0
  9
$MENU
  1
.
  9
$ELEVATION
 40
0.0
  9
$PELEVATION
 40
0.0
  9
$THICKNESS
 40
0.0
  9
$LIMCHECK
 70
     0
  9
$CHAMFERA
 40
10.0
  9
$CHAMFERB
 40
10.0
  9
$CHAMFERC
 40
20.0
  9
$CHAMFERD
 40
0.0
  9
$SKPOLY
 70
     0
  9
$TDCREATE
 40
2455691.702821041
  9
$TDUCREATE
 40
2455691.619487708
  9
$TDUPDATE
 40
2455691.702821053
  9
$TDUUPDATE
 40
2455691.61948772
  9
$TDINDWG
 40
0.0000000116
  9
$TDUSRTIMER
 40
0.0000000116
  9
$USRTIMER
 70
     1
  9
$ANGBASE
 50
0.0
  9
$ANGDIR
 70
     0
  9
$PDMODE
 70
     0
  9
$PDSIZE
 40
0.0
  9
$PLINEWID
 40
0.0
  9
$SPLFRAME
 70
     0
  9
$SPLINETYPE
 70
     6
  9
$SPLINESEGS
 70
     8
  9
$HANDSEED
  5
14E
  9
$SURFTAB1
 70
     6
  9
$SURFTAB2
 70
     6
  9
$SURFTYPE
 70
     6
  9
$SURFU
 70
     6
  9
$SURFV
 70
     6
  9
$UCSBASE
  2

  9
$UCSNAME
  2

  9
$UCSORG
 10
0.0
 20
0.0
 30
0.0
  9
$UCSXDIR
 10
1.0
 20
0.0
 30
0.0
  9
$UCSYDIR
 10
0.0
 20
1.0
 30
0.0
  9
$UCSORTHOREF
  2

  9
$UCSORTHOVIEW
 70
     0
  9
$UCSORGTOP
 10
0.0
 20
0.0
 30
0.0
  9
$UCSORGBOTTOM
 10
0.0
 20
0.0
 30
0.0
  9
$UCSORGLEFT
 10
0.0
 20
0.0
 30
0.0
  9
$UCSORGRIGHT
 10
0.0
 20
0.0
 30
0.0
  9
$UCSORGFRONT
 10
0.0
 20
0.0
 30
0.0
  9
$UCSORGBACK
 10
0.0
 20
0.0
 30
0.0
  9
$PUCSBASE
  2

  9
$PUCSNAME
  2

  9
$PUCSORG
 10
0.0
 20
0.0
 30
0.0
  9
$PUCSXDIR
 10
1.0
 20
0.0
 30
0.0
  9
$PUCSYDIR
 10
0.0
 20
1.0
 30
0.0
  9
$PUCSORTHOREF
  2

  9
$PUCSORTHOVIEW
 70
     0
  9
$PUCSORGTOP
 10
0.0
 20
0.0
 30
0.0
  9
$PUCSORGBOTTOM
 10
0.0
 20
0.0
 30
0.0
  9
$PUCSORGLEFT
 10
0.0
 20
0.0
 30
0.0
  9
$PUCSORGRIGHT
 10
0.0
 20
0.0
 30
0.0
  9
$PUCSORGFRONT
 10
0.0
 20
0.0
 30
0.0
  9
$PUCSORGBACK
 10
0.0
 20
0.0
 30
0.0
  9
$USERI1
 70
     0
  9
$USERI2
 70
     0
  9
$USERI3
 70
     0
  9
$USERI4
 70
     0
  9
$USERI5
 70
     0
  9
$USERR1
 40
0.0
  9
$USERR2
 40
0.0
  9
$USERR3
 40
0.0
  9
$USERR4
 40
0.0
  9
$USERR5
 40
0.0
  9
$WORLDVIEW
 70
     1
  9
$SHADEDGE
 70
     3
  9
$SHADEDIF
 70
    70
  9
$TILEMODE
 70
     1
  9
$MAXACTVP
 70
    64
  9
$PINSBASE
 10
0.0
 20
0.0
 30
0.0
  9
$PLIMCHECK
 70
     0
  9
$PEXTMIN
 10
0.0
 20
0.0
 30
0.0
  9
$PEXTMAX
 10
215.9
 20
279.4
 30
0.0
  9
$PLIMMIN
 10
0.0
 20
0.0
  9
$PLIMMAX
 10
215.9
 20
279.4
  9
$UNITMODE
 70
     0
  9
$VISRETAIN
 70
     1
  9
$PLINEGEN
 70
     0
  9
$PSLTSCALE
 70
     1
  9
$TREEDEPTH
 70
  3020
  9
$CMLSTYLE
  2
Standard
  9
$CMLJUST
 70
     0
  9
$CMLSCALE
 40
20.0
  9
$PROXYGRAPHICS
 70
     1
  9
$MEASUREMENT
 70
     1
  9
$CELWEIGHT
370
    -1
  9
$ENDCAPS
280
     0
  9
$JOINSTYLE
280
     0
  9
$LWDISPLAY
290
     0
  9
$INSUNITS
 70
     4
  9
$HYPERLINKBASE
  1

  9
$STYLESHEET
  1

  9
$XEDIT
290
     1
  9
$CEPSNTYPE
380
     0
  9
$PSTYLEMODE
290
     1
  9
$FINGERPRINTGUID
  2
{D4A61F8E-B9C9-4FCC-90A6-B4311901FF6F}
  9
$VERSIONGUID
  2
{FAEB1C32-E019-11D5-929B-00C0DF256EC4}
  9
$EXTNAMES
290
     1
  9
$PSVPSCALE
 40
0.0
  9
$OLESTARTUP
290
     0
  0
ENDSEC
  0
SECTION
  2
CLASSES
  0
CLASS
  1
ACDBDICTIONARYWDFLT
  2
AcDbDictionaryWithDefault
  3
ObjectDBX Classes
 90
        0
280
     0
281
     0
  0
CLASS
  1
VISUALSTYLE
  2
AcDbVisualStyle
  3
ObjectDBX Classes
 90
     4095
280
     0
281
     0
  0
CLASS
  1
MATERIAL
  2
AcDbMaterial
  3
ObjectDBX Classes
 90
     1153
280
     0
281
     0
  0
CLASS
  1
DICTIONARYVAR
  2
AcDbDictionaryVar
  3
ObjectDBX Classes
 90
        0
280
     0
281
     0
  0
CLASS
  1
ACDBPLACEHOLDER
  2
AcDbPlaceHolder
  3
ObjectDBX Classes
 90
        0
280
     0
281
     0
  0
CLASS
  1
LAYOUT
  2
AcDbLayout
  3
ObjectDBX Classes
 90
        0
280
     0
281
     0
  0
ENDSEC
  0
SECTION
  2
TABLES
  0
TABLE
  2
VPORT
  5
8
330
0
100
AcDbSymbolTable
 70
     1
  0
VPORT
  5
29
330
8
100
AcDbSymbolTableRecord
100
AcDbViewportTableRecord
  2
*Active
 70
     0
 10
0.0
 20
0.0
 11
1.0
 21
1.0
 12
344.1869158879
 22
148.5
 13
0.0
 23
0.0
 14
10.0
 24
10.0
 15
10.0
 25
10.0
 16
0.0
 26
0.0
 36
1.0
 17
0.0
 27
0.0
 37
0.0
 40
297.0
 41
1.9729729729
 42
50.0
 43
0.0
 44
0.0
 50
0.0
 51
0.0
 71
     0
 72
   100
 73
     1
 74
     3
 75
     0
 76
     0
 77
     0
 78
     0
281
     0
 65
     1
110
0.0
120
0.0
130
0.0
111
1.0
121
0.0
131
0.0
112
0.0
122
1.0
132
0.0
 79
     0
146
0.0
  0
ENDTAB
  0
TABLE
  2
LTYPE
  5
5
330
0
100
AcDbSymbolTable
 70
     1
  0
LTYPE
  5
14
330
5
100
AcDbSymbolTableRecord
100
AcDbLinetypeTableRecord
  2
ByBlock
 70
     0
  3

 72
    65
 73
     0
 40
0.0
  0
LTYPE
  5
15
330
5
100
AcDbSymbolTableRecord
100
AcDbLinetypeTableRecord
  2
ByLayer
 70
     0
  3

 72
    65
 73
     0
 40
0.0
  0
LTYPE
  5
16
330
5
100
AcDbSymbolTableRecord
100
AcDbLinetypeTableRecord
  2
Continuous
 70
     0
  3
Solid line
 72
    65
 73
     0
 40
0.0
  0
ENDTAB
  0
TABLE
  2
LAYER
  5
2
330
0
100
AcDbSymbolTable
 70
     4
  0
LAYER
  5
10
330
2
100
AcDbSymbolTableRecord
100
AcDbLayerTableRecord
  2
0
 70
     0
 62
     7
  6
Continuous
370
    -3
390
F
  0
LAYER
  5
41
330
2
100
AcDbSymbolTableRecord
100
AcDbLayerTableRecord
  2
Standard
 70
     0
 62
     7
  6
Continuous
370
    -3
390
F
  0
LAYER
  5
6B
330
2
100
AcDbSymbolTableRecord
100
AcDbLayerTableRecord
  2
DV1_Standard
 70
     0
 62
     7
  6
Continuous
370
    -3
390
F
  0
LAYER
  5
D2
330
2
100
AcDbSymbolTableRecord
100
AcDbLayerTableRecord
  2
DV2_Standard
 70
     0
 62
     7
  6
Continuous
370
    -3
390
F
  0
ENDTAB
  0
TABLE
  2
STYLE
  5
3
330
0
100
AcDbSymbolTable
 70
     2
  0
STYLE
  5
11
330
3
100
AcDbSymbolTableRecord
100
AcDbTextStyleTableRecord
  2
Standard
 70
     0
 40
0.0
 41
1.0
 50
0.0
 71
     0
 42
2.5
  3
txt
  4

  0
STYLE
  5
3F
330
3
100
AcDbSymbolTableRecord
100
AcDbTextStyleTableRecord
  2
SEACAD_arial_ttf
 70
     0
 40
0.0
 41
1.0
 50
0.0
 71
     0
 42
0.2
  3

  4

1001
ACAD
1000
arial.ttf
1071
        0
  0
ENDTAB
  0
TABLE
  2
VIEW
  5
6
330
0
100
AcDbSymbolTable
 70
     0
  0
ENDTAB
  0
TABLE
  2
UCS
  5
7
330
0
100
AcDbSymbolTable
 70
     0
  0
ENDTAB
  0
TABLE
  2
APPID
  5
9
330
0
100
AcDbSymbolTable
 70
     1
  0
APPID
  5
12
330
9
100
AcDbSymbolTableRecord
100
AcDbRegAppTableRecord
  2
ACAD
 70
     0
  0
ENDTAB
  0
TABLE
  2
DIMSTYLE
  5
A
330
0
100
AcDbSymbolTable
 70
     3
100
AcDbDimStyleTable
  0
DIMSTYLE
105
27
330
A
100
AcDbSymbolTableRecord
100
AcDbDimStyleTableRecord
  2
ISO-25
 70
     0
 41
2.5
 42
0.625
 43
3.75
 44
1.25
 73
     0
 74
     0
 77
     1
 78
     8
140
2.5
141
2.5
143
0.0393700787
147
0.625
171
     3
172
     1
178
     0
271
     2
272
     2
274
     3
278
    44
283
     0
284
     8
340
11
  0
DIMSTYLE
105
42
330
A
100
AcDbSymbolTableRecord
100
AcDbDimStyleTableRecord
  2
Standard
 70
     0
178
     0
340
11
  0
DIMSTYLE
105
54
102
{ACAD_REACTORS
330
55
330
5F
330
B1
330
BB
330
C6
102
}
330
A
100
AcDbSymbolTableRecord
100
AcDbDimStyleTableRecord
  2
E-Katalog
 70
     0
 41
3.75
 42
0.75
 44
1.25
 73
     0
 74
     0
 77
     1
 78
     8
140
2.5
141
1.25
147
1.25
172
     1
173
     1
178
     0
271
     0
272
     0
278
    44
284
     8
340
3F
343
4F
344
4F
  0
ENDTAB
  0
TABLE
  2
BLOCK_RECORD
  5
1
330
0
100
AcDbSymbolTable
 70
    11
  0
BLOCK_RECORD
  5
1F
330
1
100
AcDbSymbolTableRecord
100
AcDbBlockTableRecord
  2
*Model_Space
340
22
  0
BLOCK_RECORD
  5
1B
330
1
100
AcDbSymbolTableRecord
100
AcDbBlockTableRecord
  2
*Paper_Space
340
1E
  0
BLOCK_RECORD
  5
43
330
1
100
AcDbSymbolTableRecord
100
AcDbBlockTableRecord
  2
_OBLIQUE
340
0
  0
BLOCK_RECORD
  5
47
330
1
100
AcDbSymbolTableRecord
100
AcDbBlockTableRecord
  2
_DOT
340
0
  0
BLOCK_RECORD
  5
4F
330
1
100
AcDbSymbolTableRecord
100
AcDbBlockTableRecord
  2
_SE_FILLED
340
0
  0
BLOCK_RECORD
  5
56
330
1
100
AcDbSymbolTableRecord
100
AcDbBlockTableRecord
  2
DMBLK64
340
0
  0
BLOCK_RECORD
  5
60
330
1
100
AcDbSymbolTableRecord
100
AcDbBlockTableRecord
  2
DMBLK65
340
0
  0
BLOCK_RECORD
  5
69
330
1
100
AcDbSymbolTableRecord
100
AcDbBlockTableRecord
  2
SE
340
0
102
{BLKREFS
331
6A
102
}
  0
BLOCK_RECORD
  5
B2
330
1
100
AcDbSymbolTableRecord
100
AcDbBlockTableRecord
  2
DMBLK66
340
0
  0
BLOCK_RECORD
  5
BC
330
1
100
AcDbSymbolTableRecord
100
AcDbBlockTableRecord
  2
DMBLK67
340
0
  0
BLOCK_RECORD
  5
C7
330
1
100
AcDbSymbolTableRecord
100
AcDbBlockTableRecord
  2
DMBLK68
340
0
  0
BLOCK_RECORD
  5
D0
330
1
100
AcDbSymbolTableRecord
100
AcDbBlockTableRecord
  2
SE1
340
0
102
{BLKREFS
331
D1
102
}
  0
ENDTAB
  0
ENDSEC
  0
SECTION
  2
BLOCKS
  0
BLOCK
  5
20
330
1F
100
AcDbEntity
  8
0
100
AcDbBlockBegin
  2
*Model_Space
 70
     0
 10
0.0
 20
0.0
 30
0.0
  3
*Model_Space
  1

  0
ENDBLK
  5
21
330
1F
100
AcDbEntity
  8
0
100
AcDbBlockEnd
  0
BLOCK
  5
1C
330
1B
100
AcDbEntity
 67
     1
  8
0
100
AcDbBlockBegin
  2
*Paper_Space
 70
     0
 10
0.0
 20
0.0
 30
0.0
  3
*Paper_Space
  1

  0
ENDBLK
  5
1D
330
1B
100
AcDbEntity
 67
     1
  8
0
100
AcDbBlockEnd
  0
BLOCK
  5
44
330
43
100
AcDbEntity
  8
0
100
AcDbBlockBegin
  2
_OBLIQUE
 70
     0
 10
0.0
 20
0.0
 30
0.0
  3
_OBLIQUE
  1

  0
LINE
  5
46
330
43
100
AcDbEntity
  8
0
  6
ByBlock
 62
     0
370
    -2
100
AcDbLine
 10
-0.5
 20
-0.5
 30
0.0
 11
0.5
 21
0.5
 31
0.0
  0
ENDBLK
  5
45
330
43
100
AcDbEntity
  8
0
100
AcDbBlockEnd
  0
BLOCK
  5
48
330
47
100
AcDbEntity
  8
0
100
AcDbBlockBegin
  2
_DOT
 70
     0
 10
0.0
 20
0.0
 30
0.0
  3
_DOT
  1

  0
POLYLINE
  5
4A
330
47
100
AcDbEntity
  8
0
  6
ByBlock
 62
     0
100
AcDb2dPolyline
 66
     1
 10
0.0
 20
0.0
 30
0.0
 70
     1
 40
0.5
 41
0.5
  0
VERTEX
  5
4C
330
4A
100
AcDbEntity
  8
0
  6
ByBlock
 62
     0
100
AcDbVertex
100
AcDb2dVertex
 10
-0.25
 20
0.0
 30
0.0
 42
1.0
  0
VERTEX
  5
4D
330
4A
100
AcDbEntity
  8
0
  6
ByBlock
 62
     0
100
AcDbVertex
100
AcDb2dVertex
 10
0.25
 20
0.0
 30
0.0
 42
1.0
  0
SEQEND
  5
4E
330
4A
100
AcDbEntity
  8
0
  6
ByBlock
 62
     0
  0
LINE
  5
4B
330
47
100
AcDbEntity
  8
0
  6
ByBlock
 62
     0
370
    -2
100
AcDbLine
 10
-0.5
 20
0.0
 30
0.0
 11
-1.0
 21
0.0
 31
0.0
  0
ENDBLK
  5
49
330
47
100
AcDbEntity
  8
0
100
AcDbBlockEnd
  0
BLOCK
  5
52
330
4F
100
AcDbEntity
  8
0
100
AcDbBlockBegin
  2
_SE_FILLED
 70
     0
 10
0.0
 20
0.0
 30
0.0
  3
_SE_FILLED
  1

  0
SOLID
  5
50
330
4F
100
AcDbEntity
  8
0
 62
     0
100
AcDbTrace
 10
0.0
 20
0.0
 30
0.0
 11
-1.0
 21
-0.1665
 31
0.0
 12
-1.0
 22
0.1665
 32
0.0
 13
0.0
 23
0.0
 33
0.0
  0
LINE
  5
51
330
4F
100
AcDbEntity
  8
0
 62
     0
100
AcDbLine
 10
0.0
 20
0.0
 30
0.0
 11
-1.0
 21
0.0
 31
0.0
  0
ENDBLK
  5
53
330
4F
100
AcDbEntity
  8
0
100
AcDbBlockEnd
  0
BLOCK
  5
5D
330
56
100
AcDbEntity
  8
0
100
AcDbBlockBegin
  2
DMBLK64
 70
     0
 10
0.0
 20
0.0
 30
0.0
  3
DMBLK64
  1

  0
HATCH
  5
57
330
56
100
AcDbEntity
  8
Standard
  6
Continuous
 62
     7
100
AcDbHatch
 10
0.0
 20
0.0
 30
0.0
210
0.0
220
0.0
230
1.0
  2
SOLID
 70
     1
 71
     0
 91
        1
 92
        1
 93
        3
 72
     1
 10
25.59075206718356
 20
198.1670391704199
 11
25.59075206718356
 21
199.4170391424803
 72
     1
 10
25.59075206718356
 20
199.4170391424803
 11
21.84075215100259
 21
198.7920391564501
 72
     1
 10
21.84075215100259
 20
198.7920391564501
 11
25.59075206718356
 21
198.1670391704199
 97
        0
 75
     0
 76
     1
 98
        0
  0
HATCH
  5
58
330
56
100
AcDbEntity
  8
Standard
  6
Continuous
 62
     7
100
AcDbHatch
 10
0.0
 20
0.0
 30
0.0
210
0.0
220
0.0
230
1.0
  2
SOLID
 70
     1
 71
     0
 91
        1
 92
        1
 93
        3
 72
     1
 10
65.03253551400215
 20
198.1670391704199
 11
68.78253543018312
 21
198.7920391564501
 72
     1
 10
68.78253543018312
 20
198.7920391564501
 11
65.03253551400215
 21
199.4170391424803
 72
     1
 10
65.03253551400215
 20
199.4170391424803
 11
65.03253551400215
 21
198.1670391704199
 97
        0
 75
     0
 76
     1
 98
        0
  0
LINE
  5
59
330
56
100
AcDbEntity
  8
Standard
  6
Continuous
 62
     7
100
AcDbLine
 10
21.840752151
 20
204.4242791324
 30
0.0
 11
21.840752151
 21
197.5420391844
 31
0.0
  0
LINE
  5
5A
330
56
100
AcDbEntity
  8
Standard
  6
Continuous
 62
     7
100
AcDbLine
 10
68.7825365109
 20
204.2828577762
 30
0.0
 11
68.7825365109
 21
197.5420391844
 31
0.0
  0
LINE
  5
5B
330
56
100
AcDbEntity
  8
Standard
  6
Continuous
 62
     7
100
AcDbLine
 10
21.840752151
 20
198.7920391565
 30
0.0
 11
68.7825354302
 21
198.7920391565
 31
0.0
  0
TEXT
  5
5C
330
56
100
AcDbEntity
  8
Standard
  6
Continuous
 62
     7
100
AcDbText
 10
43.3551220515
 20
199.4170391565
 30
0.0
 40
2.5
  1
47
  7
SEACAD_arial_ttf
 11
43.3551220515
 21
201.9170391565
 31
0.0
100
AcDbText
 73
     3
  0
ENDBLK
  5
5E
330
56
100
AcDbEntity
  8
0
100
AcDbBlockEnd
  0
BLOCK
  5
67
330
60
100
AcDbEntity
  8
0
100
AcDbBlockBegin
  2
DMBLK65
 70
     0
 10
0.0
 20
0.0
 30
0.0
  3
DMBLK65
  1

  0
HATCH
  5
61
330
60
100
AcDbEntity
  8
Standard
  6
Continuous
 62
     7
100
AcDbHatch
 10
0.0
 20
0.0
 30
0.0
210
0.0
220
0.0
230
1.0
  2
SOLID
 70
     1
 71
     0
 91
        1
 92
        1
 93
        3
 72
     1
 10
101.6227134902392
 20
220.1465970095544
 11
100.3727135181789
 21
220.1465970095544
 72
     1
 10
100.3727135181789
 20
220.1465970095544
 11
100.9977135042091
 21
216.3965970933735
 72
     1
 10
100.9977135042091
 20
216.3965970933735
 11
101.6227134902392
 21
220.1465970095544
 97
        0
 75
     0
 76
     1
 98
        0
  0
HATCH
  5
62
330
60
100
AcDbEntity
  8
Standard
  6
Continuous
 62
     7
100
AcDbHatch
 10
0.0
 20
0.0
 30
0.0
210
0.0
220
0.0
230
1.0
  2
SOLID
 70
     1
 71
     0
 91
        1
 92
        1
 93
        3
 72
     1
 10
101.6227134902392
 20
230.1744847748726
 11
100.9977135042091
 21
233.9244846910536
 72
     1
 10
100.9977135042091
 20
233.9244846910536
 11
100.3727135181789
 21
230.1744847748726
 72
     1
 10
100.3727135181789
 20
230.1744847748726
 11
101.6227134902392
 21
230.1744847748726
 97
        0
 75
     0
 76
     1
 98
        0
  0
LINE
  5
63
330
60
100
AcDbEntity
  8
Standard
  6
Continuous
 62
     7
100
AcDbLine
 10
95.4676219195
 20
216.3965970934
 30
0.0
 11
102.2477134763
 21
216.3965970934
 31
0.0
  0
LINE
  5
64
330
60
100
AcDbEntity
  8
Standard
  6
Continuous
 62
     7
100
AcDbLine
 10
95.4325947127
 20
233.9244837748
 30
0.0
 11
102.2477134763
 21
233.9244837748
 31
0.0
  0
LINE
  5
65
330
60
100
AcDbEntity
  8
Standard
  6
Continuous
 62
     7
100
AcDbLine
 10
100.9977135042
 20
216.3965970934
 30
0.0
 11
100.9977135042
 21
233.9244846911
 31
0.0
  0
TEXT
  5
66
330
60
100
AcDbEntity
  8
Standard
  6
Continuous
 62
     7
100
AcDbText
 10
100.3727135042
 20
223.2040191531
 30
0.0
 40
2.5
  1
18
 50
90.0
  7
SEACAD_arial_ttf
 11
97.8727135042
 21
223.2040191531
 31
0.0
100
AcDbText
 73
     3
  0
ENDBLK
  5
68
330
60
100
AcDbEntity
  8
0
100
AcDbBlockEnd
  0
BLOCK
  5
AF
330
69
100
AcDbEntity
  8
0
100
AcDbBlockBegin
  2
SE
 70
     0
 10
0.0
 20
0.0
 30
0.0
  3
SE
  1

  0
HATCH
  5
6C
330
69
100
AcDbEntity
  8
DV1_Standard
  6
Continuous
 62
   251
100
AcDbHatch
 10
0.0
 20
0.0
 30
0.0
210
0.0
220
0.0
230
1.0
  2
SOLID
 70
     1
 71
     0
 91
        1
 92
        1
 93
        1
 72
     3
 10
50.78253583954851
 20
217.5328579454905
 11
12.5
 21
0.0
 40
1.0
 50
0.0
 51
360.0
 73
     1
 97
        0
 75
     0
 76
     1
 98
        0
  0
HATCH
  5
6D
330
69
100
AcDbEntity
  8
DV1_Standard
  6
Continuous
 62
   254
100
AcDbHatch
 10
0.0
 20
0.0
 30
0.0
210
0.0
220
0.0
230
1.0
  2
SOLID
 70
     1
 71
     0
 91
        1
 92
        1
 93
       31
 72
     1
 10
31.38217350723991
 20
206.0328579285684
 11
31.38217350723991
 21
204.8328577826986
 72
     1
 10
31.3821735072399
 20
204.8328577826985
 11
38.58253594063502
 21
204.8328577826985
 72
     2
 10
38.58253594063503
 20
205.8328577826986
 40
0.9999999999999938
 50
270.0
 51
360.0
 73
     1
 72
     1
 10
39.58253594063503
 20
205.8328577826986
 11
39.582535940635
 21
207.9432801621799
 72
     2
 10
40.58253594063499
 20
207.9432801621799
 40
0.9999999999999943
 50
180.0
 51
316.7667645868341
 73
     0
 72
     2
 10
50.7825358395485
 20
217.5328579454905
 40
13.0
 50
223.2332354131658
 51
257.1614353570247
 73
     1
 72
     2
 10
48.11607822865954
 20
205.8328577826986
 40
1.000000000000001
 50
257.1614353570246
 51
270.0
 73
     1
 72
     1
 10
48.11607822865954
 20
204.8328577826986
 11
68.58253651091326
 21
204.8328577826986
 72
     2
 10
68.58253651091326
 20
205.0328577826986
 40
0.1999999999999988
 50
270.0
 51
360.0
 73
     1
 72
     1
 10
68.78253651091325
 20
205.0328577826986
 11
68.78253651091325
 21
205.8328579285684
 72
     2
 10
68.58253651091326
 20
205.8328579285684
 40
0.1999999999999988
 50
0.0
 51
90.0
 73
     1
 72
     1
 10
68.58253651091326
 20
206.0328579285684
 11
59.58253594063503
 21
206.0328579285684
 72
     2
 10
59.58253594063503
 20
207.0328579285684
 40
1.000000000000014
 50
90.0
 51
230.2073636427955
 73
     0
 72
     2
 10
50.7711647831185
 20
217.6113582803406
 40
12.76753178198465
 50
309.7926363572061
 51
346.4709397159103
 73
     1
 72
     2
 10
65.35253594063502
 20
214.1028579285684
 40
2.230000000000009
 50
193.5290602840903
 51
360.0
 73
     0
 72
     1
 10
67.58253594063503
 20
214.1028579285684
 11
67.58253594063503
 21
212.7328579285684
 72
     2
 10
67.78253594063501
 20
212.7328579285684
 40
0.1999999999999997
 50
180.0
 51
270.0
 73
     1
 72
     1
 10
67.78253594063501
 20
212.5328579285684
 11
68.58253651091326
 21
212.5328579285684
 72
     2
 10
68.58253651091326
 20
212.7328579285684
 40
0.1999999999999988
 50
270.0
 51
360.0
 73
     1
 72
     1
 10
68.78253651091325
 20
212.7328579285684
 11
68.78253651091326
 21
214.1028576435208
 72
     2
 10
65.33098668793288
 20
214.0851979858501
 40
3.451595000000002
 50
0.2931480277079827
 51
126.7910202948578
 73
     1
 72
     2
 10
50.78253583954851
 20
217.5328579454905
 40
12.5
 50
3.134659733191067
 51
319.6523193808805
 73
     0
 72
     2
 10
60.12717406698606
 20
228.620136078482
 40
2.999999999999882
 50
273.4777829732746
 51
315.0000000000011
 73
     1
 72
     1
 10
62.24849441054566
 20
226.4988157349225
 11
63.60680027241325
 21
227.8571215967902
 72
     2
 10
63.18253620370132
 20
228.2813856655021
 40
0.5999999999998596
 50
315.000000000001
 51
495.000000000002
 73
     1
 72
     1
 10
62.75827213498948
 20
228.7056497342139
 11
61.39996627312179
 21
227.3473438723462
 72
     2
 10
60.12717406698606
 20
228.620136078482
 40
1.799999999999946
 50
45.00000000000209
 51
130.1250359994283
 73
     0
 72
     2
 10
50.7825358395485
 20
217.5328579454905
 40
12.7
 50
49.87496400057133
 51
180.0
 73
     1
 72
     1
 10
38.0825358395485
 20
217.5328579454905
 11
38.0825358395485
 21
207.0328579285684
 72
     2
 10
37.08253583954851
 20
207.0328579285684
 40
1.000000000000001
 50
0.0
 51
90.0
 73
     0
 72
     1
 10
37.08253583954851
 20
206.0328579285684
 11
31.38217350723991
 21
206.0328579285684
 97
        0
 75
     0
 76
     1
 98
        0
  0
HATCH
  5
6E
330
69
100
AcDbEntity
  8
DV1_Standard
  6
Continuous
 62
   254
100
AcDbHatch
 10
0.0
 20
0.0
 30
0.0
210
0.0
220
0.0
230
1.0
  2
SOLID
 70
     1
 71
     0
 91
        1
 92
        1
 93
       14
 72
     1
 10
94.9825947061865
 20
216.5857492441659
 11
94.9825947061865
 21
233.7512786940672
 72
     2
 10
94.78259470618636
 20
233.7512786940673
 40
0.2000000000001432
 50
0.0
 51
120.0000000000092
 73
     1
 72
     1
 10
94.68259470618626
 20
233.9244837748242
 11
93.03259516392502
 21
232.971856094937
 72
     2
 10
93.28259516392505
 20
232.5388433930448
 40
0.5000000000000003
 50
120.0000000000006
 51
180.0
 73
     1
 72
     1
 10
92.78259516392505
 20
232.5388433930448
 11
92.78259516392505
 21
224.197214396547
 72
     2
 10
92.28259516392505
 20
224.197214396547
 40
0.4999999999999981
 50
0.0
 51
71.04266639671243
 73
     0
 72
     1
 10
92.44502714681708
 20
223.7243340195659
 11
89.30301987717155
 21
222.6450706457546
 72
     2
 10
89.5225812037012
 20
221.9383462115389
 40
0.7400450000000156
 50
107.2586920984211
 51
287.2742486688483
 73
     1
 72
     1
 10
89.74233440727131
 20
221.2316814172087
 11
91.8371766624766
 21
221.8831194119255
 72
     2
 10
92.28259525912298
 20
220.4507778766199
 40
1.500000000000001
 50
252.7257513311519
 51
467.2742486688484
 73
     0
 72
     1
 10
91.8371766624766
 20
219.0184363413143
 11
89.7423344072713
 21
219.6698743360311
 72
     2
 10
89.5225812037012
 20
218.963209541701
 40
0.7400450000000167
 50
72.72575133115173
 51
252.7413079015789
 73
     1
 72
     1
 10
89.30301987717155
 20
218.2564851074852
 11
94.7176219130297
 21
216.3965970933735
 72
     2
 10
94.78259470618652
 20
216.5857492441659
 40
0.1999999999999988
 50
251.0426663967096
 51
360.0
 73
     1
 97
        0
 75
     0
 76
     1
 98
        0
  0
HATCH
  5
6F
330
69
100
AcDbEntity
  8
DV1_Standard
  6
Continuous
 62
     7
100
AcDbHatch
 10
0.0
 20
0.0
 30
0.0
210
0.0
220
0.0
230
1.0
  2
SOLID
 70
     1
 71
     0
 91
        2
 92
        1
 93
        6
 72
     1
 10
92.03449848538531
 20
221.3657104774507
 11
89.5200438685305
 21
220.5047844788551
 72
     1
 10
89.5200438685305
 20
220.5047844788551
 11
60.30915856080512
 21
225.6256608917408
 72
     1
 10
60.30915856080512
 20
225.6256608917408
 11
60.38141363182305
 21
225.5398264810212
 72
     1
 10
60.38141363182304
 20
225.5398264810212
 11
89.63212846077403
 21
220.4119676691554
 72
     1
 10
89.63212846077404
 20
220.4119676691554
 11
92.02849286777094
 21
219.5734903092715
 72
     2
 10
92.34167416498394
 20
220.4685610046595
 40
0.9482795340333
 50
250.7152828897657
 51
468.9007294050812
 73
     1
 97
        0
 92
        1
 93
        4
 72
     1
 10
92.16599985780103
 20
220.9366833581055
 11
91.07416648801606
 21
220.562849713274
 72
     2
 10
91.10506371313255
 20
220.4726100521779
 40
0.0953825715456084
 50
108.9007294050825
 51
250.7152822890795
 73
     1
 72
     1
 10
91.07356241281853
 20
220.3825794849622
 11
92.17108527959329
 21
219.9985610639497
 72
     2
 10
92.34167416498394
 20
220.4685610046595
 40
0.5
 50
250.0513748217235
 51
470.5698245955041
 73
     1
 97
        0
 75
     0
 76
     1
 98
        0
  0
HATCH
  5
70
330
69
100
AcDbEntity
  8
DV1_Standard
  6
Continuous
 62
   254
100
AcDbHatch
 10
0.0
 20
0.0
 30
0.0
210
0.0
220
0.0
230
1.0
  2
SOLID
 70
     1
 71
     0
 91
        1
 92
        1
 93
        6
 72
     1
 10
28.18217350723991
 20
204.8328577826985
 11
28.18217350723991
 21
206.0328579285683
 72
     1
 10
28.18217350723991
 20
206.0328579285684
 11
22.78217365310964
 21
206.0328579285684
 72
     2
 10
22.78217365310964
 20
205.8328579285684
 40
0.2000000000000003
 50
90.0
 51
134.9999999999978
 73
     1
 72
     1
 10
22.64075229687233
 20
205.9742792848057
 11
21.84075215100259
 21
205.1742791389359
 72
     2
 10
21.9821735072399
 20
205.0328577826986
 40
0.1999999999999988
 50
134.9999999999978
 51
270.0
 73
     1
 72
     1
 10
21.9821735072399
 20
204.8328577826985
 11
28.1821735072399
 21
204.8328577826985
 97
        0
 75
     0
 76
     1
 98
        0
  0
HATCH
  5
71
330
69
100
AcDbEntity
  8
DV1_Standard
  6
Continuous
 62
   254
100
AcDbHatch
 10
0.0
 20
0.0
 30
0.0
210
0.0
220
0.0
230
1.0
  2
SOLID
 70
     1
 71
     0
 91
        1
 92
        1
 93
        4
 72
     1
 10
28.18217350723991
 20
206.0328579285684
 11
28.18217350723991
 21
204.8328577826986
 72
     1
 10
28.18217350723991
 20
204.8328577826985
 11
31.38217350723991
 21
204.8328577826985
 72
     1
 10
31.3821735072399
 20
204.8328577826985
 11
31.3821735072399
 21
206.0328579285684
 72
     1
 10
31.3821735072399
 20
206.0328579285684
 11
28.1821735072399
 21
206.0328579285684
 97
        0
 75
     0
 76
     1
 98
        0
  0
LINE
  5
72
330
69
100
AcDbEntity
  8
Standard
  6
Continuous
 62
     7
100
AcDbLine
 10
92.7825951639
 20
232.1512786941
 30
0.0
 11
94.9825947062
 21
229.9512791518
 31
0.0
  0
LINE
  5
73
330
69
100
AcDbEntity
  8
Standard
  6
Continuous
 62
     7
100
AcDbLine
 10
92.7825951639
 20
224.5512786941
 30
0.0
 11
94.9825947062
 21
226.7512782363
 31
0.0
  0
LINE
  5
74
330
69
100
AcDbEntity
  8
Standard
  6
Continuous
 62
     7
100
AcDbLine
 10
94.9825947062
 20
229.9512786941
 30
0.0
 11
92.7825951639
 21
232.1512786941
 31
0.0
  0
ARC
  5
75
330
69
100
AcDbEntity
  8
Standard
  6
Continuous
 62
     7
100
AcDbCircle
 10
94.7825947062
 20
216.5857492442
 30
0.0
 40
0.1999999999999988
100
AcDbArc
 50
251.0426663967
 51
0.0
  0
LINE
  5
76
330
69
100
AcDbEntity
  8
Standard
  6
Continuous
 62
     7
100
AcDbLine
 10
94.9825947062
 20
233.7512786941
 30
0.0
 11
94.9825947062
 21
216.5857492442
 31
0.0
  0
ARC
  5
77
330
69
100
AcDbEntity
  8
Standard
  6
Continuous
 62
     7
100
AcDbCircle
 10
94.7825947062
 20
233.7512786941
 30
0.0
 40
0.2000000000001432
100
AcDbArc
 50
0.0
 51
120.0
  0
LINE
  5
78
330
69
100
AcDbEntity
  8
Standard
  6
Continuous
 62
     7
100
AcDbLine
 10
93.0325951639
 20
232.9718560949
 30
0.0
 11
94.6825947062
 21
233.9244837748
 31
0.0
  0
ARC
  5
79
330
69
100
AcDbEntity
  8
Standard
  6
Continuous
 62
     7
100
AcDbCircle
 10
93.2825951639
 20
232.538843393
 30
0.0
 40
0.5000000000000003
100
AcDbArc
 50
120.0
 51
180.0
  0
LINE
  5
7A
330
69
100
AcDbEntity
  8
Standard
  6
Continuous
 62
     7
100
AcDbLine
 10
92.7825951639
 20
224.1972143965
 30
0.0
 11
92.7825951639
 21
232.538843393
 31
0.0
  0
ARC
  5
7B
330
69
100
AcDbEntity
  8
Standard
  6
Continuous
 62
     7
100
AcDbCircle
 10
92.2825951639
 20
224.1972143965
 30
0.0
 40
0.4999999999999981
100
AcDbArc
 50
288.9573336033
 51
0.0
  0
LINE
  5
7C
330
69
100
AcDbEntity
  8
Standard
  6
Continuous
 62
     7
100
AcDbLine
 10
89.3030198772
 20
222.6450706458
 30
0.0
 11
92.4450271468
 21
223.7243340196
 31
0.0
  0
ARC
  5
7D
330
69
100
AcDbEntity
  8
Standard
  6
Continuous
 62
     7
100
AcDbCircle
 10
89.5225812037
 20
221.9383462115
 30
0.0
 40
0.7400450000000156
100
AcDbArc
 50
107.2586920984
 51
287.2742486688
  0
LINE
  5
7E
330
69
100
AcDbEntity
  8
Standard
  6
Continuous
 62
     7
100
AcDbLine
 10
91.8371766625
 20
221.8831194119
 30
0.0
 11
89.7423344073
 21
221.2316814172
 31
0.0
  0
ARC
  5
7F
330
69
100
AcDbEntity
  8
Standard
  6
Continuous
 62
     7
100
AcDbCircle
 10
92.2825952591
 20
220.4507778766
 30
0.0
 40
1.500000000000001
100
AcDbArc
 50
252.7257513312
 51
107.2742486688
  0
LINE
  5
80
330
69
100
AcDbEntity
  8
Standard
  6
Continuous
 62
     7
100
AcDbLine
 10
91.8371766625
 20
219.0184363413
 30
0.0
 11
89.7423344073
 21
219.669874336
 31
0.0
  0
ARC
  5
81
330
69
100
AcDbEntity
  8
Standard
  6
Continuous
 62
     7
100
AcDbCircle
 10
89.5225812037
 20
218.9632095417
 30
0.0
 40
0.7400450000000167
100
AcDbArc
 50
72.7257513312
 51
252.7413079016
  0
LINE
  5
82
330
69
100
AcDbEntity
  8
Standard
  6
Continuous
 62
     7
100
AcDbLine
 10
94.717621913
 20
216.3965970934
 30
0.0
 11
89.3030198772
 21
218.2564851075
 31
0.0
  0
CIRCLE
  5
83
330
69
100
AcDbEntity
  8
Standard
  6
Continuous
 62
     7
100
AcDbCircle
 10
50.7825358395
 20
217.5328579455
 30
0.0
 40
12.5
  0
LINE
  5
84
330
69
100
AcDbEntity
  8
Standard
  6
Continuous
 62
     7
100
AcDbLine
 10
28.1821735072
 20
204.8328577827
 30
0.0
 11
28.1821735072
 21
206.0328579286
 31
0.0
  0
LINE
  5
85
330
69
100
AcDbEntity
  8
Standard
  6
Continuous
 62
     7
100
AcDbLine
 10
38.5825359406
 20
204.8328577827
 30
0.0
 11
21.9821735072
 21
204.8328577827
 31
0.0
  0
LINE
  5
86
330
69
100
AcDbEntity
  8
Standard
  6
Continuous
 62
     7
100
AcDbLine
 10
31.3821735072
 20
204.8328577827
 30
0.0
 11
31.3821735072
 21
206.0328579286
 31
0.0
  0
LINE
  5
87
330
69
100
AcDbEntity
  8
Standard
  6
Continuous
 62
     7
100
AcDbLine
 10
22.7821736531
 20
206.0328579286
 30
0.0
 11
37.0825358395
 21
206.0328579286
 31
0.0
  0
ARC
  5
88
330
69
100
AcDbEntity
  8
Standard
  6
Continuous
 62
     7
100
AcDbCircle
 10
22.7821736531
 20
205.8328579286
 30
0.0
 40
0.2000000000000003
100
AcDbArc
 50
90.0
 51
135.0
  0
LINE
  5
89
330
69
100
AcDbEntity
  8
Standard
  6
Continuous
 62
     7
100
AcDbLine
 10
21.840752151
 20
205.1742791389
 30
0.0
 11
22.6407522969
 21
205.9742792848
 31
0.0
  0
ARC
  5
8A
330
69
100
AcDbEntity
  8
Standard
  6
Continuous
 62
     7
100
AcDbCircle
 10
21.9821735072
 20
205.0328577827
 30
0.0
 40
0.1999999999999988
100
AcDbArc
 50
135.0
 51
270.0
  0
ARC
  5
8B
330
69
100
AcDbEntity
  8
Standard
  6
Continuous
 62
     7
100
AcDbCircle
 10
38.5825359406
 20
205.8328577827
 30
0.0
 40
0.9999999999999938
100
AcDbArc
 50
270.0
 51
0.0
  0
LINE
  5
8C
330
69
100
AcDbEntity
  8
Standard
  6
Continuous
 62
     7
100
AcDbLine
 10
39.5825359406
 20
207.9432801622
 30
0.0
 11
39.5825359406
 21
205.8328577827
 31
0.0
  0
ARC
  5
8D
330
69
100
AcDbEntity
  8
Standard
  6
Continuous
 62
     7
100
AcDbCircle
 10
40.5825359406
 20
207.9432801622
 30
0.0
 40
0.9999999999999943
100
AcDbArc
 50
43.2332354132
 51
180.0
  0
ARC
  5
8E
330
69
100
AcDbEntity
  8
Standard
  6
Continuous
 62
     7
100
AcDbCircle
 10
50.7825358395
 20
217.5328579455
 30
0.0
 40
13.0
100
AcDbArc
 50
223.2332354132
 51
257.161435357
  0
ARC
  5
8F
330
69
100
AcDbEntity
  8
Standard
  6
Continuous
 62
     7
100
AcDbCircle
 10
48.1160782287
 20
205.8328577827
 30
0.0
 40
1.000000000000001
100
AcDbArc
 50
257.161435357
 51
270.0
  0
LINE
  5
90
330
69
100
AcDbEntity
  8
Standard
  6
Continuous
 62
     7
100
AcDbLine
 10
68.5825365109
 20
204.8328577827
 30
0.0
 11
48.1160782287
 21
204.8328577827
 31
0.0
  0
ARC
  5
91
330
69
100
AcDbEntity
  8
Standard
  6
Continuous
 62
     7
100
AcDbCircle
 10
68.5825365109
 20
205.0328577827
 30
0.0
 40
0.1999999999999988
100
AcDbArc
 50
270.0
 51
0.0
  0
LINE
  5
92
330
69
100
AcDbEntity
  8
Standard
  6
Continuous
 62
     7
100
AcDbLine
 10
68.7825365109
 20
205.8328579286
 30
0.0
 11
68.7825365109
 21
205.0328577827
 31
0.0
  0
ARC
  5
93
330
69
100
AcDbEntity
  8
Standard
  6
Continuous
 62
     7
100
AcDbCircle
 10
68.5825365109
 20
205.8328579286
 30
0.0
 40
0.1999999999999988
100
AcDbArc
 50
0.0
 51
90.0
  0
LINE
  5
94
330
69
100
AcDbEntity
  8
Standard
  6
Continuous
 62
     7
100
AcDbLine
 10
59.5825359406
 20
206.0328579286
 30
0.0
 11
68.5825365109
 21
206.0328579286
 31
0.0
  0
ARC
  5
95
330
69
100
AcDbEntity
  8
Standard
  6
Continuous
 62
     7
100
AcDbCircle
 10
59.5825359406
 20
207.0328579286
 30
0.0
 40
1.000000000000014
100
AcDbArc
 50
129.7926363572
 51
270.0
  0
ARC
  5
96
330
69
100
AcDbEntity
  8
Standard
  6
Continuous
 62
     7
100
AcDbCircle
 10
50.7711647831
 20
217.6113582803
 30
0.0
 40
12.76753178198465
100
AcDbArc
 50
309.7926363572
 51
346.4709397159
  0
ARC
  5
97
330
69
100
AcDbEntity
  8
Standard
  6
Continuous
 62
     7
100
AcDbCircle
 10
65.3525359406
 20
214.1028579286
 30
0.0
 40
2.230000000000009
100
AcDbArc
 50
0.0
 51
166.4709397159
  0
LINE
  5
98
330
69
100
AcDbEntity
  8
Standard
  6
Continuous
 62
     7
100
AcDbLine
 10
67.5825359406
 20
212.7328579286
 30
0.0
 11
67.5825359406
 21
214.1028579286
 31
0.0
  0
ARC
  5
99
330
69
100
AcDbEntity
  8
Standard
  6
Continuous
 62
     7
100
AcDbCircle
 10
67.7825359406
 20
212.7328579286
 30
0.0
 40
0.1999999999999997
100
AcDbArc
 50
180.0
 51
270.0
  0
LINE
  5
9A
330
69
100
AcDbEntity
  8
Standard
  6
Continuous
 62
     7
100
AcDbLine
 10
68.5825365109
 20
212.5328579286
 30
0.0
 11
67.7825359406
 21
212.5328579286
 31
0.0
  0
ARC
  5
9B
330
69
100
AcDbEntity
  8
Standard
  6
Continuous
 62
     7
100
AcDbCircle
 10
68.5825365109
 20
212.7328579286
 30
0.0
 40
0.1999999999999988
100
AcDbArc
 50
270.0
 51
0.0
  0
LINE
  5
9C
330
69
100
AcDbEntity
  8
Standard
  6
Continuous
 62
     7
100
AcDbLine
 10
68.7825365109
 20
214.1028576435
 30
0.0
 11
68.7825365109
 21
212.7328579286
 31
0.0
  0
ARC
  5
9D
330
69
100
AcDbEntity
  8
Standard
  6
Continuous
 62
     7
100
AcDbCircle
 10
65.3309866879
 20
214.0851979859
 30
0.0
 40
3.451595000000002
100
AcDbArc
 50
0.2931480277
 51
126.7910202949
  0
ARC
  5
9E
330
69
100
AcDbEntity
  8
Standard
  6
Continuous
 62
     7
100
AcDbCircle
 10
60.127174067
 20
228.6201360785
 30
0.0
 40
2.999999999999882
100
AcDbArc
 50
273.4777829733
 51
315.0
  0
LINE
  5
9F
330
69
100
AcDbEntity
  8
Standard
  6
Continuous
 62
     7
100
AcDbLine
 10
63.6068002724
 20
227.8571215968
 30
0.0
 11
62.2484944105
 21
226.4988157349
 31
0.0
  0
ARC
  5
A0
330
69
100
AcDbEntity
  8
Standard
  6
Continuous
 62
     7
100
AcDbCircle
 10
63.1825362037
 20
228.2813856655
 30
0.0
 40
0.5999999999998596
100
AcDbArc
 50
315.0
 51
135.0
  0
LINE
  5
A1
330
69
100
AcDbEntity
  8
Standard
  6
Continuous
 62
     7
100
AcDbLine
 10
61.3999662731
 20
227.3473438723
 30
0.0
 11
62.758272135
 21
228.7056497342
 31
0.0
  0
ARC
  5
A2
330
69
100
AcDbEntity
  8
Standard
  6
Continuous
 62
     7
100
AcDbCircle
 10
60.127174067
 20
228.6201360785
 30
0.0
 40
1.799999999999946
100
AcDbArc
 50
229.8749640006
 51
315.0
  0
ARC
  5
A3
330
69
100
AcDbEntity
  8
Standard
  6
Continuous
 62
     7
100
AcDbCircle
 10
50.7825358395
 20
217.5328579455
 30
0.0
 40
12.7
100
AcDbArc
 50
49.8749640006
 51
180.0
  0
LINE
  5
A4
330
69
100
AcDbEntity
  8
Standard
  6
Continuous
 62
     7
100
AcDbLine
 10
38.0825358395
 20
207.0328579286
 30
0.0
 11
38.0825358395
 21
217.5328579455
 31
0.0
  0
ARC
  5
A5
330
69
100
AcDbEntity
  8
Standard
  6
Continuous
 62
     7
100
AcDbCircle
 10
37.0825358395
 20
207.0328579286
 30
0.0
 40
1.000000000000001
100
AcDbArc
 50
270.0
 51
0.0
  0
LINE
  5
A6
330
69
100
AcDbEntity
  8
Standard
  6
Continuous
 62
     7
100
AcDbLine
 10
92.1659998578
 20
220.9366833581
 30
0.0
 11
91.074166488
 21
220.5628497133
 31
0.0
  0
ARC
  5
A7
330
69
100
AcDbEntity
  8
Standard
  6
Continuous
 62
     7
100
AcDbCircle
 10
92.341674165
 20
220.4685610047
 30
0.0
 40
0.5
100
AcDbArc
 50
250.0513748217
 51
110.5698245955
  0
LINE
  5
A8
330
69
100
AcDbEntity
  8
Standard
  6
Continuous
 62
     7
100
AcDbLine
 10
92.1710852796
 20
219.9985610639
 30
0.0
 11
91.0735624128
 21
220.382579485
 31
0.0
  0
ARC
  5
A9
330
69
100
AcDbEntity
  8
Standard
  6
Continuous
 62
     7
100
AcDbCircle
 10
91.1050637131
 20
220.4726100522
 30
0.0
 40
0.0953825715456084
100
AcDbArc
 50
108.9007294051
 51
250.7152822891
  0
ARC
  5
AA
330
69
100
AcDbEntity
  8
Standard
  6
Continuous
 62
     7
100
AcDbCircle
 10
92.341674165
 20
220.4685610047
 30
0.0
 40
0.9482795340333
100
AcDbArc
 50
250.7152828898
 51
108.9007294051
  0
LINE
  5
AB
330
69
100
AcDbEntity
  8
Standard
  6
Continuous
 62
     7
100
AcDbLine
 10
92.0344984854
 20
221.3657104775
 30
0.0
 11
89.5200438685
 21
220.5047844789
 31
0.0
  0
LINE
  5
AC
330
69
100
AcDbEntity
  8
Standard
  6
Continuous
 62
     7
100
AcDbLine
 10
89.5200438685
 20
220.5047844789
 30
0.0
 11
60.3091585608
 21
225.6256608917
 31
0.0
  0
LINE
  5
AD
330
69
100
AcDbEntity
  8
Standard
  6
Continuous
 62
     7
100
AcDbLine
 10
60.3814136318
 20
225.539826481
 30
0.0
 11
89.6321284608
 21
220.4119676692
 31
0.0
  0
LINE
  5
AE
330
69
100
AcDbEntity
  8
Standard
  6
Continuous
 62
     7
100
AcDbLine
 10
92.0284928678
 20
219.5734903093
 30
0.0
 11
89.6321284608
 21
220.4119676692
 31
0.0
  0
ENDBLK
  5
B0
330
69
100
AcDbEntity
  8
0
100
AcDbBlockEnd
  0
BLOCK
  5
B9
330
B2
100
AcDbEntity
  8
0
100
AcDbBlockBegin
  2
DMBLK66
 70
     0
 10
0.0
 20
0.0
 30
0.0
  3
DMBLK66
  1

  0
HATCH
  5
B3
330
B2
100
AcDbEntity
  8
Standard
  6
Continuous
 62
     7
100
AcDbHatch
 10
0.0
 20
0.0
 30
0.0
210
0.0
220
0.0
230
1.0
  2
SOLID
 70
     1
 71
     0
 91
        1
 92
        1
 93
        3
 72
     1
 10
85.03253628752022
 20
209.7620042522636
 11
88.78253620370118
 21
210.3870042382937
 72
     1
 10
88.78253620370118
 20
210.3870042382937
 11
85.03253628752022
 21
211.0120042243239
 72
     1
 10
85.03253628752022
 20
211.0120042243239
 11
85.03253628752022
 21
209.7620042522636
 97
        0
 75
     0
 76
     1
 98
        0
  0
HATCH
  5
B4
330
B2
100
AcDbEntity
  8
Standard
  6
Continuous
 62
     7
100
AcDbHatch
 10
0.0
 20
0.0
 30
0.0
210
0.0
220
0.0
230
1.0
  2
SOLID
 70
     1
 71
     0
 91
        1
 92
        1
 93
        3
 72
     1
 10
98.73259462236747
 20
209.7620042522636
 11
98.73259462236747
 21
211.0120042243239
 72
     1
 10
98.73259462236747
 20
211.0120042243239
 11
94.9825947061865
 21
210.3870042382937
 72
     1
 10
94.9825947061865
 20
210.3870042382937
 11
98.73259462236747
 21
209.7620042522636
 97
        0
 75
     0
 76
     1
 98
        0
  0
LINE
  5
B5
330
B2
100
AcDbEntity
  8
Standard
  6
Continuous
 62
     7
100
AcDbLine
 10
88.7825362037
 20
217.8487807295
 30
0.0
 11
88.7825362037
 21
209.1370042662
 31
0.0
  0
LINE
  5
B6
330
B2
100
AcDbEntity
  8
Standard
  6
Continuous
 62
     7
100
AcDbLine
 10
94.9825947062
 20
233.0012786875
 30
0.0
 11
94.9825947062
 21
209.1370042662
 31
0.0
  0
LINE
  5
B7
330
B2
100
AcDbEntity
  8
Standard
  6
Continuous
 62
     7
100
AcDbLine
 10
81.2825363713
 20
210.3870042383
 30
0.0
 11
102.4825948875
 21
210.3870042383
 31
0.0
  0
TEXT
  5
B8
330
B2
100
AcDbEntity
  8
Standard
  6
Continuous
 62
     7
100
AcDbText
 10
90.904304527
 20
211.0120042383
 30
0.0
 40
2.5
  1
6
  7
SEACAD_arial_ttf
 11
90.904304527
 21
213.5120042383
 31
0.0
100
AcDbText
 73
     3
  0
ENDBLK
  5
BA
330
B2
100
AcDbEntity
  8
0
100
AcDbBlockEnd
  0
BLOCK
  5
C4
330
BC
100
AcDbEntity
  8
0
100
AcDbBlockBegin
  2
DMBLK67
 70
     0
 10
0.0
 20
0.0
 30
0.0
  3
DMBLK67
  1

  0
HATCH
  5
BD
330
BC
100
AcDbEntity
  8
Standard
  6
Continuous
 62
     7
100
AcDbHatch
 10
0.0
 20
0.0
 30
0.0
210
0.0
220
0.0
230
1.0
  2
SOLID
 70
     1
 71
     0
 91
        1
 92
        1
 93
        3
 72
     1
 10
67.53253611988215
 20
235.509216370735
 11
63.78253620370118
 21
234.8842163847048
 72
     1
 10
63.78253620370118
 20
234.8842163847048
 11
67.53253611988215
 21
234.2592163986747
 72
     1
 10
67.53253611988215
 20
234.2592163986747
 11
67.53253611988215
 21
235.509216370735
 97
        0
 75
     0
 76
     1
 98
        0
  0
HATCH
  5
BE
330
BC
100
AcDbEntity
  8
Standard
  6
Continuous
 62
     7
100
AcDbHatch
 10
0.0
 20
0.0
 30
0.0
210
0.0
220
0.0
230
1.0
  2
SOLID
 70
     1
 71
     0
 91
        1
 92
        1
 93
        3
 72
     1
 10
85.03253666004925
 20
235.509216370735
 11
85.03253666004925
 21
234.2592163986747
 72
     1
 10
85.03253666004925
 20
234.2592163986747
 11
88.78253657623021
 21
234.8842163847048
 72
     1
 10
88.78253657623021
 20
234.8842163847048
 11
85.03253666004925
 21
235.509216370735
 97
        0
 75
     0
 76
     1
 98
        0
  0
LINE
  5
BF
330
BC
100
AcDbEntity
  8
Standard
  6
Continuous
 62
     7
100
AcDbLine
 10
63.7825362037
 20
229.031385672
 30
0.0
 11
63.7825362037
 21
236.1342163568
 31
0.0
  0
LINE
  5
C0
330
BC
100
AcDbEntity
  8
Standard
  6
Continuous
 62
     7
100
AcDbLine
 10
88.7825362037
 20
222.6883462181
 30
0.0
 11
88.7825362037
 21
236.1342163568
 31
0.0
  0
LINE
  5
C1
330
BC
100
AcDbEntity
  8
Standard
  6
Continuous
 62
     7
100
AcDbLine
 10
63.7825362037
 20
234.8842163847
 30
0.0
 11
88.7825365762
 21
234.8842163847
 31
0.0
  0
TEXT
  5
C2
330
BC
100
AcDbEntity
  8
Standard
  6
Continuous
 62
     7
100
AcDbText
 10
76.2064494334
 20
235.5092163847
 30
0.0
 40
2.5
  1
25
  7
SEACAD_arial_ttf
 11
76.2064494334
 21
238.0092163847
 31
0.0
100
AcDbText
 73
     3
  0
TEXT
  5
C3
330
BC
100
AcDbEntity
  8
Standard
  6
Continuous
 62
     7
100
AcDbText
 10
72.4455798682
 20
235.5092163847
 30
0.0
 40
2.5
  1
>
  7
SEACAD_arial_ttf
 11
72.4455798682
 21
238.0092163847
 31
0.0
100
AcDbText
 73
     3
  0
ENDBLK
  5
C5
330
BC
100
AcDbEntity
  8
0
100
AcDbBlockEnd
  0
BLOCK
  5
CE
330
C7
100
AcDbEntity
  8
0
100
AcDbBlockBegin
  2
DMBLK68
 70
     0
 10
0.0
 20
0.0
 30
0.0
  3
DMBLK68
  1

  0
HATCH
  5
C8
330
C7
100
AcDbEntity
  8
Standard
  6
Continuous
 62
     7
100
AcDbHatch
 10
0.0
 20
0.0
 30
0.0
210
0.0
220
0.0
230
1.0
  2
SOLID
 70
     1
 71
     0
 91
        1
 92
        1
 93
        3
 72
     1
 10
15.16518551125028
 20
208.5828576988795
 11
15.79018549728044
 21
204.8328577826985
 72
     1
 10
15.79018549728044
 20
204.8328577826985
 11
16.41518548331061
 21
208.5828576988795
 72
     1
 10
16.41518548331061
 20
208.5828576988795
 11
15.16518551125028
 21
208.5828576988795
 97
        0
 75
     0
 76
     1
 98
        0
  0
HATCH
  5
C9
330
C7
100
AcDbEntity
  8
Standard
  6
Continuous
 62
     7
100
AcDbHatch
 10
0.0
 20
0.0
 30
0.0
210
0.0
220
0.0
230
1.0
  2
SOLID
 70
     1
 71
     0
 91
        1
 92
        1
 93
        3
 72
     1
 10
15.16518551125028
 20
226.4828575595537
 11
16.41518548331061
 21
226.4828575595537
 72
     1
 10
16.41518548331061
 20
226.4828575595537
 11
15.79018549728044
 21
230.2328574757346
 72
     1
 10
15.79018549728044
 20
230.2328574757346
 11
15.16518551125028
 21
226.4828575595537
 97
        0
 75
     0
 76
     1
 98
        0
  0
LINE
  5
CA
330
C7
100
AcDbEntity
  8
Standard
  6
Continuous
 62
     7
100
AcDbLine
 10
21.2321735007
 20
204.8328577827
 30
0.0
 11
14.5401855252
 21
204.8328577827
 31
0.0
  0
LINE
  5
CB
330
C7
100
AcDbEntity
  8
Standard
  6
Continuous
 62
     7
100
AcDbLine
 10
49.8285899262
 20
230.2328579455
 30
0.0
 11
14.5401855252
 21
230.2328579455
 31
0.0
  0
LINE
  5
CC
330
C7
100
AcDbEntity
  8
Standard
  6
Continuous
 62
     7
100
AcDbLine
 10
15.7901854973
 20
204.8328577827
 30
0.0
 11
15.7901854973
 21
230.2328574757
 31
0.0
  0
TEXT
  5
CD
330
C7
100
AcDbEntity
  8
Standard
  6
Continuous
 62
     7
100
AcDbText
 10
15.1651854973
 20
215.5763358901
 30
0.0
 40
2.5
  1
25
 50
90.0
  7
SEACAD_arial_ttf
 11
12.6651854973
 21
215.5763358901
 31
0.0
100
AcDbText
 73
     3
  0
ENDBLK
  5
CF
330
C7
100
AcDbEntity
  8
0
100
AcDbBlockEnd
  0
BLOCK
  5
116
330
D0
100
AcDbEntity
  8
0
100
AcDbBlockBegin
  2
SE1
 70
     0
 10
0.0
 20
0.0
 30
0.0
  3
SE1
  1

  0
HATCH
  5
D3
330
D0
100
AcDbEntity
  8
DV2_Standard
  6
Continuous
 62
   251
100
AcDbHatch
 10
0.0
 20
0.0
 30
0.0
210
0.0
220
0.0
230
1.0
  2
SOLID
 70
     1
 71
     0
 91
        1
 92
        1
 93
        1
 72
     3
 10
146.6596483483382
 20
217.5328579454905
 11
12.5
 21
0.0
 40
1.0
 50
0.0
 51
360.0
 73
     1
 97
        0
 75
     0
 76
     1
 98
        0
  0
HATCH
  5
D4
330
D0
100
AcDbEntity
  8
DV2_Standard
  6
Continuous
 62
   254
100
AcDbHatch
 10
0.0
 20
0.0
 30
0.0
210
0.0
220
0.0
230
1.0
  2
SOLID
 70
     1
 71
     0
 91
        1
 92
        1
 93
       31
 72
     1
 10
127.2592860160296
 20
206.0328579285684
 11
127.2592860160296
 21
204.8328577826986
 72
     1
 10
127.2592860160296
 20
204.8328577826985
 11
134.4596484494247
 21
204.8328577826985
 72
     2
 10
134.4596484494247
 20
205.8328577826986
 40
0.9999999999999938
 50
270.0
 51
360.0
 73
     1
 72
     1
 10
135.4596484494247
 20
205.8328577826986
 11
135.4596484494247
 21
207.9432801621799
 72
     2
 10
136.4596484494247
 20
207.9432801621799
 40
0.9999999999999943
 50
180.0
 51
316.7667645868338
 73
     0
 72
     2
 10
146.6596483483382
 20
217.5328579454905
 40
13.0
 50
223.2332354131657
 51
257.1614353570246
 73
     1
 72
     2
 10
143.9931907374492
 20
205.8328577826986
 40
1.000000000000001
 50
257.1614353570246
 51
270.0
 73
     1
 72
     1
 10
143.9931907374492
 20
204.8328577826986
 11
164.4596490197029
 21
204.8328577826986
 72
     2
 10
164.4596490197029
 20
205.0328577826986
 40
0.1999999999999988
 50
270.0
 51
360.0
 73
     1
 72
     1
 10
164.6596490197029
 20
205.0328577826986
 11
164.6596490197029
 21
205.8328579285684
 72
     2
 10
164.4596490197029
 20
205.8328579285684
 40
0.1999999999999988
 50
0.0
 51
90.0
 73
     1
 72
     1
 10
164.4596490197029
 20
206.0328579285684
 11
155.4596484494247
 21
206.0328579285684
 72
     2
 10
155.4596484494247
 20
207.0328579285684
 40
1.000000000000014
 50
90.0
 51
230.2073636427958
 73
     0
 72
     2
 10
146.6482772919082
 20
217.6113582803406
 40
12.76753178198465
 50
309.7926363572061
 51
346.4709397159103
 73
     1
 72
     2
 10
161.2296484494247
 20
214.1028579285684
 40
2.230000000000009
 50
193.5290602840903
 51
360.0
 73
     0
 72
     1
 10
163.4596484494247
 20
214.1028579285684
 11
163.4596484494247
 21
212.7328579285684
 72
     2
 10
163.6596484494247
 20
212.7328579285684
 40
0.1999999999999997
 50
180.0
 51
270.0
 73
     1
 72
     1
 10
163.6596484494247
 20
212.5328579285684
 11
164.4596490197029
 21
212.5328579285684
 72
     2
 10
164.4596490197029
 20
212.7328579285684
 40
0.1999999999999988
 50
270.0
 51
360.0
 73
     1
 72
     1
 10
164.659649019703
 20
212.7328579285684
 11
164.6596490197029
 21
214.1028576435208
 72
     2
 10
161.2080991967225
 20
214.0851979858501
 40
3.451595000000002
 50
0.2931480277079803
 51
126.7910202948575
 73
     1
 72
     2
 10
146.6596483483382
 20
217.5328579454905
 40
12.5
 50
3.134659733191067
 51
319.6523193808804
 73
     0
 72
     2
 10
156.0042865757758
 20
228.620136078482
 40
2.999999999999882
 50
273.4777829732745
 51
315.0000000000007
 73
     1
 72
     1
 10
158.1256069193353
 20
226.4988157349225
 11
159.4839127812029
 21
227.8571215967902
 72
     2
 10
159.059648712491
 20
228.2813856655021
 40
0.5999999999998596
 50
315.0000000000019
 51
495.000000000002
 73
     1
 72
     1
 10
158.6353846437792
 20
228.7056497342139
 11
157.2770787819115
 21
227.3473438723462
 72
     2
 10
156.0042865757758
 20
228.620136078482
 40
1.799999999999946
 50
45.00000000000255
 51
130.1250359994283
 73
     0
 72
     2
 10
146.6596483483382
 20
217.5328579454905
 40
12.7
 50
49.87496400057142
 51
180.0
 73
     1
 72
     1
 10
133.9596483483382
 20
217.5328579454905
 11
133.9596483483382
 21
207.0328579285684
 72
     2
 10
132.9596483483382
 20
207.0328579285684
 40
1.000000000000001
 50
0.0
 51
90.0
 73
     0
 72
     1
 10
132.9596483483382
 20
206.0328579285684
 11
127.2592860160296
 21
206.0328579285684
 97
        0
 75
     0
 76
     1
 98
        0
  0
HATCH
  5
D5
330
D0
100
AcDbEntity
  8
DV2_Standard
  6
Continuous
 62
   254
100
AcDbHatch
 10
0.0
 20
0.0
 30
0.0
210
0.0
220
0.0
230
1.0
  2
SOLID
 70
     1
 71
     0
 91
        1
 92
        1
 93
       14
 72
     1
 10
190.8597072149762
 20
216.5857492441659
 11
190.8597072149762
 21
233.7512786940672
 72
     2
 10
190.659707214976
 20
233.7512786940673
 40
0.2000000000001432
 50
0.0
 51
120.0000000000057
 73
     1
 72
     1
 10
190.559707214976
 20
233.9244837748242
 11
188.9097076727147
 21
232.971856094937
 72
     2
 10
189.1597076727147
 20
232.5388433930448
 40
0.5000000000000003
 50
120.0000000000006
 51
180.0
 73
     1
 72
     1
 10
188.6597076727147
 20
232.5388433930448
 11
188.6597076727147
 21
224.197214396547
 72
     2
 10
188.1597076727147
 20
224.197214396547
 40
0.4999999999999981
 50
0.0
 51
71.04266639670932
 73
     0
 72
     1
 10
188.3221396556068
 20
223.7243340195659
 11
185.1801323859613
 21
222.6450706457546
 72
     2
 10
185.3996937124909
 20
221.9383462115389
 40
0.7400450000000156
 50
107.2586920984221
 51
287.2742486688483
 73
     1
 72
     1
 10
185.619446916061
 20
221.2316814172087
 11
187.7142891712663
 21
221.8831194119255
 72
     2
 10
188.1597077679127
 20
220.4507778766199
 40
1.500000000000001
 50
252.7257513311509
 51
467.2742486688495
 73
     0
 72
     1
 10
187.7142891712662
 20
219.0184363413143
 11
185.619446916061
 21
219.6698743360311
 72
     2
 10
185.3996937124909
 20
218.963209541701
 40
0.7400450000000167
 50
72.72575133115173
 51
252.7413079015779
 73
     1
 72
     1
 10
185.1801323859612
 20
218.2564851074852
 11
190.5947344218194
 21
216.3965970933735
 72
     2
 10
190.6597072149762
 20
216.5857492441659
 40
0.1999999999999988
 50
251.0426663967134
 51
360.0
 73
     1
 97
        0
 75
     0
 76
     1
 98
        0
  0
HATCH
  5
D6
330
D0
100
AcDbEntity
  8
DV2_Standard
  6
Continuous
 62
     7
100
AcDbHatch
 10
0.0
 20
0.0
 30
0.0
210
0.0
220
0.0
230
1.0
  2
SOLID
 70
     1
 71
     0
 91
        2
 92
        1
 93
        6
 72
     1
 10
187.911610994175
 20
221.3657104774507
 11
185.3971563773202
 21
220.5047844788551
 72
     1
 10
185.3971563773202
 20
220.5047844788551
 11
156.1862710695948
 21
225.6256608917408
 72
     1
 10
156.1862710695948
 20
225.6256608917408
 11
156.2585261406127
 21
225.5398264810212
 72
     1
 10
156.2585261406127
 20
225.5398264810212
 11
185.5092409695637
 21
220.4119676691554
 72
     1
 10
185.5092409695637
 20
220.4119676691554
 11
187.9056053765606
 21
219.5734903092715
 72
     2
 10
188.2187866737736
 20
220.4685610046595
 40
0.9482795340333
 50
250.7152828897657
 51
468.9007294050828
 73
     1
 97
        0
 92
        1
 93
        4
 72
     1
 10
188.0431123665907
 20
220.9366833581055
 11
186.9512789968057
 21
220.562849713274
 72
     2
 10
186.9821762219222
 20
220.4726100521779
 40
0.0953825715456084
 50
108.900729405077
 51
250.7152822890714
 73
     1
 72
     1
 10
186.9506749216082
 20
220.3825794849622
 11
188.0481977883829
 21
219.9985610639497
 72
     2
 10
188.2187866737736
 20
220.4685610046595
 40
0.5
 50
250.0513748217235
 51
470.5698245955024
 73
     1
 97
        0
 75
     0
 76
     1
 98
        0
  0
HATCH
  5
D7
330
D0
100
AcDbEntity
  8
DV2_Standard
  6
Continuous
 62
   254
100
AcDbHatch
 10
0.0
 20
0.0
 30
0.0
210
0.0
220
0.0
230
1.0
  2
SOLID
 70
     1
 71
     0
 91
        1
 92
        1
 93
        6
 72
     1
 10
124.0592860160296
 20
204.8328577826985
 11
124.0592860160296
 21
206.0328579285683
 72
     1
 10
124.0592860160296
 20
206.0328579285684
 11
118.6592861618993
 21
206.0328579285684
 72
     2
 10
118.6592861618993
 20
205.8328579285684
 40
0.2000000000000003
 50
90.0
 51
134.9999999999971
 73
     1
 72
     1
 10
118.517864805662
 20
205.9742792848057
 11
117.7178646597923
 21
205.1742791389359
 72
     2
 10
117.8592860160296
 20
205.0328577826986
 40
0.1999999999999988
 50
134.9999999999971
 51
270.0
 73
     1
 72
     1
 10
117.8592860160296
 20
204.8328577826985
 11
124.0592860160296
 21
204.8328577826985
 97
        0
 75
     0
 76
     1
 98
        0
  0
HATCH
  5
D8
330
D0
100
AcDbEntity
  8
DV2_Standard
  6
Continuous
 62
   254
100
AcDbHatch
 10
0.0
 20
0.0
 30
0.0
210
0.0
220
0.0
230
1.0
  2
SOLID
 70
     1
 71
     0
 91
        1
 92
        1
 93
        4
 72
     1
 10
124.0592860160296
 20
206.0328579285684
 11
124.0592860160296
 21
204.8328577826986
 72
     1
 10
124.0592860160296
 20
204.8328577826985
 11
127.2592860160296
 21
204.8328577826985
 72
     1
 10
127.2592860160296
 20
204.8328577826985
 11
127.2592860160296
 21
206.0328579285684
 72
     1
 10
127.2592860160296
 20
206.0328579285684
 11
124.0592860160296
 21
206.0328579285684
 97
        0
 75
     0
 76
     1
 98
        0
  0
LINE
  5
D9
330
D0
100
AcDbEntity
  8
Standard
  6
Continuous
 62
     7
100
AcDbLine
 10
188.6597076727
 20
232.1512786941
 30
0.0
 11
190.859707215
 21
229.9512791518
 31
0.0
  0
LINE
  5
DA
330
D0
100
AcDbEntity
  8
Standard
  6
Continuous
 62
     7
100
AcDbLine
 10
188.6597076727
 20
224.5512786941
 30
0.0
 11
190.859707215
 21
226.7512782363
 31
0.0
  0
LINE
  5
DB
330
D0
100
AcDbEntity
  8
Standard
  6
Continuous
 62
     7
100
AcDbLine
 10
190.859707215
 20
229.9512786941
 30
0.0
 11
188.6597076727
 21
232.1512786941
 31
0.0
  0
ARC
  5
DC
330
D0
100
AcDbEntity
  8
Standard
  6
Continuous
 62
     7
100
AcDbCircle
 10
190.659707215
 20
216.5857492442
 30
0.0
 40
0.1999999999999988
100
AcDbArc
 50
251.0426663967
 51
0.0
  0
LINE
  5
DD
330
D0
100
AcDbEntity
  8
Standard
  6
Continuous
 62
     7
100
AcDbLine
 10
190.859707215
 20
233.7512786941
 30
0.0
 11
190.859707215
 21
216.5857492442
 31
0.0
  0
ARC
  5
DE
330
D0
100
AcDbEntity
  8
Standard
  6
Continuous
 62
     7
100
AcDbCircle
 10
190.659707215
 20
233.7512786941
 30
0.0
 40
0.2000000000001432
100
AcDbArc
 50
0.0
 51
120.0
  0
LINE
  5
DF
330
D0
100
AcDbEntity
  8
Standard
  6
Continuous
 62
     7
100
AcDbLine
 10
188.9097076727
 20
232.9718560949
 30
0.0
 11
190.559707215
 21
233.9244837748
 31
0.0
  0
ARC
  5
E0
330
D0
100
AcDbEntity
  8
Standard
  6
Continuous
 62
     7
100
AcDbCircle
 10
189.1597076727
 20
232.538843393
 30
0.0
 40
0.5000000000000003
100
AcDbArc
 50
120.0
 51
180.0
  0
LINE
  5
E1
330
D0
100
AcDbEntity
  8
Standard
  6
Continuous
 62
     7
100
AcDbLine
 10
188.6597076727
 20
224.1972143965
 30
0.0
 11
188.6597076727
 21
232.538843393
 31
0.0
  0
ARC
  5
E2
330
D0
100
AcDbEntity
  8
Standard
  6
Continuous
 62
     7
100
AcDbCircle
 10
188.1597076727
 20
224.1972143965
 30
0.0
 40
0.4999999999999981
100
AcDbArc
 50
288.9573336033
 51
0.0
  0
LINE
  5
E3
330
D0
100
AcDbEntity
  8
Standard
  6
Continuous
 62
     7
100
AcDbLine
 10
185.180132386
 20
222.6450706458
 30
0.0
 11
188.3221396556
 21
223.7243340196
 31
0.0
  0
ARC
  5
E4
330
D0
100
AcDbEntity
  8
Standard
  6
Continuous
 62
     7
100
AcDbCircle
 10
185.3996937125
 20
221.9383462115
 30
0.0
 40
0.7400450000000156
100
AcDbArc
 50
107.2586920984
 51
287.2742486688
  0
LINE
  5
E5
330
D0
100
AcDbEntity
  8
Standard
  6
Continuous
 62
     7
100
AcDbLine
 10
187.7142891713
 20
221.8831194119
 30
0.0
 11
185.6194469161
 21
221.2316814172
 31
0.0
  0
ARC
  5
E6
330
D0
100
AcDbEntity
  8
Standard
  6
Continuous
 62
     7
100
AcDbCircle
 10
188.1597077679
 20
220.4507778766
 30
0.0
 40
1.500000000000001
100
AcDbArc
 50
252.7257513312
 51
107.2742486688
  0
LINE
  5
E7
330
D0
100
AcDbEntity
  8
Standard
  6
Continuous
 62
     7
100
AcDbLine
 10
187.7142891713
 20
219.0184363413
 30
0.0
 11
185.6194469161
 21
219.669874336
 31
0.0
  0
ARC
  5
E8
330
D0
100
AcDbEntity
  8
Standard
  6
Continuous
 62
     7
100
AcDbCircle
 10
185.3996937125
 20
218.9632095417
 30
0.0
 40
0.7400450000000167
100
AcDbArc
 50
72.7257513312
 51
252.7413079016
  0
LINE
  5
E9
330
D0
100
AcDbEntity
  8
Standard
  6
Continuous
 62
     7
100
AcDbLine
 10
190.5947344218
 20
216.3965970934
 30
0.0
 11
185.180132386
 21
218.2564851075
 31
0.0
  0
CIRCLE
  5
EA
330
D0
100
AcDbEntity
  8
Standard
  6
Continuous
 62
     7
100
AcDbCircle
 10
146.6596483483
 20
217.5328579455
 30
0.0
 40
12.5
  0
LINE
  5
EB
330
D0
100
AcDbEntity
  8
Standard
  6
Continuous
 62
     7
100
AcDbLine
 10
124.059286016
 20
204.8328577827
 30
0.0
 11
124.059286016
 21
206.0328579286
 31
0.0
  0
LINE
  5
EC
330
D0
100
AcDbEntity
  8
Standard
  6
Continuous
 62
     7
100
AcDbLine
 10
134.4596484494
 20
204.8328577827
 30
0.0
 11
117.859286016
 21
204.8328577827
 31
0.0
  0
LINE
  5
ED
330
D0
100
AcDbEntity
  8
Standard
  6
Continuous
 62
     7
100
AcDbLine
 10
127.259286016
 20
204.8328577827
 30
0.0
 11
127.259286016
 21
206.0328579286
 31
0.0
  0
LINE
  5
EE
330
D0
100
AcDbEntity
  8
Standard
  6
Continuous
 62
     7
100
AcDbLine
 10
118.6592861619
 20
206.0328579286
 30
0.0
 11
132.9596483483
 21
206.0328579286
 31
0.0
  0
ARC
  5
EF
330
D0
100
AcDbEntity
  8
Standard
  6
Continuous
 62
     7
100
AcDbCircle
 10
118.6592861619
 20
205.8328579286
 30
0.0
 40
0.2000000000000003
100
AcDbArc
 50
90.0
 51
135.0
  0
LINE
  5
F0
330
D0
100
AcDbEntity
  8
Standard
  6
Continuous
 62
     7
100
AcDbLine
 10
117.7178646598
 20
205.1742791389
 30
0.0
 11
118.5178648057
 21
205.9742792848
 31
0.0
  0
ARC
  5
F1
330
D0
100
AcDbEntity
  8
Standard
  6
Continuous
 62
     7
100
AcDbCircle
 10
117.859286016
 20
205.0328577827
 30
0.0
 40
0.1999999999999988
100
AcDbArc
 50
135.0
 51
270.0
  0
ARC
  5
F2
330
D0
100
AcDbEntity
  8
Standard
  6
Continuous
 62
     7
100
AcDbCircle
 10
134.4596484494
 20
205.8328577827
 30
0.0
 40
0.9999999999999938
100
AcDbArc
 50
270.0
 51
0.0
  0
LINE
  5
F3
330
D0
100
AcDbEntity
  8
Standard
  6
Continuous
 62
     7
100
AcDbLine
 10
135.4596484494
 20
207.9432801622
 30
0.0
 11
135.4596484494
 21
205.8328577827
 31
0.0
  0
ARC
  5
F4
330
D0
100
AcDbEntity
  8
Standard
  6
Continuous
 62
     7
100
AcDbCircle
 10
136.4596484494
 20
207.9432801622
 30
0.0
 40
0.9999999999999943
100
AcDbArc
 50
43.2332354132
 51
180.0
  0
ARC
  5
F5
330
D0
100
AcDbEntity
  8
Standard
  6
Continuous
 62
     7
100
AcDbCircle
 10
146.6596483483
 20
217.5328579455
 30
0.0
 40
13.0
100
AcDbArc
 50
223.2332354132
 51
257.161435357
  0
ARC
  5
F6
330
D0
100
AcDbEntity
  8
Standard
  6
Continuous
 62
     7
100
AcDbCircle
 10
143.9931907374
 20
205.8328577827
 30
0.0
 40
1.000000000000001
100
AcDbArc
 50
257.161435357
 51
270.0
  0
LINE
  5
F7
330
D0
100
AcDbEntity
  8
Standard
  6
Continuous
 62
     7
100
AcDbLine
 10
164.4596490197
 20
204.8328577827
 30
0.0
 11
143.9931907374
 21
204.8328577827
 31
0.0
  0
ARC
  5
F8
330
D0
100
AcDbEntity
  8
Standard
  6
Continuous
 62
     7
100
AcDbCircle
 10
164.4596490197
 20
205.0328577827
 30
0.0
 40
0.1999999999999988
100
AcDbArc
 50
270.0
 51
0.0
  0
LINE
  5
F9
330
D0
100
AcDbEntity
  8
Standard
  6
Continuous
 62
     7
100
AcDbLine
 10
164.6596490197
 20
205.8328579286
 30
0.0
 11
164.6596490197
 21
205.0328577827
 31
0.0
  0
ARC
  5
FA
330
D0
100
AcDbEntity
  8
Standard
  6
Continuous
 62
     7
100
AcDbCircle
 10
164.4596490197
 20
205.8328579286
 30
0.0
 40
0.1999999999999988
100
AcDbArc
 50
0.0
 51
90.0
  0
LINE
  5
FB
330
D0
100
AcDbEntity
  8
Standard
  6
Continuous
 62
     7
100
AcDbLine
 10
155.4596484494
 20
206.0328579286
 30
0.0
 11
164.4596490197
 21
206.0328579286
 31
0.0
  0
ARC
  5
FC
330
D0
100
AcDbEntity
  8
Standard
  6
Continuous
 62
     7
100
AcDbCircle
 10
155.4596484494
 20
207.0328579286
 30
0.0
 40
1.000000000000014
100
AcDbArc
 50
129.7926363572
 51
270.0
  0
ARC
  5
FD
330
D0
100
AcDbEntity
  8
Standard
  6
Continuous
 62
     7
100
AcDbCircle
 10
146.6482772919
 20
217.6113582803
 30
0.0
 40
12.76753178198465
100
AcDbArc
 50
309.7926363572
 51
346.4709397159
  0
ARC
  5
FE
330
D0
100
AcDbEntity
  8
Standard
  6
Continuous
 62
     7
100
AcDbCircle
 10
161.2296484494
 20
214.1028579286
 30
0.0
 40
2.230000000000009
100
AcDbArc
 50
0.0
 51
166.4709397159
  0
LINE
  5
FF
330
D0
100
AcDbEntity
  8
Standard
  6
Continuous
 62
     7
100
AcDbLine
 10
163.4596484494
 20
212.7328579286
 30
0.0
 11
163.4596484494
 21
214.1028579286
 31
0.0
  0
ARC
  5
100
330
D0
100
AcDbEntity
  8
Standard
  6
Continuous
 62
     7
100
AcDbCircle
 10
163.6596484494
 20
212.7328579286
 30
0.0
 40
0.1999999999999997
100
AcDbArc
 50
180.0
 51
270.0
  0
LINE
  5
101
330
D0
100
AcDbEntity
  8
Standard
  6
Continuous
 62
     7
100
AcDbLine
 10
164.4596490197
 20
212.5328579286
 30
0.0
 11
163.6596484494
 21
212.5328579286
 31
0.0
  0
ARC
  5
102
330
D0
100
AcDbEntity
  8
Standard
  6
Continuous
 62
     7
100
AcDbCircle
 10
164.4596490197
 20
212.7328579286
 30
0.0
 40
0.1999999999999988
100
AcDbArc
 50
270.0
 51
0.0
  0
LINE
  5
103
330
D0
100
AcDbEntity
  8
Standard
  6
Continuous
 62
     7
100
AcDbLine
 10
164.6596490197
 20
214.1028576435
 30
0.0
 11
164.6596490197
 21
212.7328579286
 31
0.0
  0
ARC
  5
104
330
D0
100
AcDbEntity
  8
Standard
  6
Continuous
 62
     7
100
AcDbCircle
 10
161.2080991967
 20
214.0851979859
 30
0.0
 40
3.451595000000002
100
AcDbArc
 50
0.2931480277
 51
126.7910202949
  0
ARC
  5
105
330
D0
100
AcDbEntity
  8
Standard
  6
Continuous
 62
     7
100
AcDbCircle
 10
156.0042865758
 20
228.6201360785
 30
0.0
 40
2.999999999999882
100
AcDbArc
 50
273.4777829733
 51
315.0
  0
LINE
  5
106
330
D0
100
AcDbEntity
  8
Standard
  6
Continuous
 62
     7
100
AcDbLine
 10
159.4839127812
 20
227.8571215968
 30
0.0
 11
158.1256069193
 21
226.4988157349
 31
0.0
  0
ARC
  5
107
330
D0
100
AcDbEntity
  8
Standard
  6
Continuous
 62
     7
100
AcDbCircle
 10
159.0596487125
 20
228.2813856655
 30
0.0
 40
0.5999999999998596
100
AcDbArc
 50
315.0
 51
135.0
  0
LINE
  5
108
330
D0
100
AcDbEntity
  8
Standard
  6
Continuous
 62
     7
100
AcDbLine
 10
157.2770787819
 20
227.3473438723
 30
0.0
 11
158.6353846438
 21
228.7056497342
 31
0.0
  0
ARC
  5
109
330
D0
100
AcDbEntity
  8
Standard
  6
Continuous
 62
     7
100
AcDbCircle
 10
156.0042865758
 20
228.6201360785
 30
0.0
 40
1.799999999999946
100
AcDbArc
 50
229.8749640006
 51
315.0
  0
ARC
  5
10A
330
D0
100
AcDbEntity
  8
Standard
  6
Continuous
 62
     7
100
AcDbCircle
 10
146.6596483483
 20
217.5328579455
 30
0.0
 40
12.7
100
AcDbArc
 50
49.8749640006
 51
180.0
  0
LINE
  5
10B
330
D0
100
AcDbEntity
  8
Standard
  6
Continuous
 62
     7
100
AcDbLine
 10
133.9596483483
 20
207.0328579286
 30
0.0
 11
133.9596483483
 21
217.5328579455
 31
0.0
  0
ARC
  5
10C
330
D0
100
AcDbEntity
  8
Standard
  6
Continuous
 62
     7
100
AcDbCircle
 10
132.9596483483
 20
207.0328579286
 30
0.0
 40
1.000000000000001
100
AcDbArc
 50
270.0
 51
0.0
  0
LINE
  5
10D
330
D0
100
AcDbEntity
  8
Standard
  6
Continuous
 62
     7
100
AcDbLine
 10
188.0431123666
 20
220.9366833581
 30
0.0
 11
186.9512789968
 21
220.5628497133
 31
0.0
  0
ARC
  5
10E
330
D0
100
AcDbEntity
  8
Standard
  6
Continuous
 62
     7
100
AcDbCircle
 10
188.2187866738
 20
220.4685610047
 30
0.0
 40
0.5
100
AcDbArc
 50
250.0513748217
 51
110.5698245955
  0
LINE
  5
10F
330
D0
100
AcDbEntity
  8
Standard
  6
Continuous
 62
     7
100
AcDbLine
 10
188.0481977884
 20
219.9985610639
 30
0.0
 11
186.9506749216
 21
220.382579485
 31
0.0
  0
ARC
  5
110
330
D0
100
AcDbEntity
  8
Standard
  6
Continuous
 62
     7
100
AcDbCircle
 10
186.9821762219
 20
220.4726100522
 30
0.0
 40
0.0953825715456084
100
AcDbArc
 50
108.9007294051
 51
250.7152822891
  0
ARC
  5
111
330
D0
100
AcDbEntity
  8
Standard
  6
Continuous
 62
     7
100
AcDbCircle
 10
188.2187866738
 20
220.4685610047
 30
0.0
 40
0.9482795340333
100
AcDbArc
 50
250.7152828898
 51
108.9007294051
  0
LINE
  5
112
330
D0
100
AcDbEntity
  8
Standard
  6
Continuous
 62
     7
100
AcDbLine
 10
187.9116109942
 20
221.3657104775
 30
0.0
 11
185.3971563773
 21
220.5047844789
 31
0.0
  0
LINE
  5
113
330
D0
100
AcDbEntity
  8
Standard
  6
Continuous
 62
     7
100
AcDbLine
 10
185.3971563773
 20
220.5047844789
 30
0.0
 11
156.1862710696
 21
225.6256608917
 31
0.0
  0
LINE
  5
114
330
D0
100
AcDbEntity
  8
Standard
  6
Continuous
 62
     7
100
AcDbLine
 10
156.2585261406
 20
225.539826481
 30
0.0
 11
185.5092409696
 21
220.4119676692
 31
0.0
  0
LINE
  5
115
330
D0
100
AcDbEntity
  8
Standard
  6
Continuous
 62
     7
100
AcDbLine
 10
187.9056053766
 20
219.5734903093
 30
0.0
 11
185.5092409696
 21
220.4119676692
 31
0.0
  0
ENDBLK
  5
117
330
D0
100
AcDbEntity
  8
0
100
AcDbBlockEnd
  0
ENDSEC
  0
SECTION
  2
ENTITIES
  0
TEXT
  5
40
330
1F
100
AcDbEntity
  8
Standard
  6
Continuous
 62
     7
100
AcDbText
 10
98.6349081076
 20
20.1533484908
 30
0.0
 40
3.5
  1
/athmer/5-101--q
  7
SEACAD_arial_ttf
 11
98.6349081076
 21
23.6533484908
 31
0.0
100
AcDbText
 73
     3
  0
DIMENSION
  5
55
330
1F
100
AcDbEntity
  8
Standard
  6
Continuous
 62
     7
100
AcDbDimension
  2
DMBLK64
 10
21.840752151
 20
198.7920391565
 30
0.0
 11
45.3116437906
 21
198.7920391565
 31
0.0
 70
   161
  1
\A1;<>
 71
     5
 42
-1.0
  3
E-Katalog
100
AcDbAlignedDimension
 13
21.840752151
 23
205.1742791389
 33
0.0
 14
68.7825365109
 24
205.0328577827
 34
0.0
  0
DIMENSION
  5
5F
330
1F
100
AcDbEntity
  8
Standard
  6
Continuous
 62
     7
100
AcDbDimension
  2
DMBLK65
 10
100.9977135042
 20
216.3965970934
 30
0.0
 11
100.9977135042
 21
225.1605408922
 31
0.0
 70
   161
  1
\A1;<>
 71
     5
 42
-1.0
  3
E-Katalog
100
AcDbAlignedDimension
 13
94.717621913
 23
216.3965970934
 33
0.0
 14
94.6825947062
 24
233.9244837748
 34
0.0
  0
INSERT
  5
6A
330
1F
100
AcDbEntity
  8
Standard
100
AcDbBlockReference
  2
SE
 10
0.0
 20
0.0
 30
0.0
  0
DIMENSION
  5
B1
330
1F
100
AcDbEntity
  8
Standard
  6
Continuous
 62
     7
100
AcDbDimension
  2
DMBLK66
 10
94.9825947062
 20
210.3870042383
 30
0.0
 11
91.8825653966
 21
210.3870042383
 31
0.0
 70
   160
  1
\A1;<>
 71
     5
 42
-1.0
  3
E-Katalog
100
AcDbAlignedDimension
 13
88.7825362037
 23
221.9383462115
 33
0.0
 14
94.9825947062
 24
233.7512786941
 34
0.0
100
AcDbRotatedDimension
  0
DIMENSION
  5
BB
330
1F
100
AcDbEntity
  8
Standard
  6
Continuous
 62
     7
100
AcDbDimension
  2
DMBLK67
 10
88.7825362037
 20
234.8842163847
 30
0.0
 11
76.28253639
 21
234.8842163847
 31
0.0
 70
   160
  1
\A1;> <>
 71
     5
 42
-1.0
  3
E-Katalog
100
AcDbAlignedDimension
 13
63.7825362037
 23
228.2813856655
 33
0.0
 14
88.7825362037
 24
221.9383462115
 34
0.0
100
AcDbRotatedDimension
1001
ACAD
1000
DSTYLE
1002
{
1070
   271
1070
     2
1070
   272
1070
     2
1070
     0
1002
}
  0
DIMENSION
  5
C6
330
1F
100
AcDbEntity
  8
Standard
  6
Continuous
 62
     7
100
AcDbDimension
  2
DMBLK68
 10
15.7901854973
 20
230.2328579455
 30
0.0
 11
15.7901854973
 21
217.5328576292
 31
0.0
 70
   160
  1
\A1;<>
 71
     5
 42
-1.0
  3
E-Katalog
100
AcDbAlignedDimension
 13
21.9821735072
 23
204.8328577827
 33
0.0
 14
50.7825358395
 24
230.2328579455
 34
0.0
 50
90.0
100
AcDbRotatedDimension
  0
INSERT
  5
D1
330
1F
100
AcDbEntity
  8
Standard
100
AcDbBlockReference
  2
SE1
 10
0.0
 20
0.0
 30
0.0
  0
LINE
  5
118
330
1F
100
AcDbEntity
  8
Standard
  6
Continuous
 62
     7
100
AcDbLine
 10
18.1568766159
 20
171.0856000139
 30
0.0
 11
198.0131616313
 21
171.0856000139
 31
0.0
  0
LINE
  5
119
330
1F
100
AcDbEntity
  8
Standard
  6
Continuous
 62
     7
100
AcDbLine
 10
108.0850191236
 20
248.4701847857
 30
0.0
 11
108.0850191236
 21
78.496657704
 31
0.0
  0
LINE
  5
11A
330
1F
100
AcDbEntity
  8
Standard
  6
Continuous
 62
     7
100
AcDbLine
 10
98.0850191236
 20
161.0856000139
 30
0.0
 11
118.0850191236
 21
161.0856000139
 31
0.0
  0
LINE
  5
11B
330
1F
100
AcDbEntity
  8
Standard
  6
Continuous
 62
     7
100
AcDbLine
 10
118.0850191236
 20
161.0856000139
 30
0.0
 11
118.0850191236
 21
181.0856000139
 31
0.0
  0
LINE
  5
11C
330
1F
100
AcDbEntity
  8
Standard
  6
Continuous
 62
     7
100
AcDbLine
 10
118.0850191236
 20
181.0856000139
 30
0.0
 11
98.0850191236
 21
181.0856000139
 31
0.0
  0
LINE
  5
11D
330
1F
100
AcDbEntity
  8
Standard
  6
Continuous
 62
     7
100
AcDbLine
 10
98.0850191236
 20
181.0856000139
 30
0.0
 11
98.0850191236
 21
161.0856000139
 31
0.0
  0
TEXT
  5
11E
330
1F
100
AcDbEntity
  8
Standard
  6
Continuous
 62
     7
100
AcDbText
 10
100.4611465202
 20
174.552915195
 30
0.0
 40
3.5
  1
A      B
  7
SEACAD_arial_ttf
 11
100.4611465202
 21
178.052915195
 31
0.0
100
AcDbText
 73
     3
  0
TEXT
  5
11F
330
1F
100
AcDbEntity
  8
Standard
  6
Continuous
 62
     7
100
AcDbText
 10
100.4611465202
 20
169.0746543254
 30
0.0
 40
3.5
  1
 
  7
SEACAD_arial_ttf
 11
100.4611465202
 21
172.5746543254
 31
0.0
100
AcDbText
 73
     3
  0
TEXT
  5
120
330
1F
100
AcDbEntity
  8
Standard
  6
Continuous
 62
     7
100
AcDbText
 10
100.4611465202
 20
163.5963934558
 30
0.0
 40
3.5
  1
C      D
  7
SEACAD_arial_ttf
 11
100.4611465202
 21
167.0963934558
 31
0.0
100
AcDbText
 73
     3
  0
ENDSEC
  0
SECTION
  2
OBJECTS
  0
DICTIONARY
  5
C
330
0
100
AcDbDictionary
281
     1
  3
ACAD_GROUP
350
D
  3
ACAD_LAYOUT
350
1A
  3
ACAD_MATERIAL
350
3B
  3
ACAD_MLEADERSTYLE
350
123
  3
ACAD_MLINESTYLE
350
17
  3
ACAD_PLOTSETTINGS
350
19
  3
ACAD_PLOTSTYLENAME
350
E
  3
ACAD_VISUALSTYLE
350
2A
  3
AcDbVariableDictionary
350
121
  0
DICTIONARY
  5
D
102
{ACAD_REACTORS
330
C
102
}
330
C
100
AcDbDictionary
281
     1
  0
DICTIONARY
  5
1A
102
{ACAD_REACTORS
330
C
102
}
330
C
100
AcDbDictionary
281
     1
  3
Layout1
350
1E
  3
Model
350
22
  0
DICTIONARY
  5
3B
102
{ACAD_REACTORS
330
C
102
}
330
C
100
AcDbDictionary
281
     1
  3
ByBlock
350
3D
  3
ByLayer
350
3C
  3
Global
350
3E
  0
DICTIONARY
  5
123
102
{ACAD_REACTORS
330
C
102
}
330
C
100
AcDbDictionary
281
     1
  0
DICTIONARY
  5
17
102
{ACAD_REACTORS
330
C
102
}
330
C
100
AcDbDictionary
281
     1
  3
Standard
350
18
  0
DICTIONARY
  5
19
102
{ACAD_REACTORS
330
C
102
}
330
C
100
AcDbDictionary
281
     1
  0
ACDBDICTIONARYWDFLT
  5
E
102
{ACAD_REACTORS
330
C
102
}
330
C
100
AcDbDictionary
281
     1
  3
Normal
350
F
100
AcDbDictionaryWithDefault
340
F
  0
DICTIONARY
  5
2A
102
{ACAD_REACTORS
330
C
102
}
330
C
100
AcDbDictionary
281
     1
  3
2dWireframe
350
2F
  3
3D Hidden
350
31
  3
3dWireframe
350
30
  3
Basic
350
32
  3
Brighten
350
36
  3
ColorChange
350
3A
  3
Conceptual
350
34
  3
Dim
350
35
  3
Facepattern
350
39
  3
Flat
350
2B
  3
FlatWithEdges
350
2C
  3
Gouraud
350
2D
  3
GouraudWithEdges
350
2E
  3
Linepattern
350
38
  3
Realistic
350
33
  3
Thicken
350
37
  0
DICTIONARY
  5
121
102
{ACAD_REACTORS
330
C
102
}
330
C
100
AcDbDictionary
281
     1
  3
DIMASSOC
350
126
  3
HIDETEXT
350
127
  3
PSOLHEIGHT
350
125
  3
PSOLWIDTH
350
124
  0
LAYOUT
  5
1E
102
{ACAD_REACTORS
330
1A
102
}
330
1A
100
AcDbPlotSettings
  1

  2
none_device
  4

  6

 40
0.0
 41
0.0
 42
0.0
 43
0.0
 44
0.0
 45
0.0
 46
0.0
 47
0.0
 48
0.0
 49
0.0
140
0.0
141
0.0
142
1.0
143
1.0
 70
   688
 72
     0
 73
     0
 74
     5
  7

 75
    16
147
1.0
148
0.0
149
0.0
100
AcDbLayout
  1
Layout1
 70
     1
 71
     1
 10
0.0
 20
0.0
 11
215.9
 21
279.4
 12
0.0
 22
0.0
 32
0.0
 14
0.0
 24
0.0
 34
0.0
 15
215.9
 25
279.4
 35
0.0
146
0.0
 13
0.0
 23
0.0
 33
0.0
 16
1.0
 26
0.0
 36
0.0
 17
0.0
 27
1.0
 37
0.0
 76
     0
330
1B
  0
LAYOUT
  5
22
102
{ACAD_REACTORS
330
1A
102
}
330
1A
100
AcDbPlotSettings
  1

  2
none_device
  4

  6

 40
0.0
 41
0.0
 42
0.0
 43
0.0
 44
0.0
 45
0.0
 46
0.0
 47
0.0
 48
0.0
 49
0.0
140
0.0
141
0.0
142
1.0
143
1.0
 70
  1712
 72
     0
 73
     0
 74
     0
  7

 75
     0
147
1.0
148
0.0
149
0.0
100
AcDbLayout
  1
Model
 70
     1
 71
     0
 10
0.0
 20
0.0
 11
215.9
 21
279.4
 12
0.0
 22
0.0
 32
0.0
 14
0.0
 24
0.0
 34
0.0
 15
215.9
 25
279.4
 35
0.0
146
0.0
 13
0.0
 23
0.0
 33
0.0
 16
1.0
 26
0.0
 36
0.0
 17
0.0
 27
1.0
 37
0.0
 76
     0
330
1F
331
29
  0
MATERIAL
  5
3D
102
{ACAD_REACTORS
330
3B
102
}
102
{ACAD_XDICTIONARY
360
14A
102
}
330
3B
100
AcDbMaterial
  1
ByBlock
  0
MATERIAL
  5
3C
102
{ACAD_REACTORS
330
3B
102
}
102
{ACAD_XDICTIONARY
360
148
102
}
330
3B
100
AcDbMaterial
  1
ByLayer
  0
MATERIAL
  5
3E
102
{ACAD_REACTORS
330
3B
102
}
102
{ACAD_XDICTIONARY
360
14C
102
}
330
3B
100
AcDbMaterial
  1
Global
  0
MLINESTYLE
  5
18
102
{ACAD_REACTORS
330
17
102
}
330
17
100
AcDbMlineStyle
  2
Standard
 70
     0
  3

 62
   256
 51
90.0
 52
90.0
 71
     2
 49
0.5
 62
   256
  6
BYLAYER
 49
-0.5
 62
   256
  6
BYLAYER
  0
ACDBPLACEHOLDER
  5
F
102
{ACAD_REACTORS
330
E
102
}
330
E
  0
VISUALSTYLE
  5
2F
102
{ACAD_REACTORS
330
2A
102
}
102
{ACAD_XDICTIONARY
360
130
102
}
330
2A
100
AcDbVisualStyle
  2
2dWireframe
 70
     4
 71
     0
 72
     2
 73
     0
 90
        0
 40
-0.6
 41
-30.0
 62
     5
 63
     7
 74
     1
 91
        4
 64
     7
 65
   257
 75
     1
175
     1
 42
1.0
 92
        0
 66
   257
 43
1.0
 76
     1
 77
     6
 78
     2
 67
     7
 79
     5
170
     0
171
     0
290
     0
174
     0
 93
        1
 44
0.0
173
     0
291
     0
 45
0.0
1001
ACAD
1000
AcDbSavedByObjectVersion
1070
     0
  0
VISUALSTYLE
  5
31
102
{ACAD_REACTORS
330
2A
102
}
102
{ACAD_XDICTIONARY
360
134
102
}
330
2A
100
AcDbVisualStyle
  2
3D Hidden
 70
     6
 71
     1
 72
     2
 73
     2
 90
        0
 40
-0.6
 41
-30.0
 62
     5
 63
     7
 74
     2
 91
        2
 64
     7
 65
   257
 75
     2
175
     1
 42
40.0
 92
        0
 66
   257
 43
1.0
 76
     1
 77
     6
 78
     2
 67
     7
 79
     3
170
     0
171
     0
290
     0
174
     0
 93
        1
 44
0.0
173
     0
291
     0
 45
0.0
1001
ACAD
1000
AcDbSavedByObjectVersion
1070
     0
  0
VISUALSTYLE
  5
30
102
{ACAD_REACTORS
330
2A
102
}
102
{ACAD_XDICTIONARY
360
132
102
}
330
2A
100
AcDbVisualStyle
  2
3dWireframe
 70
     5
 71
     0
 72
     2
 73
     0
 90
        0
 40
-0.6
 41
-30.0
 62
     5
 63
     7
 74
     1
 91
        4
 64
     7
 65
   257
 75
     1
175
     1
 42
1.0
 92
        0
 66
   257
 43
1.0
 76
     1
 77
     6
 78
     2
 67
     7
 79
     5
170
     0
171
     0
290
     0
174
     0
 93
        1
 44
0.0
173
     0
291
     0
 45
0.0
1001
ACAD
1000
AcDbSavedByObjectVersion
1070
     0
  0
VISUALSTYLE
  5
32
102
{ACAD_REACTORS
330
2A
102
}
102
{ACAD_XDICTIONARY
360
136
102
}
330
2A
100
AcDbVisualStyle
  2
Basic
 70
     7
 71
     1
 72
     0
 73
     1
 90
        0
 40
-0.6
 41
-30.0
 62
     5
 63
     7
 74
     0
 91
        4
 64
     7
 65
   257
 75
     1
175
     1
 42
1.0
 92
        8
 66
     7
 43
1.0
 76
     1
 77
     6
 78
     2
 67
     7
 79
     5
170
     0
171
     0
290
     0
174
     0
 93
        1
 44
0.0
173
     0
291
     1
 45
0.0
1001
ACAD
1000
AcDbSavedByObjectVersion
1070
     0
  0
VISUALSTYLE
  5
36
102
{ACAD_REACTORS
330
2A
102
}
102
{ACAD_XDICTIONARY
360
13E
102
}
330
2A
100
AcDbVisualStyle
  2
Brighten
 70
    12
 71
     2
 72
     2
 73
     0
 90
        0
 40
-0.6
 41
-30.0
 62
     5
 63
     7
 74
     1
 91
        4
 64
     7
 65
   257
 75
     1
175
     1
 42
1.0
 92
        8
 66
     7
 43
1.0
 76
     1
 77
     6
 78
     2
 67
     7
 79
     5
170
     0
171
     0
290
     0
174
     0
 93
        1
 44
50.0
173
     0
291
     1
 45
0.0
1001
ACAD
1000
AcDbSavedByObjectVersion
1070
     0
  0
VISUALSTYLE
  5
3A
102
{ACAD_REACTORS
330
2A
102
}
102
{ACAD_XDICTIONARY
360
146
102
}
330
2A
100
AcDbVisualStyle
  2
ColorChange
 70
    16
 71
     2
 72
     2
 73
     3
 90
        0
 40
-0.6
 41
-30.0
 62
     5
 63
     8
 74
     1
 91
        4
 64
     7
 65
   257
 75
     1
175
     1
 42
1.0
 92
        8
 66
     8
 43
1.0
 76
     1
 77
     6
 78
     2
 67
     7
 79
     5
170
     0
171
     0
290
     0
174
     0
 93
        1
 44
0.0
173
     0
291
     1
 45
0.0
1001
ACAD
1000
AcDbSavedByObjectVersion
1070
     0
  0
VISUALSTYLE
  5
34
102
{ACAD_REACTORS
330
2A
102
}
102
{ACAD_XDICTIONARY
360
13A
102
}
330
2A
100
AcDbVisualStyle
  2
Conceptual
 70
     9
 71
     3
 72
     2
 73
     0
 90
        0
 40
-0.6
 41
-30.0
 62
     5
 63
     7
 74
     2
 91
        2
 64
     7
 65
   257
 75
     1
175
     1
 42
40.0
 92
        8
 66
     7
 43
1.0
 76
     1
 77
     6
 78
     2
 67
     7
 79
     3
170
     0
171
     0
290
     0
174
     0
 93
        1
 44
0.0
173
     0
291
     0
 45
0.0
1001
ACAD
1000
AcDbSavedByObjectVersion
1070
     0
  0
VISUALSTYLE
  5
35
102
{ACAD_REACTORS
330
2A
102
}
102
{ACAD_XDICTIONARY
360
13C
102
}
330
2A
100
AcDbVisualStyle
  2
Dim
 70
    11
 71
     2
 72
     2
 73
     0
 90
        0
 40
-0.6
 41
-30.0
 62
     5
 63
     7
 74
     1
 91
        4
 64
     7
 65
   257
 75
     1
175
     1
 42
1.0
 92
        8
 66
     7
 43
1.0
 76
     1
 77
     6
 78
     2
 67
     7
 79
     5
170
     0
171
     0
290
     0
174
     0
 93
        1
 44
-50.0
173
     0
291
     1
 45
0.0
1001
ACAD
1000
AcDbSavedByObjectVersion
1070
     0
  0
VISUALSTYLE
  5
39
102
{ACAD_REACTORS
330
2A
102
}
102
{ACAD_XDICTIONARY
360
144
102
}
330
2A
100
AcDbVisualStyle
  2
Facepattern
 70
    15
 71
     2
 72
     2
 73
     0
 90
        0
 40
-0.6
 41
-30.0
 62
     5
 63
     7
 74
     1
 91
        4
 64
     7
 65
   257
 75
     1
175
     1
 42
1.0
 92
        8
 66
     7
 43
1.0
 76
     1
 77
     6
 78
     2
 67
     7
 79
     5
170
     0
171
     0
290
     0
174
     0
 93
        1
 44
0.0
173
     0
291
     1
 45
0.0
1001
ACAD
1000
AcDbSavedByObjectVersion
1070
     0
  0
VISUALSTYLE
  5
2B
102
{ACAD_REACTORS
330
2A
102
}
102
{ACAD_XDICTIONARY
360
128
102
}
330
2A
100
AcDbVisualStyle
  2
Flat
 70
     0
 71
     2
 72
     1
 73
     1
 90
        2
 40
-0.6
 41
30.0
 62
     5
 63
     7
 74
     0
 91
        4
 64
     7
 65
   257
 75
     1
175
     1
 42
1.0
 92
        8
 66
     7
 43
1.0
 76
     1
 77
     6
 78
     2
 67
     7
 79
     5
170
     0
171
     0
290
     0
174
     0
 93
       13
 44
0.0
173
     0
291
     1
 45
0.0
1001
ACAD
1000
AcDbSavedByObjectVersion
1070
     0
  0
VISUALSTYLE
  5
2C
102
{ACAD_REACTORS
330
2A
102
}
102
{ACAD_XDICTIONARY
360
12A
102
}
330
2A
100
AcDbVisualStyle
  2
FlatWithEdges
 70
     1
 71
     2
 72
     1
 73
     1
 90
        2
 40
-0.6
 41
30.0
 62
     5
 63
     7
 74
     1
 91
        4
 64
     7
 65
   257
 75
     1
175
     1
 42
1.0
 92
        0
 66
   257
 43
1.0
 76
     1
 77
     6
 78
     2
 67
     7
 79
     5
170
     0
171
     0
290
     0
174
     0
 93
       13
 44
0.0
173
     0
291
     1
 45
0.0
1001
ACAD
1000
AcDbSavedByObjectVersion
1070
     0
  0
VISUALSTYLE
  5
2D
102
{ACAD_REACTORS
330
2A
102
}
102
{ACAD_XDICTIONARY
360
12C
102
}
330
2A
100
AcDbVisualStyle
  2
Gouraud
 70
     2
 71
     2
 72
     2
 73
     1
 90
        2
 40
-0.6
 41
30.0
 62
     5
 63
     7
 74
     0
 91
        4
 64
     7
 65
   257
 75
     1
175
     1
 42
1.0
 92
        0
 66
     7
 43
1.0
 76
     1
 77
     6
 78
     2
 67
     7
 79
     5
170
     0
171
     0
290
     0
174
     0
 93
       13
 44
0.0
173
     0
291
     1
 45
0.0
1001
ACAD
1000
AcDbSavedByObjectVersion
1070
     0
  0
VISUALSTYLE
  5
2E
102
{ACAD_REACTORS
330
2A
102
}
102
{ACAD_XDICTIONARY
360
12E
102
}
330
2A
100
AcDbVisualStyle
  2
GouraudWithEdges
 70
     3
 71
     2
 72
     2
 73
     1
 90
        2
 40
-0.6
 41
30.0
 62
     5
 63
     7
 74
     1
 91
        4
 64
     7
 65
   257
 75
     1
175
     1
 42
1.0
 92
        0
 66
   257
 43
1.0
 76
     1
 77
     6
 78
     2
 67
     7
 79
     5
170
     0
171
     0
290
     0
174
     0
 93
       13
 44
0.0
173
     0
291
     1
 45
0.0
1001
ACAD
1000
AcDbSavedByObjectVersion
1070
     0
  0
VISUALSTYLE
  5
38
102
{ACAD_REACTORS
330
2A
102
}
102
{ACAD_XDICTIONARY
360
142
102
}
330
2A
100
AcDbVisualStyle
  2
Linepattern
 70
    14
 71
     2
 72
     2
 73
     0
 90
        0
 40
-0.6
 41
-30.0
 62
     5
 63
     7
 74
     1
 91
        4
 64
     7
 65
   257
 75
     7
175
     7
 42
1.0
 92
        8
 66
     7
 43
1.0
 76
     1
 77
     6
 78
     2
 67
     7
 79
     5
170
     0
171
     0
290
     0
174
     0
 93
        1
 44
0.0
173
     0
291
     1
 45
0.0
1001
ACAD
1000
AcDbSavedByObjectVersion
1070
     0
  0
VISUALSTYLE
  5
33
102
{ACAD_REACTORS
330
2A
102
}
102
{ACAD_XDICTIONARY
360
138
102
}
330
2A
100
AcDbVisualStyle
  2
Realistic
 70
     8
 71
     2
 72
     2
 73
     0
 90
        0
 40
-0.6
 41
-30.0
 62
     5
 63
     7
 74
     1
 91
        0
 64
     7
 65
   257
 75
     1
175
     1
 42
1.0
 92
        8
 66
     8
 43
1.0
 76
     1
 77
     6
 78
     2
 67
     7
 79
     5
170
     0
171
     0
290
     0
174
     0
 93
       13
 44
0.0
173
     0
291
     0
 45
0.0
1001
ACAD
1000
AcDbSavedByObjectVersion
1070
     0
  0
VISUALSTYLE
  5
37
102
{ACAD_REACTORS
330
2A
102
}
102
{ACAD_XDICTIONARY
360
140
102
}
330
2A
100
AcDbVisualStyle
  2
Thicken
 70
    13
 71
     2
 72
     2
 73
     0
 90
        0
 40
-0.6
 41
-30.0
 62
     5
 63
     7
 74
     1
 91
        4
 64
     7
 65
   257
 75
     1
175
     1
 42
1.0
 92
       12
 66
     7
 43
1.0
 76
     1
 77
     6
 78
     2
 67
     7
 79
     5
170
     0
171
     0
290
     0
174
     0
 93
        1
 44
0.0
173
     0
291
     1
 45
0.0
1001
ACAD
1000
AcDbSavedByObjectVersion
1070
     0
  0
DICTIONARYVAR
  5
126
102
{ACAD_REACTORS
330
121
102
}
330
121
100
DictionaryVariables
280
     0
  1
2
  0
DICTIONARYVAR
  5
127
102
{ACAD_REACTORS
330
121
102
}
330
121
100
DictionaryVariables
280
     0
  1
1
  0
DICTIONARYVAR
  5
125
102
{ACAD_REACTORS
330
121
102
}
330
121
100
DictionaryVariables
280
     0
  1
80.000000
  0
DICTIONARYVAR
  5
124
102
{ACAD_REACTORS
330
121
102
}
330
121
100
DictionaryVariables
280
     0
  1
5.000000
  0
DICTIONARY
  5
14A
330
3D
100
AcDbDictionary
280
     1
281
     1
  3
ACAD_XREC_ROUNDTRIP
360
14B
  0
DICTIONARY
  5
148
330
3C
100
AcDbDictionary
280
     1
281
     1
  3
ACAD_XREC_ROUNDTRIP
360
149
  0
DICTIONARY
  5
14C
330
3E
100
AcDbDictionary
280
     1
281
     1
  3
ACAD_XREC_ROUNDTRIP
360
14D
  0
DICTIONARY
  5
130
330
2F
100
AcDbDictionary
280
     1
281
     1
  3
ACAD_XREC_ROUNDTRIP
360
131
  0
DICTIONARY
  5
134
330
31
100
AcDbDictionary
280
     1
281
     1
  3
ACAD_XREC_ROUNDTRIP
360
135
  0
DICTIONARY
  5
132
330
30
100
AcDbDictionary
280
     1
281
     1
  3
ACAD_XREC_ROUNDTRIP
360
133
  0
DICTIONARY
  5
136
330
32
100
AcDbDictionary
280
     1
281
     1
  3
ACAD_XREC_ROUNDTRIP
360
137
  0
DICTIONARY
  5
13E
330
36
100
AcDbDictionary
280
     1
281
     1
  3
ACAD_XREC_ROUNDTRIP
360
13F
  0
DICTIONARY
  5
146
330
3A
100
AcDbDictionary
280
     1
281
     1
  3
ACAD_XREC_ROUNDTRIP
360
147
  0
DICTIONARY
  5
13A
330
34
100
AcDbDictionary
280
     1
281
     1
  3
ACAD_XREC_ROUNDTRIP
360
13B
  0
DICTIONARY
  5
13C
330
35
100
AcDbDictionary
280
     1
281
     1
  3
ACAD_XREC_ROUNDTRIP
360
13D
  0
DICTIONARY
  5
144
330
39
100
AcDbDictionary
280
     1
281
     1
  3
ACAD_XREC_ROUNDTRIP
360
145
  0
DICTIONARY
  5
128
330
2B
100
AcDbDictionary
280
     1
281
     1
  3
ACAD_XREC_ROUNDTRIP
360
129
  0
DICTIONARY
  5
12A
330
2C
100
AcDbDictionary
280
     1
281
     1
  3
ACAD_XREC_ROUNDTRIP
360
12B
  0
DICTIONARY
  5
12C
330
2D
100
AcDbDictionary
280
     1
281
     1
  3
ACAD_XREC_ROUNDTRIP
360
12D
  0
DICTIONARY
  5
12E
330
2E
100
AcDbDictionary
280
     1
281
     1
  3
ACAD_XREC_ROUNDTRIP
360
12F
  0
DICTIONARY
  5
142
330
38
100
AcDbDictionary
280
     1
281
     1
  3
ACAD_XREC_ROUNDTRIP
360
143
  0
DICTIONARY
  5
138
330
33
100
AcDbDictionary
280
     1
281
     1
  3
ACAD_XREC_ROUNDTRIP
360
139
  0
DICTIONARY
  5
140
330
37
100
AcDbDictionary
280
     1
281
     1
  3
ACAD_XREC_ROUNDTRIP
360
141
  0
XRECORD
  5
14B
102
{ACAD_REACTORS
330
14A
102
}
330
14A
100
AcDbXrecord
280
     1
102
MATERIAL
148
0.0
149
0.0
149
0.0
 93
        0
 94
      127
282
     0
 72
     1
 77
     1
171
     1
175
     1
179
     1
273
     0
  0
XRECORD
  5
149
102
{ACAD_REACTORS
330
148
102
}
330
148
100
AcDbXrecord
280
     1
102
MATERIAL
148
0.0
149
0.0
149
0.0
 93
        0
 94
      127
282
     0
 72
     1
 77
     1
171
     1
175
     1
179
     1
273
     0
  0
XRECORD
  5
14D
102
{ACAD_REACTORS
330
14C
102
}
330
14C
100
AcDbXrecord
280
     1
102
MATERIAL
148
0.0
149
0.0
149
0.0
 93
        0
 94
      127
282
     0
 72
     1
 77
     1
171
     1
175
     1
179
     1
273
     0
  0
XRECORD
  5
131
102
{ACAD_REACTORS
330
130
102
}
330
130
100
AcDbXrecord
280
     1
102
RTVSPropertyOp0
 70
     1
102
RTVSPropertyOp1
 70
     1
102
RTVSPropertyOp2
 70
     1
102
RTVSPropertyOp3
 70
     1
102
RTVSPropertyOp4
 70
     1
102
RTVSPropertyOp5
 70
     1
102
RTVSPropertyOp6
 70
     1
102
RTVSPropertyOp7
 70
     1
102
RTVSPropertyOp8
 70
     1
102
RTVSPropertyOp9
 70
     1
102
RTVSPropertyOp10
 70
     1
102
RTVSPropertyOp11
 70
     1
102
RTVSPropertyOp12
 70
     1
102
RTVSPropertyOp13
 70
     1
102
RTVSPropertyOp14
 70
     1
102
RTVSPropertyOp15
 70
     1
102
RTVSPropertyOp16
 70
     1
102
RTVSPropertyOp17
 70
     1
102
RTVSPropertyOp18
 70
     1
102
RTVSPropertyOp19
 70
     1
102
RTVSPropertyOp20
 70
     1
102
RTVSPropertyOp21
 70
     1
102
RTVSPropertyOp22
 70
     1
102
RTVSPropertyOp23
 70
     1
102
RTVSPropertyOp24
 70
     1
102
RTVSPropertyOp25
 70
     1
102
RTVSPropertyOp26
 70
     1
102
RTVSPropertyOp27
 70
     1
  0
XRECORD
  5
135
102
{ACAD_REACTORS
330
134
102
}
330
134
100
AcDbXrecord
280
     1
102
RTVSPropertyOp0
 70
     1
102
RTVSPropertyOp1
 70
     1
102
RTVSPropertyOp2
 70
     1
102
RTVSPropertyOp3
 70
     1
102
RTVSPropertyOp4
 70
     1
102
RTVSPropertyOp5
 70
     1
102
RTVSPropertyOp6
 70
     1
102
RTVSPropertyOp7
 70
     1
102
RTVSPropertyOp8
 70
     1
102
RTVSPropertyOp9
 70
     1
102
RTVSPropertyOp10
 70
     1
102
RTVSPropertyOp11
 70
     1
102
RTVSPropertyOp12
 70
     1
102
RTVSPropertyOp13
 70
     1
102
RTVSPropertyOp14
 70
     1
102
RTVSPropertyOp15
 70
     1
102
RTVSPropertyOp16
 70
     1
102
RTVSPropertyOp17
 70
     1
102
RTVSPropertyOp18
 70
     1
102
RTVSPropertyOp19
 70
     1
102
RTVSPropertyOp20
 70
     1
102
RTVSPropertyOp21
 70
     1
102
RTVSPropertyOp22
 70
     1
102
RTVSPropertyOp23
 70
     1
102
RTVSPropertyOp24
 70
     1
102
RTVSPropertyOp25
 70
     1
102
RTVSPropertyOp26
 70
     1
102
RTVSPropertyOp27
 70
     1
  0
XRECORD
  5
133
102
{ACAD_REACTORS
330
132
102
}
330
132
100
AcDbXrecord
280
     1
102
RTVSPropertyOp0
 70
     1
102
RTVSPropertyOp1
 70
     1
102
RTVSPropertyOp2
 70
     1
102
RTVSPropertyOp3
 70
     1
102
RTVSPropertyOp4
 70
     1
102
RTVSPropertyOp5
 70
     1
102
RTVSPropertyOp6
 70
     1
102
RTVSPropertyOp7
 70
     1
102
RTVSPropertyOp8
 70
     1
102
RTVSPropertyOp9
 70
     1
102
RTVSPropertyOp10
 70
     1
102
RTVSPropertyOp11
 70
     1
102
RTVSPropertyOp12
 70
     1
102
RTVSPropertyOp13
 70
     1
102
RTVSPropertyOp14
 70
     1
102
RTVSPropertyOp15
 70
     1
102
RTVSPropertyOp16
 70
     1
102
RTVSPropertyOp17
 70
     1
102
RTVSPropertyOp18
 70
     1
102
RTVSPropertyOp19
 70
     1
102
RTVSPropertyOp20
 70
     1
102
RTVSPropertyOp21
 70
     1
102
RTVSPropertyOp22
 70
     1
102
RTVSPropertyOp23
 70
     1
102
RTVSPropertyOp24
 70
     1
102
RTVSPropertyOp25
 70
     1
102
RTVSPropertyOp26
 70
     1
102
RTVSPropertyOp27
 70
     1
  0
XRECORD
  5
137
102
{ACAD_REACTORS
330
136
102
}
330
136
100
AcDbXrecord
280
     1
102
RTVSPropertyOp0
 70
     1
102
RTVSPropertyOp1
 70
     1
102
RTVSPropertyOp2
 70
     1
102
RTVSPropertyOp3
 70
     1
102
RTVSPropertyOp4
 70
     1
102
RTVSPropertyOp5
 70
     1
102
RTVSPropertyOp6
 70
     1
102
RTVSPropertyOp7
 70
     1
102
RTVSPropertyOp8
 70
     1
102
RTVSPropertyOp9
 70
     1
102
RTVSPropertyOp10
 70
     1
102
RTVSPropertyOp11
 70
     1
102
RTVSPropertyOp12
 70
     1
102
RTVSPropertyOp13
 70
     1
102
RTVSPropertyOp14
 70
     1
102
RTVSPropertyOp15
 70
     1
102
RTVSPropertyOp16
 70
     1
102
RTVSPropertyOp17
 70
     1
102
RTVSPropertyOp18
 70
     1
102
RTVSPropertyOp19
 70
     1
102
RTVSPropertyOp20
 70
     1
102
RTVSPropertyOp21
 70
     1
102
RTVSPropertyOp22
 70
     1
102
RTVSPropertyOp23
 70
     1
102
RTVSPropertyOp24
 70
     1
102
RTVSPropertyOp25
 70
     1
102
RTVSPropertyOp26
 70
     1
102
RTVSPropertyOp27
 70
     1
  0
XRECORD
  5
13F
102
{ACAD_REACTORS
330
13E
102
}
330
13E
100
AcDbXrecord
280
     1
102
RTVSPropertyOp0
 70
     1
102
RTVSPropertyOp1
 70
     1
102
RTVSPropertyOp2
 70
     1
102
RTVSPropertyOp3
 70
     1
102
RTVSPropertyOp4
 70
     1
102
RTVSPropertyOp5
 70
     1
102
RTVSPropertyOp6
 70
     1
102
RTVSPropertyOp7
 70
     1
102
RTVSPropertyOp8
 70
     1
102
RTVSPropertyOp9
 70
     1
102
RTVSPropertyOp10
 70
     1
102
RTVSPropertyOp11
 70
     1
102
RTVSPropertyOp12
 70
     1
102
RTVSPropertyOp13
 70
     1
102
RTVSPropertyOp14
 70
     1
102
RTVSPropertyOp15
 70
     1
102
RTVSPropertyOp16
 70
     1
102
RTVSPropertyOp17
 70
     1
102
RTVSPropertyOp18
 70
     1
102
RTVSPropertyOp19
 70
     1
102
RTVSPropertyOp20
 70
     1
102
RTVSPropertyOp21
 70
     1
102
RTVSPropertyOp22
 70
     1
102
RTVSPropertyOp23
 70
     1
102
RTVSPropertyOp24
 70
     1
102
RTVSPropertyOp25
 70
     1
102
RTVSPropertyOp26
 70
     1
102
RTVSPropertyOp27
 70
     1
  0
XRECORD
  5
147
102
{ACAD_REACTORS
330
146
102
}
330
146
100
AcDbXrecord
280
     1
102
RTVSPropertyOp0
 70
     1
102
RTVSPropertyOp1
 70
     1
102
RTVSPropertyOp2
 70
     1
102
RTVSPropertyOp3
 70
     1
102
RTVSPropertyOp4
 70
     1
102
RTVSPropertyOp5
 70
     1
102
RTVSPropertyOp6
 70
     1
102
RTVSPropertyOp7
 70
     1
102
RTVSPropertyOp8
 70
     1
102
RTVSPropertyOp9
 70
     1
102
RTVSPropertyOp10
 70
     1
102
RTVSPropertyOp11
 70
     1
102
RTVSPropertyOp12
 70
     1
102
RTVSPropertyOp13
 70
     1
102
RTVSPropertyOp14
 70
     1
102
RTVSPropertyOp15
 70
     1
102
RTVSPropertyOp16
 70
     1
102
RTVSPropertyOp17
 70
     1
102
RTVSPropertyOp18
 70
     1
102
RTVSPropertyOp19
 70
     1
102
RTVSPropertyOp20
 70
     1
102
RTVSPropertyOp21
 70
     1
102
RTVSPropertyOp22
 70
     1
102
RTVSPropertyOp23
 70
     1
102
RTVSPropertyOp24
 70
     1
102
RTVSPropertyOp25
 70
     1
102
RTVSPropertyOp26
 70
     1
102
RTVSPropertyOp27
 70
     1
  0
XRECORD
  5
13B
102
{ACAD_REACTORS
330
13A
102
}
330
13A
100
AcDbXrecord
280
     1
102
RTVSPropertyOp0
 70
     1
102
RTVSPropertyOp1
 70
     1
102
RTVSPropertyOp2
 70
     1
102
RTVSPropertyOp3
 70
     1
102
RTVSPropertyOp4
 70
     1
102
RTVSPropertyOp5
 70
     1
102
RTVSPropertyOp6
 70
     1
102
RTVSPropertyOp7
 70
     1
102
RTVSPropertyOp8
 70
     1
102
RTVSPropertyOp9
 70
     1
102
RTVSPropertyOp10
 70
     1
102
RTVSPropertyOp11
 70
     1
102
RTVSPropertyOp12
 70
     1
102
RTVSPropertyOp13
 70
     1
102
RTVSPropertyOp14
 70
     1
102
RTVSPropertyOp15
 70
     1
102
RTVSPropertyOp16
 70
     1
102
RTVSPropertyOp17
 70
     1
102
RTVSPropertyOp18
 70
     1
102
RTVSPropertyOp19
 70
     1
102
RTVSPropertyOp20
 70
     1
102
RTVSPropertyOp21
 70
     1
102
RTVSPropertyOp22
 70
     1
102
RTVSPropertyOp23
 70
     1
102
RTVSPropertyOp24
 70
     1
102
RTVSPropertyOp25
 70
     1
102
RTVSPropertyOp26
 70
     1
102
RTVSPropertyOp27
 70
     1
  0
XRECORD
  5
13D
102
{ACAD_REACTORS
330
13C
102
}
330
13C
100
AcDbXrecord
280
     1
102
RTVSPropertyOp0
 70
     1
102
RTVSPropertyOp1
 70
     1
102
RTVSPropertyOp2
 70
     1
102
RTVSPropertyOp3
 70
     1
102
RTVSPropertyOp4
 70
     1
102
RTVSPropertyOp5
 70
     1
102
RTVSPropertyOp6
 70
     1
102
RTVSPropertyOp7
 70
     1
102
RTVSPropertyOp8
 70
     1
102
RTVSPropertyOp9
 70
     1
102
RTVSPropertyOp10
 70
     1
102
RTVSPropertyOp11
 70
     1
102
RTVSPropertyOp12
 70
     1
102
RTVSPropertyOp13
 70
     1
102
RTVSPropertyOp14
 70
     1
102
RTVSPropertyOp15
 70
     1
102
RTVSPropertyOp16
 70
     1
102
RTVSPropertyOp17
 70
     1
102
RTVSPropertyOp18
 70
     1
102
RTVSPropertyOp19
 70
     1
102
RTVSPropertyOp20
 70
     1
102
RTVSPropertyOp21
 70
     1
102
RTVSPropertyOp22
 70
     1
102
RTVSPropertyOp23
 70
     1
102
RTVSPropertyOp24
 70
     1
102
RTVSPropertyOp25
 70
     1
102
RTVSPropertyOp26
 70
     1
102
RTVSPropertyOp27
 70
     1
  0
XRECORD
  5
145
102
{ACAD_REACTORS
330
144
102
}
330
144
100
AcDbXrecord
280
     1
102
RTVSPropertyOp0
 70
     1
102
RTVSPropertyOp1
 70
     1
102
RTVSPropertyOp2
 70
     1
102
RTVSPropertyOp3
 70
     1
102
RTVSPropertyOp4
 70
     1
102
RTVSPropertyOp5
 70
     1
102
RTVSPropertyOp6
 70
     1
102
RTVSPropertyOp7
 70
     1
102
RTVSPropertyOp8
 70
     1
102
RTVSPropertyOp9
 70
     1
102
RTVSPropertyOp10
 70
     1
102
RTVSPropertyOp11
 70
     1
102
RTVSPropertyOp12
 70
     1
102
RTVSPropertyOp13
 70
     1
102
RTVSPropertyOp14
 70
     1
102
RTVSPropertyOp15
 70
     1
102
RTVSPropertyOp16
 70
     1
102
RTVSPropertyOp17
 70
     1
102
RTVSPropertyOp18
 70
     1
102
RTVSPropertyOp19
 70
     1
102
RTVSPropertyOp20
 70
     1
102
RTVSPropertyOp21
 70
     1
102
RTVSPropertyOp22
 70
     1
102
RTVSPropertyOp23
 70
     1
102
RTVSPropertyOp24
 70
     1
102
RTVSPropertyOp25
 70
     1
102
RTVSPropertyOp26
 70
     1
102
RTVSPropertyOp27
 70
     1
  0
XRECORD
  5
129
102
{ACAD_REACTORS
330
128
102
}
330
128
100
AcDbXrecord
280
     1
102
RTVSPropertyOp0
 70
     1
102
RTVSPropertyOp1
 70
     1
102
RTVSPropertyOp2
 70
     1
102
RTVSPropertyOp3
 70
     1
102
RTVSPropertyOp4
 70
     1
102
RTVSPropertyOp5
 70
     1
102
RTVSPropertyOp6
 70
     1
102
RTVSPropertyOp7
 70
     1
102
RTVSPropertyOp8
 70
     1
102
RTVSPropertyOp9
 70
     1
102
RTVSPropertyOp10
 70
     1
102
RTVSPropertyOp11
 70
     1
102
RTVSPropertyOp12
 70
     1
102
RTVSPropertyOp13
 70
     1
102
RTVSPropertyOp14
 70
     1
102
RTVSPropertyOp15
 70
     1
102
RTVSPropertyOp16
 70
     1
102
RTVSPropertyOp17
 70
     1
102
RTVSPropertyOp18
 70
     1
102
RTVSPropertyOp19
 70
     1
102
RTVSPropertyOp20
 70
     1
102
RTVSPropertyOp21
 70
     1
102
RTVSPropertyOp22
 70
     1
102
RTVSPropertyOp23
 70
     1
102
RTVSPropertyOp24
 70
     1
102
RTVSPropertyOp25
 70
     1
102
RTVSPropertyOp26
 70
     1
102
RTVSPropertyOp27
 70
     1
  0
XRECORD
  5
12B
102
{ACAD_REACTORS
330
12A
102
}
330
12A
100
AcDbXrecord
280
     1
102
RTVSPropertyOp0
 70
     1
102
RTVSPropertyOp1
 70
     1
102
RTVSPropertyOp2
 70
     1
102
RTVSPropertyOp3
 70
     1
102
RTVSPropertyOp4
 70
     1
102
RTVSPropertyOp5
 70
     1
102
RTVSPropertyOp6
 70
     1
102
RTVSPropertyOp7
 70
     1
102
RTVSPropertyOp8
 70
     1
102
RTVSPropertyOp9
 70
     1
102
RTVSPropertyOp10
 70
     1
102
RTVSPropertyOp11
 70
     1
102
RTVSPropertyOp12
 70
     1
102
RTVSPropertyOp13
 70
     1
102
RTVSPropertyOp14
 70
     1
102
RTVSPropertyOp15
 70
     1
102
RTVSPropertyOp16
 70
     1
102
RTVSPropertyOp17
 70
     1
102
RTVSPropertyOp18
 70
     1
102
RTVSPropertyOp19
 70
     1
102
RTVSPropertyOp20
 70
     1
102
RTVSPropertyOp21
 70
     1
102
RTVSPropertyOp22
 70
     1
102
RTVSPropertyOp23
 70
     1
102
RTVSPropertyOp24
 70
     1
102
RTVSPropertyOp25
 70
     1
102
RTVSPropertyOp26
 70
     1
102
RTVSPropertyOp27
 70
     1
  0
XRECORD
  5
12D
102
{ACAD_REACTORS
330
12C
102
}
330
12C
100
AcDbXrecord
280
     1
102
RTVSPropertyOp0
 70
     1
102
RTVSPropertyOp1
 70
     1
102
RTVSPropertyOp2
 70
     1
102
RTVSPropertyOp3
 70
     1
102
RTVSPropertyOp4
 70
     1
102
RTVSPropertyOp5
 70
     1
102
RTVSPropertyOp6
 70
     1
102
RTVSPropertyOp7
 70
     1
102
RTVSPropertyOp8
 70
     1
102
RTVSPropertyOp9
 70
     1
102
RTVSPropertyOp10
 70
     1
102
RTVSPropertyOp11
 70
     1
102
RTVSPropertyOp12
 70
     1
102
RTVSPropertyOp13
 70
     1
102
RTVSPropertyOp14
 70
     1
102
RTVSPropertyOp15
 70
     1
102
RTVSPropertyOp16
 70
     1
102
RTVSPropertyOp17
 70
     1
102
RTVSPropertyOp18
 70
     1
102
RTVSPropertyOp19
 70
     1
102
RTVSPropertyOp20
 70
     1
102
RTVSPropertyOp21
 70
     1
102
RTVSPropertyOp22
 70
     1
102
RTVSPropertyOp23
 70
     1
102
RTVSPropertyOp24
 70
     1
102
RTVSPropertyOp25
 70
     1
102
RTVSPropertyOp26
 70
     1
102
RTVSPropertyOp27
 70
     1
  0
XRECORD
  5
12F
102
{ACAD_REACTORS
330
12E
102
}
330
12E
100
AcDbXrecord
280
     1
102
RTVSPropertyOp0
 70
     1
102
RTVSPropertyOp1
 70
     1
102
RTVSPropertyOp2
 70
     1
102
RTVSPropertyOp3
 70
     1
102
RTVSPropertyOp4
 70
     1
102
RTVSPropertyOp5
 70
     1
102
RTVSPropertyOp6
 70
     1
102
RTVSPropertyOp7
 70
     1
102
RTVSPropertyOp8
 70
     1
102
RTVSPropertyOp9
 70
     1
102
RTVSPropertyOp10
 70
     1
102
RTVSPropertyOp11
 70
     1
102
RTVSPropertyOp12
 70
     1
102
RTVSPropertyOp13
 70
     1
102
RTVSPropertyOp14
 70
     1
102
RTVSPropertyOp15
 70
     1
102
RTVSPropertyOp16
 70
     1
102
RTVSPropertyOp17
 70
     1
102
RTVSPropertyOp18
 70
     1
102
RTVSPropertyOp19
 70
     1
102
RTVSPropertyOp20
 70
     1
102
RTVSPropertyOp21
 70
     1
102
RTVSPropertyOp22
 70
     1
102
RTVSPropertyOp23
 70
     1
102
RTVSPropertyOp24
 70
     1
102
RTVSPropertyOp25
 70
     1
102
RTVSPropertyOp26
 70
     1
102
RTVSPropertyOp27
 70
     1
  0
XRECORD
  5
143
102
{ACAD_REACTORS
330
142
102
}
330
142
100
AcDbXrecord
280
     1
102
RTVSPropertyOp0
 70
     1
102
RTVSPropertyOp1
 70
     1
102
RTVSPropertyOp2
 70
     1
102
RTVSPropertyOp3
 70
     1
102
RTVSPropertyOp4
 70
     1
102
RTVSPropertyOp5
 70
     1
102
RTVSPropertyOp6
 70
     1
102
RTVSPropertyOp7
 70
     1
102
RTVSPropertyOp8
 70
     1
102
RTVSPropertyOp9
 70
     1
102
RTVSPropertyOp10
 70
     1
102
RTVSPropertyOp11
 70
     1
102
RTVSPropertyOp12
 70
     1
102
RTVSPropertyOp13
 70
     1
102
RTVSPropertyOp14
 70
     1
102
RTVSPropertyOp15
 70
     1
102
RTVSPropertyOp16
 70
     1
102
RTVSPropertyOp17
 70
     1
102
RTVSPropertyOp18
 70
     1
102
RTVSPropertyOp19
 70
     1
102
RTVSPropertyOp20
 70
     1
102
RTVSPropertyOp21
 70
     1
102
RTVSPropertyOp22
 70
     1
102
RTVSPropertyOp23
 70
     1
102
RTVSPropertyOp24
 70
     1
102
RTVSPropertyOp25
 70
     1
102
RTVSPropertyOp26
 70
     1
102
RTVSPropertyOp27
 70
     1
  0
XRECORD
  5
139
102
{ACAD_REACTORS
330
138
102
}
330
138
100
AcDbXrecord
280
     1
102
RTVSPropertyOp0
 70
     1
102
RTVSPropertyOp1
 70
     1
102
RTVSPropertyOp2
 70
     1
102
RTVSPropertyOp3
 70
     1
102
RTVSPropertyOp4
 70
     1
102
RTVSPropertyOp5
 70
     1
102
RTVSPropertyOp6
 70
     1
102
RTVSPropertyOp7
 70
     1
102
RTVSPropertyOp8
 70
     1
102
RTVSPropertyOp9
 70
     1
102
RTVSPropertyOp10
 70
     1
102
RTVSPropertyOp11
 70
     1
102
RTVSPropertyOp12
 70
     1
102
RTVSPropertyOp13
 70
     1
102
RTVSPropertyOp14
 70
     1
102
RTVSPropertyOp15
 70
     1
102
RTVSPropertyOp16
 70
     1
102
RTVSPropertyOp17
 70
     1
102
RTVSPropertyOp18
 70
     1
102
RTVSPropertyOp19
 70
     1
102
RTVSPropertyOp20
 70
     1
102
RTVSPropertyOp21
 70
     1
102
RTVSPropertyOp22
 70
     1
102
RTVSPropertyOp23
 70
     1
102
RTVSPropertyOp24
 70
     1
102
RTVSPropertyOp25
 70
     1
102
RTVSPropertyOp26
 70
     1
102
RTVSPropertyOp27
 70
     1
  0
XRECORD
  5
141
102
{ACAD_REACTORS
330
140
102
}
330
140
100
AcDbXrecord
280
     1
102
RTVSPropertyOp0
 70
     1
102
RTVSPropertyOp1
 70
     1
102
RTVSPropertyOp2
 70
     1
102
RTVSPropertyOp3
 70
     1
102
RTVSPropertyOp4
 70
     1
102
RTVSPropertyOp5
 70
     1
102
RTVSPropertyOp6
 70
     1
102
RTVSPropertyOp7
 70
     1
102
RTVSPropertyOp8
 70
     1
102
RTVSPropertyOp9
 70
     1
102
RTVSPropertyOp10
 70
     1
102
RTVSPropertyOp11
 70
     1
102
RTVSPropertyOp12
 70
     1
102
RTVSPropertyOp13
 70
     1
102
RTVSPropertyOp14
 70
     1
102
RTVSPropertyOp15
 70
     1
102
RTVSPropertyOp16
 70
     1
102
RTVSPropertyOp17
 70
     1
102
RTVSPropertyOp18
 70
     1
102
RTVSPropertyOp19
 70
     1
102
RTVSPropertyOp20
 70
     1
102
RTVSPropertyOp21
 70
     1
102
RTVSPropertyOp22
 70
     1
102
RTVSPropertyOp23
 70
     1
102
RTVSPropertyOp24
 70
     1
102
RTVSPropertyOp25
 70
     1
102
RTVSPropertyOp26
 70
     1
102
RTVSPropertyOp27
 70
     1
  0
ENDSEC
  0
EOF
